(Retro, Pop) VA-Песня 1980- 1990 (11CD Album) - 2007 [FLAC, image +.cue, lossless]

 
Автор Сообщение

sergej644 ®

Пол:

Стаж: 4 года 11 месяцев

Сообщений: 6040

Откуда: Soviet Union



Награды: Нет

Торрент-статистика

Создавать темы 14-Янв-2016 10:15

[Цитировать]

-VA-Песня 1980'- 1990' (11CD Album)-- Год издания: 2007
Страна: USSR | Russia |
Жанр: Retro, Pop
Продолжительность: 12:26:53-Лейбл издания: Bomba Music
Тип альбома: Compilation
Источник (релизер): SergeyJD-Формат: FLAC (*.flac)
Битрейт аудио: Lossless
Тип рипа: image +.cue
Наличие сканов в содержимом раздачи: да
-

Трэклист

VA - Песня 80' | 01:01:12

Страна-производитель диска: Russia
Год выпуска диска: 2007
Дата выхода оригинального издания: 2007
Тип издания: CD, Album, Compilation
Издатель (лейбл): Bomba Music
Номер по каталогу: BoMB 033-374
Продолжительность: 01:01:12
Наличие сканов в содержимом раздачи: да, PNG 600dpi


01.София Ротару - Мой край (украинская песня)(03:21)
02.Лев Лещенко - Река моего детства(05:18)
03.София Ротару - Ожидание(04:36)
04.Группа Стаса Намина - После дождя(04:02)
05.Иосиф Кобзон - Детства последний звонок(03:11)
06.Галина Беседина, Сергей Тараненко - Так хочется любви(03:51)
07.Леонид Серебренников - Арктическая повесть(02:20)
08.ВИА 'Верасы' - Малиновка(02:34)
09.Эдита Пьеха, ВИА п/у Г. Клеменса - Придумай такое мне имя(06:06)
10.Муслим Магомаев - Скажи глазам твоим(04:32)
11.Николай Гнатюк - Танец на барабане(03:49)
12.Людмила Сенчина - Не ищите ландышей в месяце апреле(02:19)
13.Вахтанг Кикабидзе - Мои года(03:09)
14.Тынис Мяги - Олимпиада(04:42)
15.Группа Стаса Намина - Богатырская наша сила(03:52)
16.Лев Лещенко, Татьяна Анциферова - До свиданья, Москва(03:38)

VA - Песня 81' | 01:17:52

Страна-производитель диска: Russia
Год выпуска диска: 2007
Дата выхода оригинального издания: 2007
Тип издания: CD, Album, Compilation
Издатель (лейбл): Bomba Music
Номер по каталогу: BoMB 033-375
Продолжительность: 01:17:52
Наличие сканов в содержимом раздачи: да, PNG 600dpi


01.Эдита Пьеха, 'Дружба' - Ни дня без песни(05:20)
02.Ирина Понаровская - Я - любовь(05:37)
03.Яак Йоала - Я тебя рисую(02:34)
04.Татьяна Петрова - Цветет черемуха к похолоданию(02:36)
05.Николай Гнатюк - Днепровская вода(04:53)
06.Тамара Гвердцители - Музыка(04:11)
07.Лев Лещенко, ВИА 'Спектр' - Родительский дом(03:43)
08.ВИА 'Сябры' - Девушка из полесья(05:37)
09.Эдита Пьеха - Не бойтесь любви(05:01)
10.Ярослав Евдокимов - Зачарованная моя(03:22)
11.Бируте Петриките - Заклятье(04:40)
12.ВИА 'Ялла' - Последняя поэма(05:30)
13.София Ротару, Ансамбль 'Червона рута' - Верь мне(03:23)
14.Вахтанг Кикабидзе - Вот и весь разговор(03:24)
15.ВИА 'Верасы' - Я у бабушки живу(04:04)
16.София Ротару - Красная стрела(05:18)
17.Николай Гнатюк - Птица счастья(03:14)
18.Алла Пугачева, Раймонд Паулс - Маэстро(05:35)

VA - Песня 82' | 01:12:25

Страна-производитель диска: Russia
Год выпуска диска: 2007
Дата выхода оригинального издания: 2007
Тип издания: CD, Album, Compilation
Издатель (лейбл): Bomba Music
Номер по каталогу: BoMB 033-376
Продолжительность: 01:12:25
Наличие сканов в содержимом раздачи: да, PNG 600dpi


01.ВИА 'Верасы' - Завируха(04:16)
02.Роза Рымбаева - Здесь мой дом(02:55)
03.Леонид Борткевич - Мотыли(02:55)
04.Валентина Толкунова - Я не могу иначе(04:06)
05.Валерий Топорков - Встреча друзей(04:12)
06.Людмила Зыкина - Где ты, где ты, отчий дом(05:30)
07.Леонид Серебренников - Дон Кихоты (из песенного цика 'Испанские сюжеты')(03:38)
08.Юрий Богатиков - Четвертая весна(04:12)
09.Надежда Бабкина, Ансамбль 'Русская песня' - Черемуха(03:17)
10.Иосиф Кобзон - Реченька(04:05)
11.Тамара Гвердцители - Цветет сирень(03:41)
12.Алла Пугачева - Старинные часы(04:47)
13.ВИА 'Верасы' - Любовь моя(03:49)
14.Георгий Минасян, Сюзан Маркарян и Людвиг Тополян - Аревик(03:07)
15.Галина Беседина - Глаза любви(04:04)
16.ВИА 'Ялла' - Учкудук(04:41)
17.Валентина Толкунова - А любовь то лебедем(05:05)
18.София Ротару - Меланхолия(04:15)

VA - Песня 83' | 01:01:59

Страна-производитель диска: Russia
Год выпуска диска: 2007
Дата выхода оригинального издания: 2007
Тип издания: CD, Album, Compilation
Издатель (лейбл): Bomba Music
Номер по каталогу: BoMB 033-377
Продолжительность: 01:01:59
Наличие сканов в содержимом раздачи: да, PNG 600dpi


01.ВИА 'Песняры' - Коляда(02:48)
02.Алла Пугачева, Кристина Орбакайте - Все еще будет(03:07)
03.Валерий Леонтьев - Полет на дельтаплане(03:48)
04.Трио 'Меридиан' - Твой голос(02:59)
05.Николай Гнатюк - Двух жизней не бывает(03:34)
06.ВИА 'Земляне' - Трава у дома(04:44)
07.София Ротару, Вокальный ансамбль п/у Б. Тевлина - Счастье тебе, Земля(04:54)
08.Татьяна Рузавина и Сергей Таюшев - Станция 'Минутка'(02:39)
09.Трио 'Меридиан' - Я тебя никогда не забуду(03:56)
10.Лев Лещенко, ВИА 'Спектр' - Где мой дом родной(04:35)
11.Людмила Сенчина - Любовь и разлука(03:26)
12.Вокальный квартет 'Сердца четырех' - Три белых коня(02:32)
13.Алла Пугачева - Миллион алых роз(05:48)
14.Валерий Леонтьев, ВИА 'Надежда' - Когда умолкнет дискотека(03:10)
15.Эдита Пьеха, Вокальный ансамбль п/у Ю. Цветкова - Помолчим(03:12)
16.Васил Найденов (Болгария) - Хорошее настроение(03:16)
17.София Ротару - Музыка со всех сторон(03:40)

VA - Песня 84' | 01:07:12

Страна-производитель диска: Russia
Год выпуска диска: 2007
Дата выхода оригинального издания: 2007
Тип издания: CD, Album, Compilation
Издатель (лейбл): Bomba Music
Номер по каталогу: BoMB 033-378
Продолжительность: 01:07:12
Наличие сканов в содержимом раздачи: да, PNG 600dpi


01.Лев Лещенко - Дорога в детство(03:59)
02.Валентина Толкунова - Песенка без конца(03:47)
03.Трио 'Меридиан' - Любовь,не покидай меня(03:44)
04.Людмила Гурченко - Что знает о любви любовь(03:50)
05.Татьяна Рузавина, Сергей Таюшев - Два белых снега(02:30)
06.Надежда Чепрага - Во имя мира и любви(02:45)
07.ВИА 'Ялла' - Шахрисабз(03:10)
08.Галина Беседина - Зелёные цветы(04:12)
09.Алла Пугачева - Расскажите, птицы(06:21)
10.Евгений Мартынов - Марш-воспоминание(04:16)
11.Людмила Сенчина - Вы мне нравитесь(03:24)
12.Алла Пугачева - Айсберг(04:34)
13.М. Зивере, И. Ванзович, Ансамбль 'Опус' - Надо подумать(03:57)
14.София Ротару - Романтика(04:58)
15.Валерий Леонтьев - Затмение сердца(03:41)
16.Алла Пугачева - Без меня(04:38)
17.Эдуард Хиль - Завтрашний день(03:34)

VA - Песня 85' | 00:58:30

Страна-производитель диска: Russia
Год выпуска диска: 2007
Дата выхода оригинального издания: 2007
Тип издания: CD, Album, Compilation
Издатель (лейбл): Bomba Music
Номер по каталогу: BoMB 033-379
Продолжительность: 00:58:30
Наличие сканов в содержимом раздачи: да, PNG 600dpi


01.Трио 'Меридиан' - Прекрасное далеко(04:04)
02.Эдита Пьеха - Облака(04:21)
03.Алла Пугачева - Паромщик(03:34)
04.Муслим Магомаев - Песне моей поверь(03:25)
05.София Ротару - Аист на крыше(03:27)
06.Лев Лещенко - Свежий ветер(02:18)
07.Ирина Понаровская - Мир без чудес(04:17)
08.ВИА 'Самоцветы' - Салют(03:28)
09.София Ротару - В доме моем(03:48)
10.ВИА 'Верасы' - Первое свидание(04:07)
11.Сергей Беликов - Живи, родник(03:02)
12.ВИА 'Ялла' - Город снов(03:31)
13.Валерий Леонтьев - Три минуты(03:56)
14.ВИА 'Верные друзья' - Пароход(02:56)
15.Валентина Толкунова - Немое кино(02:38)
16.Игорь Скляр - Комарово(02:13)
17.Алла Пугачева - Делу время(03:31)

VA - Песня 86' | 00:58:05

Страна-производитель диска: Russia
Год выпуска диска: 2007
Дата выхода оригинального издания: 2007
Тип издания: CD, Album, Compilation
Издатель (лейбл): Bomba Music
Номер по каталогу: BoMB 033-380
Продолжительность: 00:58:04
Наличие сканов в содержимом раздачи: да, PNG 600dpi


01.Сергей Захаров - Моей судьбы река(04:43)
02.Наталия Нурмухамедова - Танец на воздушных шарах(02:51)
03.Александр Градский - Любимая, спи(05:09)
04.ВИА 'Садо' - Счастье первому дому(03:38)
05.Людмила Рюмина - Красота твоя(04:07)
06.Ярослав Евдокимов - Берег юности(02:41)
07.Валентина Толкунова - Скажите, лебеди(03:41)
08.ВИА 'Маки' - Чудо-земля(04:03)
09.Т. Чубинидзе - Жеребенок(03:28)
10.Радмила Караклаич - Буду(03:11)
11.Иосиф Кобзон - Я возвращаюсь к тебе(04:11)
12.Лев Лещенко, ВИА 'Спектр' - Пришла пора(04:01)
13.Алла Пугачева - Прости, поверь(03:52)
14.Валерий Леонтьев - Лето, прощай!(04:28)
15.Трио 'Меридиан' - Чистые росы(04:08)

VA - Песня 87' | 01:10:33

Страна-производитель диска: Russia
Год выпуска диска: 2007
Дата выхода оригинального издания: 2007
Тип издания: CD, Album, Compilation
Издатель (лейбл): Bomba Music
Номер по каталогу: BoMB 033-381
Продолжительность: 01:10:33
Наличие сканов в содержимом раздачи: да, PNG 600dpi


01.Эдита Пьеха - Пора подснежников(04:46)
02.Евгений Мартынов - Белая сирень(03:22)
03.Сергей Беликов - Снится мне деревня(03:18)
04.ВИА 'Пламя' - Зацветает краснотал(03:10)
05.Владимир Мигуля - Земляки(04:30)
06.Валерий Леонтьев - Белая ворона(06:56)
07.Валентина Легкоступова и инстр. анс. Москонцерта - Ягода-малина(04:44)
08.Р. Фоминс и ВИА 'Ремикс' - Письма ветра(04:53)
09.Муслим Магомаев - Свадьба(03:47)
10.Ирина Грибулина - Недотрога(03:40)
11.С. Сархан и инстр. анс. Москонцерта - Играю черными(03:48)
12.Анне Вески и инстр. анс. Москонцерта - Самба с Марадоной(03:36)
13.Бит-квартет 'Секрет' - Сара-Бара-Бу(02:36)
14.Александр Барыкин и группа 'Карнавал' - Букет(03:43)
15.Ольга Зарубина - На теплоходе музыка играет(03:18)
16.Игорь Тальков - Чистые пруды(05:40)
17.Лайма Вайкуле - Вернисаж(04:52)

VA - Песня 88' | 01:10:01

Страна-производитель диска: Russia
Год выпуска диска: 2007
Дата выхода оригинального издания: 2007
Тип издания: CD, Album, Compilation
Издатель (лейбл): Bomba Music
Номер по каталогу: BoMB 033-382
Продолжительность: 01:10:01
Наличие сканов в содержимом раздачи: да, PNG 600dpi


01.Алиса Мон - Подорожник-трава(03:51)
02.Яна Поплавская, Александр Тиханович - Счастливый случай(04:01)
03.ВИА 'Сябры' - Завалинка(03:01)
04.Игорь Саруханов - Дорогие мои старики(04:08)
05.Олег Газманов, Родион Газманов - Люси(03:23)
06.ВИА 'Ялла' - Музыкальная чайхана(03:51)
07.Лев Лещенко - Горько(04:39)
08.Тамара Гвердцители - Эдит Пиаф(03:17)
09.Валерий Леонтьев - Доктор Время(06:01)
10.Игорь Корнелюк - Билет на балет(04:12)
11.Михаил Муромов - Яблоки на снегу(04:24)
12.Вячеслав Малежик - Смолоду(03:03)
13.Группа 'Электроклуб' (солист - Виктор Салтыков) - Ты замуж за него не выходи(03:41)
14.Вячеслав Добрынин - Синий туман(03:50)
15.Ирина Понаровская - Я больше не хочу(05:47)
16.Игорь Николаев - Королевство кривых зеркал(04:13)
17.Александр Буйнов - Родня(04:47)

VA - Песня 89' | 01:11:34

Страна-производитель диска: Russia
Год выпуска диска: 2007
Дата выхода оригинального издания: 2007
Тип издания: CD, Album, Compilation
Издатель (лейбл): Bomba Music
Номер по каталогу: BoMB 033-383
Продолжительность: 01:11:34
Наличие сканов в содержимом раздачи: да, PNG 600dpi


01.Маша Распутина и группа 'Бульвар' - Играй, музыкант(03:30)
02.Игорь Азаров - Мост качается(03:29)
03.Вячеслав Малежик и группа 'Саквояж' - Провинциалка(03:10)
04.Эдита Пьеха - Белый вечер(03:11)
05.ВИА 'Сябры' - Печки-лавочки(03:19)
06.А. Днепров - Адрес - Русь(04:04)
07.Ольга Зарубина - Разгуляй(03:14)
08.Ион Суручану - Незабудка(03:15)
09.Группа 'Игра' (худ.рук. И. Гранов) - Неспелая вишня(04:35)
10.Вячеслав Добрынин - Не сыпь мне соль на рану(04:33)
11.Виктор Салтыков и группа 'Электроклуб' (худ.рук. Д. Тухманов) - Я тебя не прощу(03:25)
12.Анс. 'Веселые ребята' - Розовые розы(04:49)
13.Александр Малинин - Пилигримы(06:01)
14.Алексей Глызин и группа 'Ура' - Зимний сад(04:39)
15.Валентина Легкоступова и Арт-группа 'Бревис' - Капля в море(03:08)
16.Игорь Корнелюк - Возвращайся(04:19)
17.Тамара Гвердцители - Виват, король!(04:46)
18.Ирина Понаровская - Рябиновые бусы(04:15)

VA - Песня 90' | 01:17:35

Страна-производитель диска: Russia
Год выпуска диска: 2007
Дата выхода оригинального издания: 2007
Тип издания: CD, Album, Compilation
Издатель (лейбл): Bomba Music
Номер по каталогу: BoMB 033-384
Продолжительность: 01:17:35
Наличие сканов в содержимом раздачи: да, PNG 600dpi


01.Наташа Королева - Желтые тюльпаны(04:53)
02.Юрий Лоза - Плот(05:21)
03.Игорь Корнелюк - Дожди(04:12)
04.Игорь Корнелюк, Эдита Пьеха - Послушай(02:45)
05.Лайма Вайкуле - Я за тебя молюсь(04:20)
06.Михаил Муромов - Странная женщина(06:49)
07.Шоу-группа 'На-На' п/у Бари Алибасова - Эскимос и папуас(04:45)
08.Группа 'Доктор Шлягер' - Колдовское озеро(02:53)
09.Азиза - Твоя улыбка(04:09)
10.Александр Барыкин - За той рекой(03:14)
11.Группа 'Санкт-Петербург' - Очарована, околдована...(03:48)
12.Алексей Глызин и группа 'Ура' - Пепел любви(05:48)
13.Владимир Мигуля - Туда - сюда(03:52)
14.Вячеслав Добрынин и Маша Распутина - Льется музыка(06:05)
15.Сергей Рогожин и группа 'Форум' - Ревность(04:24)
16.Группа 'Веселые ребята' - Безнадега(03:36)
17.Олег Газманов - Эскадрон(03:07)
18.Валерий Леонтьев - Белый снег(03:42)
-

Лог создания рипа

VA - Песня 80'

Exact Audio Copy V1.0 beta 3 from 29. August 2011
Отчёт EAC об извлечении, выполненном 7. ноября 2014, 21:03
Various Artists / Песня 80' (BoMB 033-374)
Дисковод: PIONEER BD-RW   BDR-206   Adapter: 1  ID: 1
Режим чтения                 : Достоверность
Использование точного потока : Да
Отключение кэша аудио        : Да
Использование указателей C2  : Нет
Коррекция смещения при чтении                     : 667
Способность читать области Lead-in и Lead-out     : Нет
Заполнение пропущенных сэмплов тишиной            : Да
Удаление блоков с тишиной в начале и конце        : Нет
При вычислениях CRC использовались нулевые сэмплы : Да
Интерфейс                                         : Установленный внешний ASPI-интерфейс
Выходной формат          : Пользовательский кодировщик
Выбранный битрейт        : 1024 kBit/s
Качество                 : Высокий
Добавление ID3-тега      : Нет
Утилита сжатия           : C:\Program Files (x86)\Exact Audio Copy\FLAC\FLAC.EXE
Дополнительные параметры : -T "COMMENT=Ripped by SergeyJD"-8 -V -T "ARTIST=%artist%" -T "TITLE=%title%" -T "ALBUM=%albumtitle%" -T "DATE=%year%" -T "TRACKNUMBER=%tracknr%" -T "GENRE=%genre%" -T "COMMENT=%comment%" -T "BAND=%albuminterpret%" -T "ALBUMARTIST=%albuminterpret%" -T "COMPOSER=%composer%" %haslyrics%--tag-from-file=LYRICS="%lyricsfile%"%haslyrics% -T "DISCNUMBER=%cdnumber%" -T "TOTALDISCS=%totalcds%" -T "TOTALTRACKS=%numtracks%" %hascover%--picture="%coverfile%"%hascover% %source% -o %dest%
TOC извлечённого CD
     Трек |   Старт  | Длительность | Начальный сектор | Конечный сектор
    ---------------------------------------------------------------------
       1  |  0:00.00 |    3:20.23   |           0      |      15022
       2  |  3:20.23 |    5:17.52   |       15023      |      38849
       3  |  8:38.00 |    4:35.13   |       38850      |      59487
       4  | 13:13.13 |    4:01.72   |       59488      |      77634
       5  | 17:15.10 |    3:10.72   |       77635      |      91956
       6  | 20:26.07 |    3:50.08   |       91957      |     109214
       7  | 24:16.15 |    2:19.45   |      109215      |     119684
       8  | 26:35.60 |    2:33.12   |      119685      |     131171
       9  | 29:08.72 |    6:05.61   |      131172      |     158607
      10  | 35:14.58 |    4:31.08   |      158608      |     178940
      11  | 39:45.66 |    3:48.27   |      178941      |     196067
      12  | 43:34.18 |    2:18.49   |      196068      |     206466
      13  | 45:52.67 |    3:08.25   |      206467      |     220591
      14  | 49:01.17 |    4:41.46   |      220592      |     241712
      15  | 53:42.63 |    3:51.31   |      241713      |     259068
      16  | 57:34.19 |    3:37.34   |      259069      |     275377
Характеристики диапазона извлечения и сообщения об ошибках
Выбранный диапазон
     Имя файла D:\РАЗДАЧИ!!!!\VA-Песня 1980'- 1990' (11CD Album) - 2007\Various - Песня 80' (BoMB 033-374) - 2007\Various Artists - Песня 80' (BoMB 033-374).wav
     Пиковый уровень 99.8 %
     Скорость извлечения 7.4 X
     Качество диапазона 100.0 %
     CRC теста A772E8AE
     CRC копии A772E8AE
     Копирование... OK
Ошибок не произошло
AccurateRip: сводка
Трек  1  отсутствует в базе данных
Трек  2  отсутствует в базе данных
Трек  3  отсутствует в базе данных
Трек  4  отсутствует в базе данных
Трек  5  отсутствует в базе данных
Трек  6  отсутствует в базе данных
Трек  7  отсутствует в базе данных
Трек  8  отсутствует в базе данных
Трек  9  отсутствует в базе данных
Трек 10  отсутствует в базе данных
Трек 11  отсутствует в базе данных
Трек 12  отсутствует в базе данных
Трек 13  отсутствует в базе данных
Трек 14  отсутствует в базе данных
Трек 15  отсутствует в базе данных
Трек 16  отсутствует в базе данных
Ни одного трека нет в базе AccurateRip
Конец отчёта
---- CUETools DB Plugin V2.1.4
[CTDB TOCID: RIu4ottlipEWtmYV7rrYqJe3cRo-] found
Submit result: already submitted
Track | CTDB Status
  1   | (1/1) Accurately ripped
  2   | (1/1) Accurately ripped
  3   | (1/1) Accurately ripped
  4   | (1/1) Accurately ripped
  5   | (1/1) Accurately ripped
  6   | (1/1) Accurately ripped
  7   | (1/1) Accurately ripped
  8   | (1/1) Accurately ripped
  9   | (1/1) Accurately ripped
10   | (1/1) Accurately ripped
11   | (1/1) Accurately ripped
12   | (1/1) Accurately ripped
13   | (1/1) Accurately ripped
14   | (1/1) Accurately ripped
15   | (1/1) Accurately ripped
16   | (1/1) Accurately ripped

VA - Песня 81'

Exact Audio Copy V1.0 beta 3 from 29. August 2011
Отчёт EAC об извлечении, выполненном 7. ноября 2014, 22:26
Various Artists / Песня 81' (BoMB 033-375)
Дисковод: PIONEER BD-RW   BDR-206   Adapter: 1  ID: 1
Режим чтения                 : Достоверность
Использование точного потока : Да
Отключение кэша аудио        : Да
Использование указателей C2  : Нет
Коррекция смещения при чтении                     : 667
Способность читать области Lead-in и Lead-out     : Нет
Заполнение пропущенных сэмплов тишиной            : Да
Удаление блоков с тишиной в начале и конце        : Нет
При вычислениях CRC использовались нулевые сэмплы : Да
Интерфейс                                         : Установленный внешний ASPI-интерфейс
Выходной формат          : Пользовательский кодировщик
Выбранный битрейт        : 1024 kBit/s
Качество                 : Высокий
Добавление ID3-тега      : Нет
Утилита сжатия           : C:\Program Files (x86)\Exact Audio Copy\FLAC\FLAC.EXE
Дополнительные параметры : -T "COMMENT=Ripped by SergeyJD"-8 -V -T "ARTIST=%artist%" -T "TITLE=%title%" -T "ALBUM=%albumtitle%" -T "DATE=%year%" -T "TRACKNUMBER=%tracknr%" -T "GENRE=%genre%" -T "COMMENT=%comment%" -T "BAND=%albuminterpret%" -T "ALBUMARTIST=%albuminterpret%" -T "COMPOSER=%composer%" %haslyrics%--tag-from-file=LYRICS="%lyricsfile%"%haslyrics% -T "DISCNUMBER=%cdnumber%" -T "TOTALDISCS=%totalcds%" -T "TOTALTRACKS=%numtracks%" %hascover%--picture="%coverfile%"%hascover% %source% -o %dest%
TOC извлечённого CD
     Трек |   Старт  | Длительность | Начальный сектор | Конечный сектор
    ---------------------------------------------------------------------
       1  |  0:00.00 |    5:19.09   |           0      |      23933
       2  |  5:19.09 |    5:36.55   |       23934      |      49188
       3  | 10:55.64 |    2:33.37   |       49189      |      60700
       4  | 13:29.26 |    2:35.54   |       60701      |      72379
       5  | 16:05.05 |    4:52.26   |       72380      |      94305
       6  | 20:57.31 |    4:10.20   |       94306      |     113075
       7  | 25:07.51 |    3:42.02   |      113076      |     129727
       8  | 28:49.53 |    5:36.48   |      129728      |     154975
       9  | 34:26.26 |    5:00.32   |      154976      |     177507
      10  | 39:26.58 |    3:21.05   |      177508      |     192587
      11  | 42:47.63 |    4:39.67   |      192588      |     213579
      12  | 47:27.55 |    5:29.21   |      213580      |     238275
      13  | 52:57.01 |    3:22.05   |      238276      |     253430
      14  | 56:19.06 |    3:23.06   |      253431      |     268661
      15  | 59:42.12 |    4:03.50   |      268662      |     286936
      16  | 63:45.62 |    5:17.59   |      286937      |     310770
      17  | 69:03.46 |    3:13.46   |      310771      |     325291
      18  | 72:17.17 |    5:34.42   |      325292      |     350383
Характеристики диапазона извлечения и сообщения об ошибках
Выбранный диапазон
     Имя файла D:\РАЗДАЧИ!!!!\VA-Песня 1980'- 1990' (11CD Album) - 2007\Various - Песня 81' (BoMB 033-375) - 2007\Various Artists - Песня 81' (BoMB 033-375).wav
     Пиковый уровень 100.0 %
     Скорость извлечения 2.1 X
     Качество диапазона 100.0 %
     CRC теста 64621464
     CRC копии 64621464
     Копирование... OK
Ошибок не произошло
AccurateRip: сводка
Трек  1  отсутствует в базе данных
Трек  2  отсутствует в базе данных
Трек  3  отсутствует в базе данных
Трек  4  отсутствует в базе данных
Трек  5  отсутствует в базе данных
Трек  6  отсутствует в базе данных
Трек  7  отсутствует в базе данных
Трек  8  отсутствует в базе данных
Трек  9  отсутствует в базе данных
Трек 10  отсутствует в базе данных
Трек 11  отсутствует в базе данных
Трек 12  отсутствует в базе данных
Трек 13  отсутствует в базе данных
Трек 14  отсутствует в базе данных
Трек 15  отсутствует в базе данных
Трек 16  отсутствует в базе данных
Трек 17  отсутствует в базе данных
Трек 18  отсутствует в базе данных
Ни одного трека нет в базе AccurateRip
Конец отчёта
---- CUETools DB Plugin V2.1.4
[CTDB TOCID: IVM_J1536y2BGwU1bf2U5UjBd7Q-] disk not present in database
Submit result: IVM_J1536y2BGwU1bf2U5UjBd7Q- has been uploaded

VA - Песня 82'

Exact Audio Copy V1.0 beta 3 from 29. August 2011
Отчёт EAC об извлечении, выполненном 8. ноября 2014, 0:04
Various Artists / Песня 82' (BoMB 033-376)
Дисковод: PIONEER BD-RW   BDR-206   Adapter: 1  ID: 1
Режим чтения                 : Достоверность
Использование точного потока : Да
Отключение кэша аудио        : Да
Использование указателей C2  : Нет
Коррекция смещения при чтении                     : 667
Способность читать области Lead-in и Lead-out     : Нет
Заполнение пропущенных сэмплов тишиной            : Да
Удаление блоков с тишиной в начале и конце        : Нет
При вычислениях CRC использовались нулевые сэмплы : Да
Интерфейс                                         : Установленный внешний ASPI-интерфейс
Выходной формат          : Пользовательский кодировщик
Выбранный битрейт        : 1024 kBit/s
Качество                 : Высокий
Добавление ID3-тега      : Нет
Утилита сжатия           : C:\Program Files (x86)\Exact Audio Copy\FLAC\FLAC.EXE
Дополнительные параметры : -T "COMMENT=Ripped by SergeyJD"-8 -V -T "ARTIST=%artist%" -T "TITLE=%title%" -T "ALBUM=%albumtitle%" -T "DATE=%year%" -T "TRACKNUMBER=%tracknr%" -T "GENRE=%genre%" -T "COMMENT=%comment%" -T "BAND=%albuminterpret%" -T "ALBUMARTIST=%albuminterpret%" -T "COMPOSER=%composer%" %haslyrics%--tag-from-file=LYRICS="%lyricsfile%"%haslyrics% -T "DISCNUMBER=%cdnumber%" -T "TOTALDISCS=%totalcds%" -T "TOTALTRACKS=%numtracks%" %hascover%--picture="%coverfile%"%hascover% %source% -o %dest%
TOC извлечённого CD
     Трек |   Старт  | Длительность | Начальный сектор | Конечный сектор
    ---------------------------------------------------------------------
       1  |  0:00.00 |    4:15.61   |           0      |      19185
       2  |  4:15.61 |    2:54.33   |       19186      |      32268
       3  |  7:10.19 |    2:54.15   |       32269      |      45333
       4  | 10:04.34 |    4:05.47   |       45334      |      63755
       5  | 14:10.06 |    4:11.71   |       63756      |      82651
       6  | 18:22.02 |    5:29.09   |       82652      |     107335
       7  | 23:51.11 |    3:37.03   |      107336      |     123613
       8  | 27:28.14 |    4:11.29   |      123614      |     142467
       9  | 31:39.43 |    3:16.08   |      142468      |     157175
      10  | 34:55.51 |    4:04.37   |      157176      |     175512
      11  | 39:00.13 |    3:40.15   |      175513      |     192027
      12  | 42:40.28 |    4:46.08   |      192028      |     213485
      13  | 47:26.36 |    3:48.09   |      213486      |     230594
      14  | 51:14.45 |    3:07.00   |      230595      |     244619
      15  | 54:21.45 |    4:03.34   |      244620      |     262878
      16  | 58:25.04 |    4:40.73   |      262879      |     283951
      17  | 63:06.02 |    5:04.15   |      283952      |     306766
      18  | 68:10.17 |    4:14.37   |      306767      |     325853
Характеристики диапазона извлечения и сообщения об ошибках
Выбранный диапазон
     Имя файла D:\РАЗДАЧИ!!!!\VA-Песня 1980'- 1990' (11CD Album) - 2007\Various - Песня 82' (BoMB 033-376) - 2007\Various Artists - Песня 82' (BoMB 033-376).wav
     Пиковый уровень 99.9 %
     Скорость извлечения 2.0 X
     Качество диапазона 100.0 %
     CRC теста 88D1D1D0
     CRC копии 88D1D1D0
     Копирование... OK
Ошибок не произошло
AccurateRip: сводка
Трек  1  отсутствует в базе данных
Трек  2  отсутствует в базе данных
Трек  3  отсутствует в базе данных
Трек  4  отсутствует в базе данных
Трек  5  отсутствует в базе данных
Трек  6  отсутствует в базе данных
Трек  7  отсутствует в базе данных
Трек  8  отсутствует в базе данных
Трек  9  отсутствует в базе данных
Трек 10  отсутствует в базе данных
Трек 11  отсутствует в базе данных
Трек 12  отсутствует в базе данных
Трек 13  отсутствует в базе данных
Трек 14  отсутствует в базе данных
Трек 15  отсутствует в базе данных
Трек 16  отсутствует в базе данных
Трек 17  отсутствует в базе данных
Трек 18  отсутствует в базе данных
Ни одного трека нет в базе AccurateRip
Конец отчёта
---- CUETools DB Plugin V2.1.4
[CTDB TOCID: ICWIy7NVG046CZjTcT6_7a2Niz0-] disk not present in database
Submit result: ICWIy7NVG046CZjTcT6_7a2Niz0- has been uploaded

VA - Песня 83'

Exact Audio Copy V1.0 beta 3 from 29. August 2011
Отчёт EAC об извлечении, выполненном 8. ноября 2014, 13:52
Various Artists / Песня 83' (BoMB 033-377)
Дисковод: PIONEER BD-RW   BDR-206   Adapter: 1  ID: 1
Режим чтения                 : Достоверность
Использование точного потока : Да
Отключение кэша аудио        : Да
Использование указателей C2  : Нет
Коррекция смещения при чтении                     : 667
Способность читать области Lead-in и Lead-out     : Нет
Заполнение пропущенных сэмплов тишиной            : Да
Удаление блоков с тишиной в начале и конце        : Нет
При вычислениях CRC использовались нулевые сэмплы : Да
Интерфейс                                         : Установленный внешний ASPI-интерфейс
Выходной формат          : Пользовательский кодировщик
Выбранный битрейт        : 1024 kBit/s
Качество                 : Высокий
Добавление ID3-тега      : Нет
Утилита сжатия           : C:\Program Files (x86)\Exact Audio Copy\FLAC\FLAC.EXE
Дополнительные параметры : -T "COMMENT=Ripped by SergeyJD"-8 -V -T "ARTIST=%artist%" -T "TITLE=%title%" -T "ALBUM=%albumtitle%" -T "DATE=%year%" -T "TRACKNUMBER=%tracknr%" -T "GENRE=%genre%" -T "COMMENT=%comment%" -T "BAND=%albuminterpret%" -T "ALBUMARTIST=%albuminterpret%" -T "COMPOSER=%composer%" %haslyrics%--tag-from-file=LYRICS="%lyricsfile%"%haslyrics% -T "DISCNUMBER=%cdnumber%" -T "TOTALDISCS=%totalcds%" -T "TOTALTRACKS=%numtracks%" %hascover%--picture="%coverfile%"%hascover% %source% -o %dest%
TOC извлечённого CD
     Трек |   Старт  | Длительность | Начальный сектор | Конечный сектор
    ---------------------------------------------------------------------
       1  |  0:00.00 |    2:47.32   |           0      |      12556
       2  |  2:47.32 |    3:06.29   |       12557      |      26535
       3  |  5:53.61 |    3:47.30   |       26536      |      43590
       4  |  9:41.16 |    2:58.45   |       43591      |      56985
       5  | 12:39.61 |    3:33.65   |       56986      |      73025
       6  | 16:13.51 |    4:43.32   |       73026      |      94282
       7  | 20:57.08 |    4:53.27   |       94283      |     116284
       8  | 25:50.35 |    2:38.38   |      116285      |     128172
       9  | 28:28.73 |    3:55.10   |      128173      |     145807
      10  | 32:24.08 |    4:34.35   |      145808      |     166392
      11  | 36:58.43 |    3:25.44   |      166393      |     181811
      12  | 40:24.12 |    2:31.25   |      181812      |     193161
      13  | 42:55.37 |    5:47.32   |      193162      |     219218
      14  | 48:42.69 |    3:09.57   |      219219      |     233450
      15  | 51:52.51 |    3:11.03   |      233451      |     247778
      16  | 55:03.54 |    3:15.63   |      247779      |     262466
      17  | 58:19.42 |    3:39.10   |      262467      |     278901
Характеристики диапазона извлечения и сообщения об ошибках
Выбранный диапазон
     Имя файла D:\РАЗДАЧИ!!!!\VA-Песня 1980'- 1990' (11CD Album) - 2007\Various - Песня 83' (BoMB 033-377) - 2007\Various Artists - Песня 83' (BoMB 033-377).wav
     Пиковый уровень 99.8 %
     Скорость извлечения 7.5 X
     Качество диапазона 100.0 %
     CRC теста 8A2F6930
     CRC копии 8A2F6930
     Копирование... OK
Ошибок не произошло
AccurateRip: сводка
Трек  1  отсутствует в базе данных
Трек  2  отсутствует в базе данных
Трек  3  отсутствует в базе данных
Трек  4  отсутствует в базе данных
Трек  5  отсутствует в базе данных
Трек  6  отсутствует в базе данных
Трек  7  отсутствует в базе данных
Трек  8  отсутствует в базе данных
Трек  9  отсутствует в базе данных
Трек 10  отсутствует в базе данных
Трек 11  отсутствует в базе данных
Трек 12  отсутствует в базе данных
Трек 13  отсутствует в базе данных
Трек 14  отсутствует в базе данных
Трек 15  отсутствует в базе данных
Трек 16  отсутствует в базе данных
Трек 17  отсутствует в базе данных
Ни одного трека нет в базе AccurateRip
Конец отчёта
---- CUETools DB Plugin V2.1.4
[CTDB TOCID: fsdSWqBkRBnAuiegT5ZKIchCvAM-] disk not present in database
Submit result: fsdSWqBkRBnAuiegT5ZKIchCvAM- has been uploaded

VA - Песня 84'

Exact Audio Copy V1.0 beta 3 from 29. August 2011
Отчёт EAC об извлечении, выполненном 8. ноября 2014, 15:25
Various Artists / Песня 84' (BoMB 033-378)
Дисковод: PIONEER BD-RW   BDR-206   Adapter: 1  ID: 1
Режим чтения                 : Достоверность
Использование точного потока : Да
Отключение кэша аудио        : Да
Использование указателей C2  : Нет
Коррекция смещения при чтении                     : 667
Способность читать области Lead-in и Lead-out     : Нет
Заполнение пропущенных сэмплов тишиной            : Да
Удаление блоков с тишиной в начале и конце        : Нет
При вычислениях CRC использовались нулевые сэмплы : Да
Интерфейс                                         : Установленный внешний ASPI-интерфейс
Выходной формат          : Пользовательский кодировщик
Выбранный битрейт        : 1024 kBit/s
Качество                 : Высокий
Добавление ID3-тега      : Нет
Утилита сжатия           : C:\Program Files (x86)\Exact Audio Copy\FLAC\FLAC.EXE
Дополнительные параметры : -T "COMMENT=Ripped by SergeyJD"-8 -V -T "ARTIST=%artist%" -T "TITLE=%title%" -T "ALBUM=%albumtitle%" -T "DATE=%year%" -T "TRACKNUMBER=%tracknr%" -T "GENRE=%genre%" -T "COMMENT=%comment%" -T "BAND=%albuminterpret%" -T "ALBUMARTIST=%albuminterpret%" -T "COMPOSER=%composer%" %haslyrics%--tag-from-file=LYRICS="%lyricsfile%"%haslyrics% -T "DISCNUMBER=%cdnumber%" -T "TOTALDISCS=%totalcds%" -T "TOTALTRACKS=%numtracks%" %hascover%--picture="%coverfile%"%hascover% %source% -o %dest%
TOC извлечённого CD
     Трек |   Старт  | Длительность | Начальный сектор | Конечный сектор
    ---------------------------------------------------------------------
       1  |  0:00.00 |    3:58.15   |           0      |      17864
       2  |  3:58.15 |    3:46.37   |       17865      |      34851
       3  |  7:44.52 |    3:43.35   |       34852      |      51611
       4  | 11:28.12 |    3:49.33   |       51612      |      68819
       5  | 15:17.45 |    2:29.41   |       68820      |      80035
       6  | 17:47.11 |    2:44.28   |       80036      |      92363
       7  | 20:31.39 |    3:09.03   |       92364      |     106541
       8  | 23:40.42 |    4:11.20   |      106542      |     125386
       9  | 27:51.62 |    6:20.69   |      125387      |     153955
      10  | 34:12.56 |    4:15.63   |      153956      |     173143
      11  | 38:28.44 |    3:23.23   |      173144      |     188391
      12  | 41:51.67 |    4:33.54   |      188392      |     208920
      13  | 46:25.46 |    3:56.46   |      208921      |     226666
      14  | 50:22.17 |    4:57.69   |      226667      |     249010
      15  | 55:20.11 |    3:40.18   |      249011      |     265528
      16  | 59:00.29 |    4:37.15   |      265529      |     286318
      17  | 63:37.44 |    3:33.63   |      286319      |     302356
Характеристики диапазона извлечения и сообщения об ошибках
Выбранный диапазон
     Имя файла D:\РАЗДАЧИ!!!!\VA-Песня 1980'- 1990' (11CD Album) - 2007\Various - Песня 84' (BoMB 033-378) - 2007\Various Artists - Песня 84' (BoMB 033-378).wav
     Пиковый уровень 99.8 %
     Скорость извлечения 1.8 X
     Качество диапазона 100.0 %
     CRC теста 9ECE8D72
     CRC копии 9ECE8D72
     Копирование... OK
Ошибок не произошло
AccurateRip: сводка
Трек  1  отсутствует в базе данных
Трек  2  отсутствует в базе данных
Трек  3  отсутствует в базе данных
Трек  4  отсутствует в базе данных
Трек  5  отсутствует в базе данных
Трек  6  отсутствует в базе данных
Трек  7  отсутствует в базе данных
Трек  8  отсутствует в базе данных
Трек  9  отсутствует в базе данных
Трек 10  отсутствует в базе данных
Трек 11  отсутствует в базе данных
Трек 12  отсутствует в базе данных
Трек 13  отсутствует в базе данных
Трек 14  отсутствует в базе данных
Трек 15  отсутствует в базе данных
Трек 16  отсутствует в базе данных
Трек 17  отсутствует в базе данных
Ни одного трека нет в базе AccurateRip
Конец отчёта
---- CUETools DB Plugin V2.1.4
[CTDB TOCID: 3T8oyFnbJEZXdJ5s4ZZOwyK_40g-] disk not present in database
Submit result: 3T8oyFnbJEZXdJ5s4ZZOwyK_40g- has been uploaded

VA - Песня 85'

Exact Audio Copy V1.0 beta 3 from 29. August 2011
Отчёт EAC об извлечении, выполненном 8. ноября 2014, 16:53
Various Artists / Песня 85' (BoMB 033-379)
Дисковод: PIONEER BD-RW   BDR-206   Adapter: 1  ID: 1
Режим чтения                 : Достоверность
Использование точного потока : Да
Отключение кэша аудио        : Да
Использование указателей C2  : Нет
Коррекция смещения при чтении                     : 667
Способность читать области Lead-in и Lead-out     : Нет
Заполнение пропущенных сэмплов тишиной            : Да
Удаление блоков с тишиной в начале и конце        : Нет
При вычислениях CRC использовались нулевые сэмплы : Да
Интерфейс                                         : Установленный внешний ASPI-интерфейс
Выходной формат          : Пользовательский кодировщик
Выбранный битрейт        : 1024 kBit/s
Качество                 : Высокий
Добавление ID3-тега      : Нет
Утилита сжатия           : C:\Program Files (x86)\Exact Audio Copy\FLAC\FLAC.EXE
Дополнительные параметры : -T "COMMENT=Ripped by SergeyJD"-8 -V -T "ARTIST=%artist%" -T "TITLE=%title%" -T "ALBUM=%albumtitle%" -T "DATE=%year%" -T "TRACKNUMBER=%tracknr%" -T "GENRE=%genre%" -T "COMMENT=%comment%" -T "BAND=%albuminterpret%" -T "ALBUMARTIST=%albuminterpret%" -T "COMPOSER=%composer%" %haslyrics%--tag-from-file=LYRICS="%lyricsfile%"%haslyrics% -T "DISCNUMBER=%cdnumber%" -T "TOTALDISCS=%totalcds%" -T "TOTALTRACKS=%numtracks%" %hascover%--picture="%coverfile%"%hascover% %source% -o %dest%
TOC извлечённого CD
     Трек |   Старт  | Длительность | Начальный сектор | Конечный сектор
    ---------------------------------------------------------------------
       1  |  0:00.00 |    4:03.63   |           0      |      18287
       2  |  4:03.63 |    4:20.26   |       18288      |      37813
       3  |  8:24.14 |    3:34.00   |       37814      |      53863
       4  | 11:58.14 |    3:24.10   |       53864      |      69173
       5  | 15:22.24 |    3:26.18   |       69174      |      84641
       6  | 18:48.42 |    2:17.04   |       84642      |      94920
       7  | 21:05.46 |    4:16.54   |       94921      |     114174
       8  | 25:22.25 |    3:27.44   |      114175      |     129743
       9  | 28:49.69 |    3:47.59   |      129744      |     146827
      10  | 32:37.53 |    4:06.66   |      146828      |     165343
      11  | 36:44.44 |    3:01.61   |      165344      |     178979
      12  | 39:46.30 |    3:30.38   |      178980      |     194767
      13  | 43:16.68 |    3:55.72   |      194768      |     212464
      14  | 47:12.65 |    2:55.31   |      212465      |     225620
      15  | 50:08.21 |    2:37.37   |      225621      |     237432
      16  | 52:45.58 |    2:12.37   |      237433      |     247369
      17  | 54:58.20 |    3:30.61   |      247370      |     263180
Характеристики диапазона извлечения и сообщения об ошибках
Выбранный диапазон
     Имя файла D:\РАЗДАЧИ!!!!\VA-Песня 1980'- 1990' (11CD Album) - 2007\Various - Песня 85' (BoMB 033-379) - 2007\Various Artists - Песня 85' (BoMB 033-379).wav
     Пиковый уровень 99.8 %
     Скорость извлечения 1.8 X
     Качество диапазона 100.0 %
     CRC теста 6D4C3C80
     CRC копии 6D4C3C80
     Копирование... OK
Ошибок не произошло
AccurateRip: сводка
Трек  1  отсутствует в базе данных
Трек  2  отсутствует в базе данных
Трек  3  отсутствует в базе данных
Трек  4  отсутствует в базе данных
Трек  5  отсутствует в базе данных
Трек  6  отсутствует в базе данных
Трек  7  отсутствует в базе данных
Трек  8  отсутствует в базе данных
Трек  9  отсутствует в базе данных
Трек 10  отсутствует в базе данных
Трек 11  отсутствует в базе данных
Трек 12  отсутствует в базе данных
Трек 13  отсутствует в базе данных
Трек 14  отсутствует в базе данных
Трек 15  отсутствует в базе данных
Трек 16  отсутствует в базе данных
Трек 17  отсутствует в базе данных
Ни одного трека нет в базе AccurateRip
Конец отчёта
---- CUETools DB Plugin V2.1.4
[CTDB TOCID: ShKrW7zy9YIsW.FzN.W7cyDRQ94-] disk not present in database
Submit result: ShKrW7zy9YIsW.FzN.W7cyDRQ94- has been uploaded

VA - Песня 86'

Exact Audio Copy V1.0 beta 3 from 29. August 2011
Отчёт EAC об извлечении, выполненном 8. ноября 2014, 17:19
Various Artists / Песня 86' (BoMB 033-380)
Дисковод: PIONEER BD-RW   BDR-206   Adapter: 1  ID: 1
Режим чтения                 : Достоверность
Использование точного потока : Да
Отключение кэша аудио        : Да
Использование указателей C2  : Нет
Коррекция смещения при чтении                     : 667
Способность читать области Lead-in и Lead-out     : Нет
Заполнение пропущенных сэмплов тишиной            : Да
Удаление блоков с тишиной в начале и конце        : Нет
При вычислениях CRC использовались нулевые сэмплы : Да
Интерфейс                                         : Установленный внешний ASPI-интерфейс
Выходной формат          : Пользовательский кодировщик
Выбранный битрейт        : 1024 kBit/s
Качество                 : Высокий
Добавление ID3-тега      : Нет
Утилита сжатия           : C:\Program Files (x86)\Exact Audio Copy\FLAC\FLAC.EXE
Дополнительные параметры : -T "COMMENT=Ripped by SergeyJD"-8 -V -T "ARTIST=%artist%" -T "TITLE=%title%" -T "ALBUM=%albumtitle%" -T "DATE=%year%" -T "TRACKNUMBER=%tracknr%" -T "GENRE=%genre%" -T "COMMENT=%comment%" -T "BAND=%albuminterpret%" -T "ALBUMARTIST=%albuminterpret%" -T "COMPOSER=%composer%" %haslyrics%--tag-from-file=LYRICS="%lyricsfile%"%haslyrics% -T "DISCNUMBER=%cdnumber%" -T "TOTALDISCS=%totalcds%" -T "TOTALTRACKS=%numtracks%" %hascover%--picture="%coverfile%"%hascover% %source% -o %dest%
TOC извлечённого CD
     Трек |   Старт  | Длительность | Начальный сектор | Конечный сектор
    ---------------------------------------------------------------------
       1  |  0:00.00 |    4:42.64   |           0      |      21213
       2  |  4:42.64 |    2:50.36   |       21214      |      33999
       3  |  7:33.25 |    5:08.59   |       34000      |      57158
       4  | 12:42.09 |    3:37.55   |       57159      |      73488
       5  | 16:19.64 |    4:06.24   |       73489      |      91962
       6  | 20:26.13 |    2:40.44   |       91963      |     104006
       7  | 23:06.57 |    3:40.62   |      104007      |     120568
       8  | 26:47.44 |    4:03.00   |      120569      |     138793
       9  | 30:50.44 |    3:27.43   |      138794      |     154361
      10  | 34:18.12 |    3:10.07   |      154362      |     168618
      11  | 37:28.19 |    4:10.13   |      168619      |     187381
      12  | 41:38.32 |    4:00.47   |      187382      |     205428
      13  | 45:39.04 |    3:51.10   |      205429      |     222763
      14  | 49:30.14 |    4:27.02   |      222764      |     242790
      15  | 53:57.16 |    4:07.52   |      242791      |     261367
Характеристики диапазона извлечения и сообщения об ошибках
Выбранный диапазон
     Имя файла D:\РАЗДАЧИ!!!!\VA-Песня 1980'- 1990' (11CD Album) - 2007\Various - Песня 86' (BoMB 033-380) - 2007\Various Artists - Песня 86' (BoMB 033-380).wav
     Пиковый уровень 100.0 %
     Скорость извлечения 7.4 X
     Качество диапазона 100.0 %
     CRC теста FAFB1A09
     CRC копии FAFB1A09
     Копирование... OK
Ошибок не произошло
AccurateRip: сводка
Трек  1  отсутствует в базе данных
Трек  2  отсутствует в базе данных
Трек  3  отсутствует в базе данных
Трек  4  отсутствует в базе данных
Трек  5  отсутствует в базе данных
Трек  6  отсутствует в базе данных
Трек  7  отсутствует в базе данных
Трек  8  отсутствует в базе данных
Трек  9  отсутствует в базе данных
Трек 10  отсутствует в базе данных
Трек 11  отсутствует в базе данных
Трек 12  отсутствует в базе данных
Трек 13  отсутствует в базе данных
Трек 14  отсутствует в базе данных
Трек 15  отсутствует в базе данных
Ни одного трека нет в базе AccurateRip
Конец отчёта
---- CUETools DB Plugin V2.1.4
[CTDB TOCID: 5gb4pR3x.jTl9hbtiifmzj.XMsI-] disk not present in database
Submit result: 5gb4pR3x.jTl9hbtiifmzj.XMsI- has been uploaded

VA - Песня 87'

Exact Audio Copy V1.0 beta 3 from 29. August 2011
Отчёт EAC об извлечении, выполненном 8. ноября 2014, 18:59
Various Artists / Песня 87' (BoMB 033-381)
Дисковод: PIONEER BD-RW   BDR-206   Adapter: 1  ID: 1
Режим чтения                 : Достоверность
Использование точного потока : Да
Отключение кэша аудио        : Да
Использование указателей C2  : Нет
Коррекция смещения при чтении                     : 667
Способность читать области Lead-in и Lead-out     : Нет
Заполнение пропущенных сэмплов тишиной            : Да
Удаление блоков с тишиной в начале и конце        : Нет
При вычислениях CRC использовались нулевые сэмплы : Да
Интерфейс                                         : Установленный внешний ASPI-интерфейс
Выходной формат          : Пользовательский кодировщик
Выбранный битрейт        : 1024 kBit/s
Качество                 : Высокий
Добавление ID3-тега      : Нет
Утилита сжатия           : C:\Program Files (x86)\Exact Audio Copy\FLAC\FLAC.EXE
Дополнительные параметры : -T "COMMENT=Ripped by SergeyJD"-8 -V -T "ARTIST=%artist%" -T "TITLE=%title%" -T "ALBUM=%albumtitle%" -T "DATE=%year%" -T "TRACKNUMBER=%tracknr%" -T "GENRE=%genre%" -T "COMMENT=%comment%" -T "BAND=%albuminterpret%" -T "ALBUMARTIST=%albuminterpret%" -T "COMPOSER=%composer%" %haslyrics%--tag-from-file=LYRICS="%lyricsfile%"%haslyrics% -T "DISCNUMBER=%cdnumber%" -T "TOTALDISCS=%totalcds%" -T "TOTALTRACKS=%numtracks%" %hascover%--picture="%coverfile%"%hascover% %source% -o %dest%
TOC извлечённого CD
     Трек |   Старт  | Длительность | Начальный сектор | Конечный сектор
    ---------------------------------------------------------------------
       1  |  0:00.00 |    4:45.66   |           0      |      21440
       2  |  4:45.66 |    3:21.19   |       21441      |      36534
       3  |  8:07.10 |    3:17.05   |       36535      |      51314
       4  | 11:24.15 |    3:09.60   |       51315      |      65549
       5  | 14:34.00 |    4:29.72   |       65550      |      85796
       6  | 19:03.72 |    6:55.52   |       85797      |     116973
       7  | 25:59.49 |    4:43.60   |      116974      |     138258
       8  | 30:43.34 |    4:52.16   |      138259      |     160174
       9  | 35:35.50 |    3:46.28   |      160175      |     177152
      10  | 39:22.03 |    3:39.67   |      177153      |     193644
      11  | 43:01.70 |    3:47.68   |      193645      |     210737
      12  | 46:49.63 |    3:35.68   |      210738      |     226930
      13  | 50:25.56 |    2:35.07   |      226931      |     238562
      14  | 53:00.63 |    3:42.48   |      238563      |     255260
      15  | 56:43.36 |    3:17.31   |      255261      |     270066
      16  | 60:00.67 |    5:39.32   |      270067      |     295523
      17  | 65:40.24 |    4:51.52   |      295524      |     317400
Характеристики диапазона извлечения и сообщения об ошибках
Выбранный диапазон
     Имя файла D:\РАЗДАЧИ!!!!\VA-Песня 1980'- 1990' (11CD Album) - 2007\Various - Песня 87' (BoMB 033-381) - 2007\Various Artists - Песня 87' (BoMB 033-381).wav
     Пиковый уровень 99.8 %
     Скорость извлечения 2.0 X
     Качество диапазона 99.9 %
     CRC теста 4FAEDE19
     CRC копии 4FAEDE19
     Копирование... OK
Ошибок не произошло
AccurateRip: сводка
Трек  1  отсутствует в базе данных
Трек  2  отсутствует в базе данных
Трек  3  отсутствует в базе данных
Трек  4  отсутствует в базе данных
Трек  5  отсутствует в базе данных
Трек  6  отсутствует в базе данных
Трек  7  отсутствует в базе данных
Трек  8  отсутствует в базе данных
Трек  9  отсутствует в базе данных
Трек 10  отсутствует в базе данных
Трек 11  отсутствует в базе данных
Трек 12  отсутствует в базе данных
Трек 13  отсутствует в базе данных
Трек 14  отсутствует в базе данных
Трек 15  отсутствует в базе данных
Трек 16  отсутствует в базе данных
Трек 17  отсутствует в базе данных
Ни одного трека нет в базе AccurateRip
Конец отчёта
---- CUETools DB Plugin V2.1.4
[CTDB TOCID: _XDD66uFJKQqp6mD.z208EJAGwk-] disk not present in database
Submit result: _XDD66uFJKQqp6mD.z208EJAGwk- has been uploaded

VA - Песня 88'

Exact Audio Copy V1.0 beta 3 from 29. August 2011
Отчёт EAC об извлечении, выполненном 9. ноября 2014, 19:59
Various Artists / Песня 88' (BoMB 033-382)
Дисковод: PIONEER BD-RW   BDR-206   Adapter: 1  ID: 0
Режим чтения                 : Достоверность
Использование точного потока : Да
Отключение кэша аудио        : Да
Использование указателей C2  : Нет
Коррекция смещения при чтении                     : 667
Способность читать области Lead-in и Lead-out     : Нет
Заполнение пропущенных сэмплов тишиной            : Да
Удаление блоков с тишиной в начале и конце        : Нет
При вычислениях CRC использовались нулевые сэмплы : Да
Интерфейс                                         : Установленный внешний ASPI-интерфейс
Выходной формат          : Пользовательский кодировщик
Выбранный битрейт        : 1024 kBit/s
Качество                 : Высокий
Добавление ID3-тега      : Нет
Утилита сжатия           : C:\Program Files (x86)\Exact Audio Copy\FLAC\FLAC.EXE
Дополнительные параметры : -T "COMMENT=Ripped by SergeyJD"-8 -V -T "ARTIST=%artist%" -T "TITLE=%title%" -T "ALBUM=%albumtitle%" -T "DATE=%year%" -T "TRACKNUMBER=%tracknr%" -T "GENRE=%genre%" -T "COMMENT=%comment%" -T "BAND=%albuminterpret%" -T "ALBUMARTIST=%albuminterpret%" -T "COMPOSER=%composer%" %haslyrics%--tag-from-file=LYRICS="%lyricsfile%"%haslyrics% -T "DISCNUMBER=%cdnumber%" -T "TOTALDISCS=%totalcds%" -T "TOTALTRACKS=%numtracks%" %hascover%--picture="%coverfile%"%hascover% %source% -o %dest%
TOC извлечённого CD
     Трек |   Старт  | Длительность | Начальный сектор | Конечный сектор
    ---------------------------------------------------------------------
       1  |  0:00.00 |    3:50.43   |           0      |      17292
       2  |  3:50.43 |    4:00.56   |       17293      |      35348
       3  |  7:51.24 |    3:00.06   |       35349      |      48854
       4  | 10:51.30 |    4:07.71   |       48855      |      67450
       5  | 14:59.26 |    3:22.74   |       67451      |      82674
       6  | 18:22.25 |    3:50.05   |       82675      |      99929
       7  | 22:12.30 |    4:38.13   |       99930      |     120792
       8  | 26:50.43 |    3:16.21   |      120793      |     135513
       9  | 30:06.64 |    6:00.03   |      135514      |     162516
      10  | 36:06.67 |    4:11.29   |      162517      |     181370
      11  | 40:18.21 |    4:23.55   |      181371      |     201150
      12  | 44:42.01 |    3:02.59   |      201151      |     214859
      13  | 47:44.60 |    3:40.37   |      214860      |     231396
      14  | 51:25.22 |    3:49.63   |      231397      |     248634
      15  | 55:15.10 |    5:46.25   |      248635      |     274609
      16  | 61:01.35 |    4:12.70   |      274610      |     293579
      17  | 65:14.30 |    4:46.25   |      293580      |     315054
Характеристики диапазона извлечения и сообщения об ошибках
Выбранный диапазон
     Имя файла D:\РАЗДАЧИ!!!!\VA-Песня 1980'- 1990' (11CD Album) - 2007\Various - Песня 88' (BoMB 033-382) - 2007\Various Artists - Песня 88' (BoMB 033-382).wav
     Пиковый уровень 99.8 %
     Скорость извлечения 7.7 X
     Качество диапазона 100.0 %
     CRC теста 47A1E615
     CRC копии 47A1E615
     Копирование... OK
Ошибок не произошло
AccurateRip: сводка
Трек  1  : извлечено точно (доверие 1)  [C8E75EA8]  (AR v2)
Трек  2  : извлечено точно (доверие 1)  [B09E6193]  (AR v2)
Трек  3  : извлечено точно (доверие 1)  [AE705D8A]  (AR v2)
Трек  4  : извлечено точно (доверие 1)  [7AA67F8B]  (AR v2)
Трек  5  : извлечено точно (доверие 1)  [B4197B58]  (AR v2)
Трек  6  : извлечено точно (доверие 1)  [D6ADA6FF]  (AR v2)
Трек  7  : извлечено точно (доверие 1)  [00B02A91]  (AR v2)
Трек  8  : извлечено точно (доверие 1)  [39530134]  (AR v2)
Трек  9  : извлечено точно (доверие 1)  [0A093BFF]  (AR v2)
Трек 10  : извлечено точно (доверие 1)  [9DFC5E5B]  (AR v2)
Трек 11  : извлечено точно (доверие 1)  [EAEBA515]  (AR v2)
Трек 12  : извлечено точно (доверие 1)  [9459E34F]  (AR v2)
Трек 13  : извлечено точно (доверие 1)  [E63E5C8F]  (AR v2)
Трек 14  : извлечено точно (доверие 1)  [B9485937]  (AR v2)
Трек 15  : извлечено точно (доверие 1)  [32C7EE8C]  (AR v2)
Трек 16  : извлечено точно (доверие 1)  [24B989A0]  (AR v2)
Трек 17  : извлечено точно (доверие 1)  [C9C4741A]  (AR v2)
Все треки извлечены точно
Конец отчёта
---- CUETools DB Plugin V2.1.4
[CTDB TOCID: FoOAs02JUnLavK3UU80Qe20V_No-] disk not present in database
Submit result: FoOAs02JUnLavK3UU80Qe20V_No- has been uploaded

VA - Песня 89'

Exact Audio Copy V1.0 beta 3 from 29. August 2011
Отчёт EAC об извлечении, выполненном 9. ноября 2014, 21:38
Various Artists / Песня 89' (BoMB 033-383)
Дисковод: PIONEER BD-RW   BDR-206   Adapter: 1  ID: 0
Режим чтения                 : Достоверность
Использование точного потока : Да
Отключение кэша аудио        : Да
Использование указателей C2  : Нет
Коррекция смещения при чтении                     : 667
Способность читать области Lead-in и Lead-out     : Нет
Заполнение пропущенных сэмплов тишиной            : Да
Удаление блоков с тишиной в начале и конце        : Нет
При вычислениях CRC использовались нулевые сэмплы : Да
Интерфейс                                         : Установленный внешний ASPI-интерфейс
Выходной формат          : Пользовательский кодировщик
Выбранный битрейт        : 1024 kBit/s
Качество                 : Высокий
Добавление ID3-тега      : Нет
Утилита сжатия           : C:\Program Files (x86)\Exact Audio Copy\FLAC\FLAC.EXE
Дополнительные параметры : -T "COMMENT=Ripped by SergeyJD"-8 -V -T "ARTIST=%artist%" -T "TITLE=%title%" -T "ALBUM=%albumtitle%" -T "DATE=%year%" -T "TRACKNUMBER=%tracknr%" -T "GENRE=%genre%" -T "COMMENT=%comment%" -T "BAND=%albuminterpret%" -T "ALBUMARTIST=%albuminterpret%" -T "COMPOSER=%composer%" %haslyrics%--tag-from-file=LYRICS="%lyricsfile%"%haslyrics% -T "DISCNUMBER=%cdnumber%" -T "TOTALDISCS=%totalcds%" -T "TOTALTRACKS=%numtracks%" %hascover%--picture="%coverfile%"%hascover% %source% -o %dest%
TOC извлечённого CD
     Трек |   Старт  | Длительность | Начальный сектор | Конечный сектор
    ---------------------------------------------------------------------
       1  |  0:00.00 |    3:29.25   |           0      |      15699
       2  |  3:29.25 |    3:28.19   |       15700      |      31318
       3  |  6:57.44 |    3:09.58   |       31319      |      45551
       4  | 10:07.27 |    3:10.19   |       45552      |      59820
       5  | 13:17.46 |    3:18.34   |       59821      |      74704
       6  | 16:36.05 |    4:03.53   |       74705      |      92982
       7  | 20:39.58 |    3:13.61   |       92983      |     107518
       8  | 23:53.44 |    3:14.47   |      107519      |     122115
       9  | 27:08.16 |    4:34.43   |      122116      |     142708
      10  | 31:42.59 |    4:32.30   |      142709      |     163138
      11  | 36:15.14 |    3:24.74   |      163139      |     178512
      12  | 39:40.13 |    4:48.02   |      178513      |     200114
      13  | 44:28.15 |    6:00.04   |      200115      |     227118
      14  | 50:28.19 |    4:38.24   |      227119      |     247992
      15  | 55:06.43 |    3:07.33   |      247993      |     262050
      16  | 58:14.01 |    4:19.00   |      262051      |     281475
      17  | 62:33.01 |    4:45.70   |      281476      |     302920
      18  | 67:18.71 |    4:14.49   |      302921      |     322019
Характеристики диапазона извлечения и сообщения об ошибках
Выбранный диапазон
     Имя файла D:\РАЗДАЧИ!!!!\VA-Песня 1980'- 1990' (11CD Album) - 2007\Various - Песня 89' (BoMB 033-383) - 2007\Various Artists - Песня 89' (BoMB 033-383).wav
     Пиковый уровень 99.9 %
     Скорость извлечения 2.1 X
     Качество диапазона 100.0 %
     CRC теста FB188B09
     CRC копии FB188B09
     Копирование... OK
Ошибок не произошло
AccurateRip: сводка
Трек  1  : извлечено точно (доверие 1)  [39C1C864]  (AR v2)
Трек  2  : извлечено точно (доверие 1)  [8BA81A60]  (AR v2)
Трек  3  : извлечено точно (доверие 1)  [833119A0]  (AR v2)
Трек  4  : извлечено точно (доверие 1)  [2BDE4FA4]  (AR v2)
Трек  5  : извлечено точно (доверие 1)  [385C92ED]  (AR v2)
Трек  6  : извлечено точно (доверие 1)  [B8D2E497]  (AR v2)
Трек  7  : извлечено точно (доверие 1)  [771AF93B]  (AR v2)
Трек  8  : извлечено точно (доверие 1)  [E3949C2D]  (AR v2)
Трек  9  : извлечено точно (доверие 1)  [FD0D182A]  (AR v2)
Трек 10  : извлечено точно (доверие 1)  [D60A3DED]  (AR v2)
Трек 11  : извлечено точно (доверие 1)  [44CED46F]  (AR v2)
Трек 12  : извлечено точно (доверие 1)  [2CF1A4D2]  (AR v2)
Трек 13  : извлечено точно (доверие 1)  [6DDDB57D]  (AR v2)
Трек 14  : извлечено точно (доверие 1)  [EB1F2E36]  (AR v2)
Трек 15  : извлечено точно (доверие 1)  [5E62C645]  (AR v2)
Трек 16  : извлечено точно (доверие 1)  [DBA5FEA5]  (AR v2)
Трек 17  : извлечено точно (доверие 1)  [2810D730]  (AR v2)
Трек 18  : извлечено точно (доверие 1)  [37DCE96D]  (AR v2)
Все треки извлечены точно
Конец отчёта
---- CUETools DB Plugin V2.1.4
[CTDB TOCID: tsDeWf2bqNyVOAz1nttEg67BnH8-] disk not present in database
Submit result: tsDeWf2bqNyVOAz1nttEg67BnH8- has been uploaded

VA - Песня 90'

Exact Audio Copy V1.0 beta 3 from 29. August 2011
Отчёт EAC об извлечении, выполненном 9. ноября 2014, 22:38
Various Artists / Песня 90' (BoMB 033-384)
Дисковод: PIONEER BD-RW   BDR-206   Adapter: 1  ID: 0
Режим чтения                 : Достоверность
Использование точного потока : Да
Отключение кэша аудио        : Да
Использование указателей C2  : Нет
Коррекция смещения при чтении                     : 667
Способность читать области Lead-in и Lead-out     : Нет
Заполнение пропущенных сэмплов тишиной            : Да
Удаление блоков с тишиной в начале и конце        : Нет
При вычислениях CRC использовались нулевые сэмплы : Да
Интерфейс                                         : Установленный внешний ASPI-интерфейс
Выходной формат          : Пользовательский кодировщик
Выбранный битрейт        : 1024 kBit/s
Качество                 : Высокий
Добавление ID3-тега      : Нет
Утилита сжатия           : C:\Program Files (x86)\Exact Audio Copy\FLAC\FLAC.EXE
Дополнительные параметры : -T "COMMENT=Ripped by SergeyJD"-8 -V -T "ARTIST=%artist%" -T "TITLE=%title%" -T "ALBUM=%albumtitle%" -T "DATE=%year%" -T "TRACKNUMBER=%tracknr%" -T "GENRE=%genre%" -T "COMMENT=%comment%" -T "BAND=%albuminterpret%" -T "ALBUMARTIST=%albuminterpret%" -T "COMPOSER=%composer%" %haslyrics%--tag-from-file=LYRICS="%lyricsfile%"%haslyrics% -T "DISCNUMBER=%cdnumber%" -T "TOTALDISCS=%totalcds%" -T "TOTALTRACKS=%numtracks%" %hascover%--picture="%coverfile%"%hascover% %source% -o %dest%
TOC извлечённого CD
     Трек |   Старт  | Длительность | Начальный сектор | Конечный сектор
    ---------------------------------------------------------------------
       1  |  0:00.00 |    4:52.52   |           0      |      21951
       2  |  4:52.52 |    5:20.09   |       21952      |      45960
       3  | 10:12.61 |    4:11.42   |       45961      |      64827
       4  | 14:24.28 |    2:44.43   |       64828      |      77170
       5  | 17:08.71 |    4:19.14   |       77171      |      96609
       6  | 21:28.10 |    6:48.54   |       96610      |     127263
       7  | 28:16.64 |    4:44.62   |      127264      |     148625
       8  | 33:01.51 |    2:52.50   |      148626      |     161575
       9  | 35:54.26 |    4:08.12   |      161576      |     180187
      10  | 40:02.38 |    3:13.72   |      180188      |     194734
      11  | 43:16.35 |    3:47.54   |      194735      |     211813
      12  | 47:04.14 |    5:47.07   |      211814      |     237845
      13  | 52:51.21 |    3:51.47   |      237846      |     255217
      14  | 56:42.68 |    6:04.63   |      255218      |     282580
      15  | 62:47.56 |    4:23.05   |      282581      |     302310
      16  | 67:10.61 |    3:36.00   |      302311      |     318510
      17  | 70:46.61 |    3:06.07   |      318511      |     332467
      18  | 73:52.68 |    3:41.20   |      332468      |     349062
Характеристики диапазона извлечения и сообщения об ошибках
Выбранный диапазон
     Имя файла D:\РАЗДАЧИ!!!!\VA-Песня 1980'- 1990' (11CD Album) - 2007\Various - Песня 90' (BoMB 033-384) - 2007\Various Artists - Песня 90' (BoMB 033-384).wav
     Пиковый уровень 99.8 %
     Скорость извлечения 8.4 X
     Качество диапазона 100.0 %
     CRC теста FDCF0161
     CRC копии FDCF0161
     Копирование... OK
Ошибок не произошло
AccurateRip: сводка
Трек  1  : извлечено точно (доверие 1)  [CC0BA756]  (AR v2)
Трек  2  : извлечено точно (доверие 1)  [E4045B9A]  (AR v2)
Трек  3  : извлечено точно (доверие 1)  [8A7B43BA]  (AR v2)
Трек  4  : извлечено точно (доверие 1)  [8DB94EAF]  (AR v2)
Трек  5  : извлечено точно (доверие 1)  [78652CE0]  (AR v2)
Трек  6  : извлечено точно (доверие 1)  [19E359B3]  (AR v2)
Трек  7  : извлечено точно (доверие 1)  [5163E4A1]  (AR v2)
Трек  8  : извлечено точно (доверие 1)  [61C403E2]  (AR v2)
Трек  9  : извлечено точно (доверие 1)  [D597C485]  (AR v2)
Трек 10  : извлечено точно (доверие 1)  [3B3DF00F]  (AR v2)
Трек 11  : извлечено точно (доверие 1)  [C0299BD5]  (AR v2)
Трек 12  : извлечено точно (доверие 1)  [EADFAA06]  (AR v2)
Трек 13  : извлечено точно (доверие 1)  [5118883D]  (AR v2)
Трек 14  : извлечено точно (доверие 1)  [F6D0CF6C]  (AR v2)
Трек 15  : извлечено точно (доверие 1)  [4FCD909B]  (AR v2)
Трек 16  : извлечено точно (доверие 1)  [4BEE5B68]  (AR v2)
Трек 17  : извлечено точно (доверие 1)  [BAD745E1]  (AR v2)
Трек 18  : извлечено точно (доверие 1)  [262E489F]  (AR v2)
Все треки извлечены точно
Конец отчёта
---- CUETools DB Plugin V2.1.4
[CTDB TOCID: QM2h_onnZqZt0_r41aRhNfnnQxM-] disk not present in database
Submit result: QM2h_onnZqZt0_r41aRhNfnnQxM- has been uploaded

Индексная карта (non-compilant .cue)

VA - Песня 80'

REM GENRE Retro
REM DATE 2007
REM DISCID DD0E5710
REM COMMENT "ExactAudioCopy v1.0b3"
PERFORMER "Various Artists"
TITLE "Песня 80' (BoMB 033-374)"
FILE "Various Artists - Песня 80' (BoMB 033-374).flac" WAVE
  TRACK 01 AUDIO
    TITLE "Мой край (украинская песня)"
    PERFORMER "София Ротару"
    INDEX 01 00:00:00
  TRACK 02 AUDIO
    TITLE "Река моего детства"
    PERFORMER "Лев Лещенко"
    INDEX 01 03:20:23
  TRACK 03 AUDIO
    TITLE "Ожидание"
    PERFORMER "София Ротару"
    INDEX 01 08:38:00
  TRACK 04 AUDIO
    TITLE "После дождя"
    PERFORMER "Группа Стаса Намина"
    INDEX 01 13:13:13
  TRACK 05 AUDIO
    TITLE "Детства последний звонок"
    PERFORMER "Иосиф Кобзон"
    INDEX 00 17:15:09
    INDEX 01 17:15:10
  TRACK 06 AUDIO
    TITLE "Так хочется любви"
    PERFORMER "Галина Беседина, Сергей Тараненко"
    INDEX 01 20:26:07
  TRACK 07 AUDIO
    TITLE "Арктическая повесть"
    PERFORMER "Леонид Серебренников"
    INDEX 01 24:16:15
  TRACK 08 AUDIO
    TITLE "Малиновка"
    PERFORMER "ВИА 'Верасы'"
    INDEX 01 26:35:60
  TRACK 09 AUDIO
    TITLE "Придумай такое мне имя"
    PERFORMER "Эдита Пьеха, ВИА п/у Г. Клеменса"
    INDEX 01 29:08:72
  TRACK 10 AUDIO
    TITLE "Скажи глазам твоим"
    PERFORMER "Муслим Магомаев"
    INDEX 01 35:14:58
  TRACK 11 AUDIO
    TITLE "Танец на барабане"
    PERFORMER "Николай Гнатюк"
    INDEX 01 39:45:66
  TRACK 12 AUDIO
    TITLE "Не ищите ландышей в месяце апреле"
    PERFORMER "Людмила Сенчина"
    INDEX 01 43:34:18
  TRACK 13 AUDIO
    TITLE "Мои года"
    PERFORMER "Вахтанг Кикабидзе"
    INDEX 01 45:52:67
  TRACK 14 AUDIO
    TITLE "Олимпиада"
    PERFORMER "Тынис Мяги"
    INDEX 01 49:01:17
  TRACK 15 AUDIO
    TITLE "Богатырская наша сила"
    PERFORMER "Группа Стаса Намина"
    INDEX 01 53:42:63
  TRACK 16 AUDIO
    TITLE "До свиданья, Москва"
    PERFORMER "Лев Лещенко, Татьяна Анциферова"
    INDEX 01 57:34:19

VA - Песня 81'

REM GENRE Retro
REM DATE 2007
REM DISCID 23123F12
REM COMMENT "ExactAudioCopy v1.0b3"
PERFORMER "Various Artists"
TITLE "Песня 81' (BoMB 033-375)"
FILE "Various Artists - Песня 81' (BoMB 033-375).flac" WAVE
  TRACK 01 AUDIO
    TITLE "Ни дня без песни"
    PERFORMER "Эдита Пьеха, 'Дружба'"
    INDEX 01 00:00:00
  TRACK 02 AUDIO
    TITLE "Я - любовь"
    PERFORMER "Ирина Понаровская"
    INDEX 01 05:19:09
  TRACK 03 AUDIO
    TITLE "Я тебя рисую"
    PERFORMER "Яак Йоала"
    INDEX 01 10:55:64
  TRACK 04 AUDIO
    TITLE "Цветет черемуха к похолоданию"
    PERFORMER "Татьяна Петрова"
    INDEX 01 13:29:26
  TRACK 05 AUDIO
    TITLE "Днепровская вода"
    PERFORMER "Николай Гнатюк"
    INDEX 00 16:05:04
    INDEX 01 16:05:05
  TRACK 06 AUDIO
    TITLE "Музыка"
    PERFORMER "Тамара Гвердцители"
    INDEX 01 20:57:31
  TRACK 07 AUDIO
    TITLE "Родительский дом"
    PERFORMER "Лев Лещенко, ВИА 'Спектр'"
    INDEX 01 25:07:51
  TRACK 08 AUDIO
    TITLE "Девушка из полесья"
    PERFORMER "ВИА 'Сябры'"
    INDEX 01 28:49:53
  TRACK 09 AUDIO
    TITLE "Не бойтесь любви"
    PERFORMER "Эдита Пьеха"
    INDEX 01 34:26:26
  TRACK 10 AUDIO
    TITLE "Зачарованная моя"
    PERFORMER "Ярослав Евдокимов"
    INDEX 01 39:26:58
  TRACK 11 AUDIO
    TITLE "Заклятье"
    PERFORMER "Бируте Петриките"
    INDEX 01 42:47:63
  TRACK 12 AUDIO
    TITLE "Последняя поэма"
    PERFORMER "ВИА 'Ялла'"
    INDEX 01 47:27:55
  TRACK 13 AUDIO
    TITLE "Верь мне"
    PERFORMER "София Ротару, Ансамбль 'Червона рута'"
    INDEX 01 52:57:01
  TRACK 14 AUDIO
    TITLE "Вот и весь разговор"
    PERFORMER "Вахтанг Кикабидзе"
    INDEX 01 56:19:06
  TRACK 15 AUDIO
    TITLE "Я у бабушки живу"
    PERFORMER "ВИА 'Верасы'"
    INDEX 01 59:42:12
  TRACK 16 AUDIO
    TITLE "Красная стрела"
    PERFORMER "София Ротару"
    INDEX 01 63:45:62
  TRACK 17 AUDIO
    TITLE "Птица счастья"
    PERFORMER "Николай Гнатюк"
    INDEX 01 69:03:46
  TRACK 18 AUDIO
    TITLE "Маэстро"
    PERFORMER "Алла Пугачева, Раймонд Паулс"
    INDEX 01 72:17:17

VA - Песня 82'

REM GENRE Retro
REM DATE 2007
REM DISCID F410F812
REM COMMENT "ExactAudioCopy v1.0b3"
PERFORMER "Various Artists"
TITLE "Песня 82' (BoMB 033-376)"
FILE "Various Artists - Песня 82' (BoMB 033-376).flac" WAVE
  TRACK 01 AUDIO
    TITLE "Завируха"
    PERFORMER "ВИА 'Верасы'"
    INDEX 01 00:00:00
  TRACK 02 AUDIO
    TITLE "Здесь мой дом"
    PERFORMER "Роза Рымбаева"
    INDEX 01 04:15:61
  TRACK 03 AUDIO
    TITLE "Мотыли"
    PERFORMER "Леонид Борткевич"
    INDEX 01 07:10:19
  TRACK 04 AUDIO
    TITLE "Я не могу иначе"
    PERFORMER "Валентина Толкунова"
    INDEX 01 10:04:34
  TRACK 05 AUDIO
    TITLE "Встреча друзей"
    PERFORMER "Валерий Топорков"
    INDEX 00 14:10:05
    INDEX 01 14:10:06
  TRACK 06 AUDIO
    TITLE "Где ты, где ты, отчий дом"
    PERFORMER "Людмила Зыкина"
    INDEX 01 18:22:02
  TRACK 07 AUDIO
    TITLE "Дон Кихоты (из песенного цика 'Испанские сюжеты')"
    PERFORMER "Леонид Серебренников"
    INDEX 01 23:51:11
  TRACK 08 AUDIO
    TITLE "Четвертая весна"
    PERFORMER "Юрий Богатиков"
    INDEX 01 27:28:14
  TRACK 09 AUDIO
    TITLE "Черемуха"
    PERFORMER "Надежда Бабкина, Ансамбль 'Русская песня'"
    INDEX 01 31:39:43
  TRACK 10 AUDIO
    TITLE "Реченька"
    PERFORMER "Иосиф Кобзон"
    INDEX 01 34:55:51
  TRACK 11 AUDIO
    TITLE "Цветет сирень"
    PERFORMER "Тамара Гвердцители"
    INDEX 01 39:00:13
  TRACK 12 AUDIO
    TITLE "Старинные часы"
    PERFORMER "Алла Пугачева"
    INDEX 01 42:40:28
  TRACK 13 AUDIO
    TITLE "Любовь моя"
    PERFORMER "ВИА 'Верасы'"
    INDEX 01 47:26:36
  TRACK 14 AUDIO
    TITLE "Аревик"
    PERFORMER "Георгий Минасян, Сюзан Маркарян и Людвиг Тополян"
    INDEX 01 51:14:45
  TRACK 15 AUDIO
    TITLE "Глаза любви"
    PERFORMER "Галина Беседина"
    INDEX 01 54:21:45
  TRACK 16 AUDIO
    TITLE "Учкудук"
    PERFORMER "ВИА 'Ялла'"
    INDEX 01 58:25:04
  TRACK 17 AUDIO
    TITLE "А любовь то лебедем"
    PERFORMER "Валентина Толкунова"
    INDEX 01 63:06:02
  TRACK 18 AUDIO
    TITLE "Меланхолия"
    PERFORMER "София Ротару"
    INDEX 01 68:10:17

VA - Песня 83'

REM GENRE Retro
REM DATE 2007
REM DISCID E40E8611
REM COMMENT "ExactAudioCopy v1.0b3"
PERFORMER "Various Artists"
TITLE "Песня 83' (BoMB 033-377)"
FILE "Various Artists - Песня 83' (BoMB 033-377).flac" WAVE
  TRACK 01 AUDIO
    TITLE "Коляда"
    PERFORMER "ВИА 'Песняры'"
    INDEX 01 00:00:00
  TRACK 02 AUDIO
    TITLE "Все еще будет"
    PERFORMER "Алла Пугачева, Кристина Орбакайте"
    INDEX 01 02:47:32
  TRACK 03 AUDIO
    TITLE "Полет на дельтаплане"
    PERFORMER "Валерий Леонтьев"
    INDEX 01 05:53:61
  TRACK 04 AUDIO
    TITLE "Твой голос"
    PERFORMER "Трио 'Меридиан'"
    INDEX 01 09:41:16
  TRACK 05 AUDIO
    TITLE "Двух жизней не бывает"
    PERFORMER "Николай Гнатюк"
    INDEX 01 12:39:61
  TRACK 06 AUDIO
    TITLE "Трава у дома"
    PERFORMER "ВИА 'Земляне'"
    INDEX 01 16:13:51
  TRACK 07 AUDIO
    TITLE "Счастье тебе, Земля"
    PERFORMER "София Ротару, Вокальный ансамбль п/у Б. Тевлина"
    INDEX 01 20:57:08
  TRACK 08 AUDIO
    TITLE "Станция 'Минутка'"
    PERFORMER "Татьяна Рузавина и Сергей Таюшев"
    INDEX 01 25:50:35
  TRACK 09 AUDIO
    TITLE "Я тебя никогда не забуду"
    PERFORMER "Трио 'Меридиан'"
    INDEX 01 28:28:73
  TRACK 10 AUDIO
    TITLE "Где мой дом родной"
    PERFORMER "Лев Лещенко, ВИА 'Спектр'"
    INDEX 01 32:24:08
  TRACK 11 AUDIO
    TITLE "Любовь и разлука"
    PERFORMER "Людмила Сенчина"
    INDEX 01 36:58:43
  TRACK 12 AUDIO
    TITLE "Три белых коня"
    PERFORMER "Вокальный квартет 'Сердца четырех'"
    INDEX 01 40:24:12
  TRACK 13 AUDIO
    TITLE "Миллион алых роз"
    PERFORMER "Алла Пугачева"
    INDEX 01 42:55:37
  TRACK 14 AUDIO
    TITLE "Когда умолкнет дискотека"
    PERFORMER "Валерий Леонтьев, ВИА 'Надежда'"
    INDEX 01 48:42:69
  TRACK 15 AUDIO
    TITLE "Помолчим"
    PERFORMER "Эдита Пьеха, Вокальный ансамбль п/у Ю. Цветкова"
    INDEX 01 51:52:51
  TRACK 16 AUDIO
    TITLE "Хорошее настроение"
    PERFORMER "Васил Найденов (Болгария)"
    INDEX 01 55:03:54
  TRACK 17 AUDIO
    TITLE "Музыка со всех сторон"
    PERFORMER "София Ротару"
    INDEX 01 58:19:42

VA - Песня 84'

REM GENRE Retro
REM DATE 2007
REM DISCID D70FBF11
REM COMMENT "ExactAudioCopy v1.0b3"
PERFORMER "Various Artists"
TITLE "Песня 84' (BoMB 033-378)"
FILE "Various Artists - Песня 84' (BoMB 033-378).flac" WAVE
  TRACK 01 AUDIO
    TITLE "Дорога в детство"
    PERFORMER "Лев Лещенко"
    INDEX 01 00:00:00
  TRACK 02 AUDIO
    TITLE "Песенка без конца"
    PERFORMER "Валентина Толкунова"
    INDEX 01 03:58:15
  TRACK 03 AUDIO
    TITLE "Любовь,не покидай меня"
    PERFORMER "Трио 'Меридиан'"
    INDEX 01 07:44:52
  TRACK 04 AUDIO
    TITLE "Что знает о любви любовь"
    PERFORMER "Людмила Гурченко"
    INDEX 01 11:28:12
  TRACK 05 AUDIO
    TITLE "Два белых снега"
    PERFORMER "Татьяна Рузавина, Сергей Таюшев"
    INDEX 01 15:17:45
  TRACK 06 AUDIO
    TITLE "Во имя мира и любви"
    PERFORMER "Надежда Чепрага"
    INDEX 01 17:47:11
  TRACK 07 AUDIO
    TITLE "Шахрисабз"
    PERFORMER "ВИА 'Ялла'"
    INDEX 01 20:31:39
  TRACK 08 AUDIO
    TITLE "Зелёные цветы"
    PERFORMER "Галина Беседина"
    INDEX 01 23:40:42
  TRACK 09 AUDIO
    TITLE "Расскажите, птицы"
    PERFORMER "Алла Пугачева"
    INDEX 01 27:51:62
  TRACK 10 AUDIO
    TITLE "Марш-воспоминание"
    PERFORMER "Евгений Мартынов"
    INDEX 01 34:12:56
  TRACK 11 AUDIO
    TITLE "Вы мне нравитесь"
    PERFORMER "Людмила Сенчина"
    INDEX 01 38:28:44
  TRACK 12 AUDIO
    TITLE "Айсберг"
    PERFORMER "Алла Пугачева"
    INDEX 01 41:51:67
  TRACK 13 AUDIO
    TITLE "Надо подумать"
    PERFORMER "М. Зивере, И. Ванзович, Ансамбль 'Опус'"
    INDEX 01 46:25:46
  TRACK 14 AUDIO
    TITLE "Романтика"
    PERFORMER "София Ротару"
    INDEX 01 50:22:17
  TRACK 15 AUDIO
    TITLE "Затмение сердца"
    PERFORMER "Валерий Леонтьев"
    INDEX 01 55:20:11
  TRACK 16 AUDIO
    TITLE "Без меня"
    PERFORMER "Алла Пугачева"
    INDEX 01 59:00:29
  TRACK 17 AUDIO
    TITLE "Завтрашний день"
    PERFORMER "Эдуард Хиль"
    INDEX 01 63:37:44

VA - Песня 85'

REM GENRE Retro
REM DATE 2007
REM DISCID D80DB511
REM COMMENT "ExactAudioCopy v1.0b3"
PERFORMER "Various Artists"
TITLE "Песня 85' (BoMB 033-379)"
FILE "Various Artists - Песня 85' (BoMB 033-379).flac" WAVE
  TRACK 01 AUDIO
    TITLE "Прекрасное далеко"
    PERFORMER "Трио 'Меридиан'"
    INDEX 01 00:00:00
  TRACK 02 AUDIO
    TITLE "Облака"
    PERFORMER "Эдита Пьеха"
    INDEX 01 04:03:63
  TRACK 03 AUDIO
    TITLE "Паромщик"
    PERFORMER "Алла Пугачева"
    INDEX 01 08:24:14
  TRACK 04 AUDIO
    TITLE "Песне моей поверь"
    PERFORMER "Муслим Магомаев"
    INDEX 01 11:58:14
  TRACK 05 AUDIO
    TITLE "Аист на крыше"
    PERFORMER "София Ротару"
    INDEX 01 15:22:24
  TRACK 06 AUDIO
    TITLE "Свежий ветер"
    PERFORMER "Лев Лещенко"
    INDEX 01 18:48:42
  TRACK 07 AUDIO
    TITLE "Мир без чудес"
    PERFORMER "Ирина Понаровская"
    INDEX 01 21:05:46
  TRACK 08 AUDIO
    TITLE "Салют"
    PERFORMER "ВИА 'Самоцветы'"
    INDEX 01 25:22:25
  TRACK 09 AUDIO
    TITLE "В доме моем"
    PERFORMER "София Ротару"
    INDEX 01 28:49:69
  TRACK 10 AUDIO
    TITLE "Первое свидание"
    PERFORMER "ВИА 'Верасы'"
    INDEX 01 32:37:53
  TRACK 11 AUDIO
    TITLE "Живи, родник"
    PERFORMER "Сергей Беликов"
    INDEX 01 36:44:44
  TRACK 12 AUDIO
    TITLE "Город снов"
    PERFORMER "ВИА 'Ялла'"
    INDEX 01 39:46:30
  TRACK 13 AUDIO
    TITLE "Три минуты"
    PERFORMER "Валерий Леонтьев"
    INDEX 01 43:16:68
  TRACK 14 AUDIO
    TITLE "Пароход"
    PERFORMER "ВИА 'Верные друзья'"
    INDEX 01 47:12:65
  TRACK 15 AUDIO
    TITLE "Немое кино"
    PERFORMER "Валентина Толкунова"
    INDEX 01 50:08:21
  TRACK 16 AUDIO
    TITLE "Комарово"
    PERFORMER "Игорь Скляр"
    INDEX 01 52:45:58
  TRACK 17 AUDIO
    TITLE "Делу время"
    PERFORMER "Алла Пугачева"
    INDEX 01 54:58:20

VA - Песня 86'

REM GENRE Retro
REM DATE 2007
REM DISCID CD0D9C0F
REM COMMENT "ExactAudioCopy v1.0b3"
PERFORMER "Various Artists"
TITLE "Песня 86' (BoMB 033-380)"
FILE "Various Artists - Песня 86' (BoMB 033-380).flac" WAVE
  TRACK 01 AUDIO
    TITLE "Моей судьбы река"
    PERFORMER "Сергей Захаров"
    INDEX 01 00:00:00
  TRACK 02 AUDIO
    TITLE "Танец на воздушных шарах"
    PERFORMER "Наталия  Нурмухамедова"
    INDEX 01 04:42:64
  TRACK 03 AUDIO
    TITLE "Любимая, спи"
    PERFORMER "Александр  Градский"
    INDEX 01 07:33:25
  TRACK 04 AUDIO
    TITLE "Счастье первому дому"
    PERFORMER "ВИА 'Садо'"
    INDEX 01 12:42:09
  TRACK 05 AUDIO
    TITLE "Красота твоя"
    PERFORMER "Людмила Рюмина"
    INDEX 01 16:19:64
  TRACK 06 AUDIO
    TITLE "Берег юности"
    PERFORMER "Ярослав  Евдокимов"
    INDEX 01 20:26:13
  TRACK 07 AUDIO
    TITLE "Скажите, лебеди"
    PERFORMER "Валентина Толкунова"
    INDEX 01 23:06:57
  TRACK 08 AUDIO
    TITLE "Чудо-земля"
    PERFORMER "ВИА 'Маки'"
    INDEX 01 26:47:44
  TRACK 09 AUDIO
    TITLE "Жеребенок"
    PERFORMER "Т. Чубинидзе"
    INDEX 01 30:50:44
  TRACK 10 AUDIO
    TITLE "Буду"
    PERFORMER "Радмила Караклаич"
    INDEX 01 34:18:12
  TRACK 11 AUDIO
    TITLE "Я возвращаюсь к тебе"
    PERFORMER "Иосиф Кобзон"
    INDEX 01 37:28:19
  TRACK 12 AUDIO
    TITLE "Пришла пора"
    PERFORMER "Лев Лещенко, ВИА 'Спектр'"
    INDEX 01 41:38:32
  TRACK 13 AUDIO
    TITLE "Прости, поверь"
    PERFORMER "Алла Пугачева"
    INDEX 01 45:39:04
  TRACK 14 AUDIO
    TITLE "Лето, прощай!"
    PERFORMER "Валерий  Леонтьев"
    INDEX 01 49:30:14
  TRACK 15 AUDIO
    TITLE "Чистые росы"
    PERFORMER "Трио 'Меридиан'"
    INDEX 01 53:57:16

VA - Песня 87'

REM GENRE Retro
REM DATE 2007
REM DISCID F8108811
REM COMMENT "ExactAudioCopy v1.0b3"
PERFORMER "Various Artists"
TITLE "Песня 87' (BoMB 033-381)"
FILE "Various Artists - Песня 87' (BoMB 033-381).flac" WAVE
  TRACK 01 AUDIO
    TITLE "Пора подснежников"
    PERFORMER "Эдита Пьеха"
    INDEX 01 00:00:00
  TRACK 02 AUDIO
    TITLE "Белая сирень"
    PERFORMER "Евгений Мартынов"
    INDEX 01 04:45:66
  TRACK 03 AUDIO
    TITLE "Снится мне деревня"
    PERFORMER "Сергей Беликов"
    INDEX 01 08:07:10
  TRACK 04 AUDIO
    TITLE "Зацветает краснотал"
    PERFORMER "ВИА 'Пламя'"
    INDEX 01 11:24:15
  TRACK 05 AUDIO
    TITLE "Земляки"
    PERFORMER "Владимир Мигуля"
    INDEX 01 14:34:00
  TRACK 06 AUDIO
    TITLE "Белая ворона"
    PERFORMER "Валерий Леонтьев"
    INDEX 01 19:03:72
  TRACK 07 AUDIO
    TITLE "Ягода-малина"
    PERFORMER "Валентина Легкоступова и инстр. анс. Москонцерта"
    INDEX 01 25:59:49
  TRACK 08 AUDIO
    TITLE "Письма ветра"
    PERFORMER "Р. Фоминс и ВИА 'Ремикс'"
    INDEX 01 30:43:34
  TRACK 09 AUDIO
    TITLE "Свадьба"
    PERFORMER "Муслим Магомаев"
    INDEX 01 35:35:50
  TRACK 10 AUDIO
    TITLE "Недотрога"
    PERFORMER "Ирина Грибулина"
    INDEX 01 39:22:03
  TRACK 11 AUDIO
    TITLE "Играю черными"
    PERFORMER "С. Сархан и  инстр. анс. Москонцерта"
    INDEX 01 43:01:70
  TRACK 12 AUDIO
    TITLE "Самба с Марадоной"
    PERFORMER "Анне Вески и  инстр. анс. Москонцерта"
    INDEX 01 46:49:63
  TRACK 13 AUDIO
    TITLE "Сара-Бара-Бу"
    PERFORMER "Бит-квартет 'Секрет'"
    INDEX 01 50:25:56
  TRACK 14 AUDIO
    TITLE "Букет"
    PERFORMER "Александр Барыкин и группа 'Карнавал'"
    INDEX 01 53:00:63
  TRACK 15 AUDIO
    TITLE "На теплоходе музыка играет"
    PERFORMER "Ольга Зарубина"
    INDEX 01 56:43:36
  TRACK 16 AUDIO
    TITLE "Чистые пруды"
    PERFORMER "Игорь Тальков"
    INDEX 01 60:00:67
  TRACK 17 AUDIO
    TITLE "Вернисаж"
    PERFORMER "Лайма Вайкуле"
    INDEX 01 65:40:24

VA - Песня 88'

REM GENRE Retro
REM DATE 2007
REM DISCID E3106811
REM COMMENT "ExactAudioCopy v1.0b3"
PERFORMER "Various Artists"
TITLE "Песня 88' (BoMB 033-382)"
FILE "Various Artists - Песня 88' (BoMB 033-382).flac" WAVE
  TRACK 01 AUDIO
    TITLE "Подорожник-трава"
    PERFORMER "Алиса Мон"
    INDEX 01 00:00:00
  TRACK 02 AUDIO
    TITLE "Счастливый случай"
    PERFORMER "Яна Поплавская, Александр Тиханович"
    INDEX 01 03:50:43
  TRACK 03 AUDIO
    TITLE "Завалинка"
    PERFORMER "ВИА 'Сябры'"
    INDEX 01 07:51:24
  TRACK 04 AUDIO
    TITLE "Дорогие мои старики"
    PERFORMER "Игорь Саруханов"
    INDEX 01 10:51:30
  TRACK 05 AUDIO
    TITLE "Люси"
    PERFORMER "Олег Газманов, Родион Газманов"
    INDEX 01 14:59:26
  TRACK 06 AUDIO
    TITLE "Музыкальная чайхана"
    PERFORMER "ВИА 'Ялла'"
    INDEX 01 18:22:25
  TRACK 07 AUDIO
    TITLE "Горько"
    PERFORMER "Лев Лещенко"
    INDEX 01 22:12:30
  TRACK 08 AUDIO
    TITLE "Эдит Пиаф"
    PERFORMER "Тамара Гвердцители"
    INDEX 01 26:50:43
  TRACK 09 AUDIO
    TITLE "Доктор Время"
    PERFORMER "Валерий Леонтьев"
    INDEX 01 30:06:64
  TRACK 10 AUDIO
    TITLE "Билет на балет"
    PERFORMER "Игорь Корнелюк"
    INDEX 00 36:06:66
    INDEX 01 36:06:67
  TRACK 11 AUDIO
    TITLE "Яблоки на снегу"
    PERFORMER "Михаил Муромов"
    INDEX 01 40:18:21
  TRACK 12 AUDIO
    TITLE "Смолоду"
    PERFORMER "Вячеслав Малежик"
    INDEX 01 44:42:01
  TRACK 13 AUDIO
    TITLE "Ты замуж за него не выходи"
    PERFORMER "Группа 'Электроклуб' (солист - Виктор Салтыков)"
    INDEX 01 47:44:60
  TRACK 14 AUDIO
    TITLE "Синий туман"
    PERFORMER "Вячеслав Добрынин"
    INDEX 01 51:25:22
  TRACK 15 AUDIO
    TITLE "Я больше не хочу"
    PERFORMER "Ирина Понаровская"
    INDEX 01 55:15:10
  TRACK 16 AUDIO
    TITLE "Королевство кривых зеркал"
    PERFORMER "Игорь Николаев"
    INDEX 01 61:01:35
  TRACK 17 AUDIO
    TITLE "Родня"
    PERFORMER "Александр Буйнов"
    INDEX 01 65:14:30

VA - Песня 89'

REM GENRE Retro
REM DATE 2007
REM DISCID F810C512
REM COMMENT "ExactAudioCopy v1.0b3"
PERFORMER "Various Artists"
TITLE "Песня 89' (BoMB 033-383)"
FILE "Various Artists - Песня 89' (BoMB 033-383).flac" WAVE
  TRACK 01 AUDIO
    TITLE "Играй, музыкант"
    PERFORMER "Маша Распутина и группа 'Бульвар'"
    INDEX 01 00:00:00
  TRACK 02 AUDIO
    TITLE "Мост качается"
    PERFORMER "Игорь Азаров"
    INDEX 01 03:29:25
  TRACK 03 AUDIO
    TITLE "Провинциалка"
    PERFORMER "Вячеслав Малежик и группа 'Саквояж'"
    INDEX 01 06:57:44
  TRACK 04 AUDIO
    TITLE "Белый вечер"
    PERFORMER "Эдита Пьеха"
    INDEX 01 10:07:27
  TRACK 05 AUDIO
    TITLE "Печки-лавочки"
    PERFORMER "ВИА 'Сябры'"
    INDEX 01 13:17:46
  TRACK 06 AUDIO
    TITLE "Адрес - Русь"
    PERFORMER "А. Днепров"
    INDEX 01 16:36:05
  TRACK 07 AUDIO
    TITLE "Разгуляй"
    PERFORMER "Ольга Зарубина"
    INDEX 01 20:39:58
  TRACK 08 AUDIO
    TITLE "Незабудка"
    PERFORMER "Ион Суручану"
    INDEX 01 23:53:44
  TRACK 09 AUDIO
    TITLE "Неспелая вишня"
    PERFORMER "Группа 'Игра' (худ.рук. И. Гранов)"
    INDEX 01 27:08:16
  TRACK 10 AUDIO
    TITLE "Не сыпь мне соль на рану"
    PERFORMER "Вячеслав Добрынин"
    INDEX 01 31:42:59
  TRACK 11 AUDIO
    TITLE "Я тебя не прощу"
    PERFORMER "Виктор Салтыков и группа 'Электроклуб' (худ.рук. Д. Тухманов)"
    INDEX 01 36:15:14
  TRACK 12 AUDIO
    TITLE "Розовые розы"
    PERFORMER "Анс. 'Веселые ребята'"
    INDEX 01 39:40:13
  TRACK 13 AUDIO
    TITLE "Пилигримы"
    PERFORMER "Александр Малинин"
    INDEX 01 44:28:15
  TRACK 14 AUDIO
    TITLE "Зимний сад"
    PERFORMER "Алексей Глызин и группа 'Ура'"
    INDEX 01 50:28:19
  TRACK 15 AUDIO
    TITLE "Капля в море"
    PERFORMER "Валентина Легкоступова и  Арт-группа 'Бревис'"
    INDEX 01 55:06:43
  TRACK 16 AUDIO
    TITLE "Возвращайся"
    PERFORMER "Игорь Корнелюк"
    INDEX 01 58:14:01
  TRACK 17 AUDIO
    TITLE "Виват, король!"
    PERFORMER "Тамара Гвердцители"
    INDEX 01 62:33:01
  TRACK 18 AUDIO
    TITLE "Рябиновые бусы"
    PERFORMER "Ирина Понаровская"
    INDEX 01 67:18:71

VA - Песня 90'

REM GENRE Retro
REM DATE 2007
REM DISCID 0C122E12
REM COMMENT "ExactAudioCopy v1.0b3"
PERFORMER "Various Artists"
TITLE "Песня 90' (BoMB 033-384)"
FILE "Various Artists - Песня 90' (BoMB 033-384).flac" WAVE
  TRACK 01 AUDIO
    TITLE "Желтые тюльпаны"
    PERFORMER "Наташа Королева"
    INDEX 01 00:00:00
  TRACK 02 AUDIO
    TITLE "Плот"
    PERFORMER "Юрий Лоза"
    INDEX 01 04:52:52
  TRACK 03 AUDIO
    TITLE "Дожди"
    PERFORMER "Игорь Корнелюк"
    INDEX 01 10:12:61
  TRACK 04 AUDIO
    TITLE "Послушай"
    PERFORMER "Игорь Корнелюк, Эдита Пьеха"
    INDEX 01 14:24:28
  TRACK 05 AUDIO
    TITLE "Я за тебя молюсь"
    PERFORMER "Лайма Вайкуле"
    INDEX 01 17:08:71
  TRACK 06 AUDIO
    TITLE "Странная женщина"
    PERFORMER "Михаил Муромов"
    INDEX 01 21:28:10
  TRACK 07 AUDIO
    TITLE "Эскимос и папуас"
    PERFORMER "Шоу-группа 'На-На' п/у Бари Алибасова"
    INDEX 01 28:16:64
  TRACK 08 AUDIO
    TITLE "Колдовское озеро"
    PERFORMER "Группа 'Доктор Шлягер'"
    INDEX 01 33:01:51
  TRACK 09 AUDIO
    TITLE "Твоя улыбка"
    PERFORMER "Азиза"
    INDEX 01 35:54:26
  TRACK 10 AUDIO
    TITLE "За той рекой"
    PERFORMER "Александр Барыкин"
    INDEX 01 40:02:38
  TRACK 11 AUDIO
    TITLE "Очарована, околдована..."
    PERFORMER "Группа 'Санкт-Петербург'"
    INDEX 01 43:16:35
  TRACK 12 AUDIO
    TITLE "Пепел любви"
    PERFORMER "Алексей Глызин и группа  'Ура'"
    INDEX 01 47:04:14
  TRACK 13 AUDIO
    TITLE "Туда - сюда"
    PERFORMER "Владимир Мигуля"
    INDEX 01 52:51:21
  TRACK 14 AUDIO
    TITLE "Льется музыка"
    PERFORMER "Вячеслав Добрынин и  Маша Распутина"
    INDEX 01 56:42:68
  TRACK 15 AUDIO
    TITLE "Ревность"
    PERFORMER "Сергей Рогожин и группа  'Форум'"
    INDEX 01 62:47:56
  TRACK 16 AUDIO
    TITLE "Безнадега"
    PERFORMER "Группа 'Веселые ребята'"
    INDEX 01 67:10:61
  TRACK 17 AUDIO
    TITLE "Эскадрон"
    PERFORMER "Олег Газманов"
    INDEX 01 70:46:61
  TRACK 18 AUDIO
    TITLE "Белый снег"
    PERFORMER "Валерий Леонтьев"
    INDEX 01 73:52:68
-- --
[Профиль] [ЛС]
Кто просматривает тему:

Показать сообщения:    

Текущее время: Сегодня 08:52

Часовой пояс: GMT



Вы не можете начинать темы
Вы не можете отвечать на сообщения
Вы не можете редактировать свои сообщения
Вы не можете удалять свои сообщения
Вы не можете голосовать в опросах
Вы не можете прикреплять файлы к сообщениям
Вы не можете скачивать файлы