(Retro, Советская эстрада) VA - Золотые хиты ВИА (В.Добрынин) (4CD) - 2011 [FLAC, image+.cue, lossless]

 
Автор Сообщение

sergej644 ®

Пол:

Стаж: 4 года 11 месяцев

Сообщений: 6046

Откуда: Soviet Union



Награды: Нет

Торрент-статистика

Создавать темы 17-Июн-2015 23:37

[Цитировать]

-Золотые хиты ВИА (В.Добрынин) (4CD)-- Год издания: 2011
Страна: Russia
Жанр: Retro, Советская эстрада
Продолжительность: 04:47:45-Лейбл издания: Bomba Music
Тип альбома: Compilation
Страна-выпуска диска: Russia
Формат: FLAC
Битрейт аудио: lossless
Тип рипа: image+.cue
Наличие сканов в содержимом раздачи: да
--

Часть 1 | 01:05:17

01.ВИА «Весёлые ребята» - На Земле живёт любовь (В. Добрынин - Л. Дербенёв) (03:44)
02.ВИА «Самоцветы» - У нас, молодых (В. Добрынин - В. Харитонов) (01:59)
03.ВИА «Лейся, песня!» - Шире круг (В. Добрынин - Л. Дербенёв) (02:37)
04.ВИА «Акварели» - Ох, эти танцы (В. Добрынин - В. Харитонов) (02:43)
05.ВИА «Лейся, песня!» - Двадцатый век (В. Добрынин - Л. Дербенёв, И. Шаферан) (02:35)
06.ВИА «Лейся, песня!» - Выросли дети (В. Добрынин - М. Пляцковский) (02:57)
07.ВИА «Добры молодцы» - Как счастливым быть (В. Добрынин - И. Шаферан) (03:17)
08.ВИА «Поющие сердца» - Помоги мне дождик (В. Добрынин - Н. Олев) (03:11)
09.ВИА «Калинка» - Я твой нелюбимый (В. Добрынин - Л. Дербенёв, И. Шаферан) (02:47)
10.ВИА «Синяя птица» - Не обижайся на меня (В. Добрынин - М. Танич) (03:14)
11.ВИА «Синяя птица» - Пусть я ошибусь (В. Добрынин - И. Шаферан) (03:05)
12.ВИА «Добры молодцы» - Разве быть могло такое (В. Добрынин - Ию Кохановский) (02:18)
13.ВИА «Поющие сердца» - Кто тебе сказал (В. Добрынин - Л. Дербенёв) (02:29)
14.ВИА «Музыка» - 22+28 (В. Добрынин - В. Луговой) (03:40)
15.ВИА «Голубые гитары» - Почтальон (В. Добрынин,А. Пузырёв - О. Гаджикасимов) (02:59)
16.ВИА «Надежда» - А я звоню опять (В. Добрынин - М. Пляцковский) (03:14)
17.ВИА «Надежда» - Ты сама придумала (В. Добрынин - М. Пляцковский) (03:13)
18.ВИА «Лейся, песня!» - Никогда не пойму (В. Добрынин - Л. Дербенёв) (03:13)
19.ВИА «Весёлые ребята» - Напиши мне письмо (В. Добрынин - М. Рябинин) (03:20)
20.ВИА «Лейся, песня!» - Качается вагон (В. Добрынин - И. Шаферан) (04:03)
21.ВИА «Лейся, песня!» - Прощай (В. Добрынин - Л. Дербенёв) (04:49)

лог создания рипа

Exact Audio Copy V1.0 beta 2 from 29. April 2011
Отчёт EAC об извлечении, выполненном 24. декабря 2011, 22:26
Песни композитора Вячеслава Добрынина / Золотые хиты ВИА [Было время, были песни...] Часть 1
Дисковод: Optiarc DVD RW AD-7190A   Adapter: 0  ID: 0
Режим чтения                 : Достоверность
Использование точного потока : Да
Отключение кэша аудио        : Да
Использование указателей C2  : Нет
Коррекция смещения при чтении                     : 6
Способность читать области Lead-in и Lead-out     : Нет
Заполнение пропущенных сэмплов тишиной            : Да
Удаление блоков с тишиной в начале и конце        : Нет
При вычислениях CRC использовались нулевые сэмплы : Да
Интерфейс                                         : Встроенный Win32-интерфейс для Win NT/2000
Выходной формат : Внутренние WAV-операции
Формат сэмплов  : 44.100 Гц; 16 бит; стерео
TOC извлечённого CD
     Трек |   Старт  | Длительность | Начальный сектор | Конечный сектор
    ---------------------------------------------------------------------
       1  |  0:00.00 |    3:44.00   |           0      |      16799
       2  |  3:44.00 |    1:58.63   |       16800      |      25712
       3  |  5:42.63 |    2:36.57   |       25713      |      37469
       4  |  8:19.45 |    2:42.05   |       37470      |      49624
       5  | 11:01.50 |    2:34.13   |       49625      |      61187
       6  | 13:35.63 |    2:56.73   |       61188      |      74460
       7  | 16:32.61 |    3:16.45   |       74461      |      89205
       8  | 19:49.31 |    3:10.05   |       89206      |     103460
       9  | 22:59.36 |    2:46.25   |      103461      |     115935
      10  | 25:45.61 |    3:13.17   |      115936      |     130427
      11  | 28:59.03 |    3:04.73   |      130428      |     144300
      12  | 32:04.01 |    2:17.22   |      144301      |     154597
      13  | 34:21.23 |    2:28.13   |      154598      |     165710
      14  | 36:49.36 |    3:39.69   |      165711      |     182204
      15  | 40:29.30 |    2:58.45   |      182205      |     195599
      16  | 43:28.00 |    3:13.49   |      195600      |     210123
      17  | 46:41.49 |    3:12.43   |      210124      |     224566
      18  | 49:54.17 |    3:12.28   |      224567      |     238994
      19  | 53:06.45 |    3:19.46   |      238995      |     253965
      20  | 56:26.16 |    4:02.06   |      253966      |     272121
      21  | 60:28.22 |    4:48.51   |      272122      |     293772
Характеристики диапазона извлечения и сообщения об ошибках
Выбранный диапазон
     Имя файла E:\КОМПОЗИТОРЫ\ДОБРЫНИН ВЯЧЕСЛАВ © [Дискография]\ДОБРЫНИН ВЯЧЕСЛАВ (c) 2011 [Золотые хиты ВИА] 01-04 Части\Часть 1 [Было время, были песни...]\Песни композитора Вячеслава Добрынина - Золотые хиты ВИА [Было время, были песни...] Часть 1.wav
     Пиковый уровень 98.9 %
     Скорость извлечения 4.0 X
     Качество диапазона 99.9 %
     CRC теста 87948FCC
     CRC копии 87948FCC
     Копирование... OK
Ошибок не произошло
AccurateRip: сводка
Трек  1  отсутствует в базе данных
Трек  2  отсутствует в базе данных
Трек  3  отсутствует в базе данных
Трек  4  отсутствует в базе данных
Трек  5  отсутствует в базе данных
Трек  6  отсутствует в базе данных
Трек  7  отсутствует в базе данных
Трек  8  отсутствует в базе данных
Трек  9  отсутствует в базе данных
Трек 10  отсутствует в базе данных
Трек 11  отсутствует в базе данных
Трек 12  отсутствует в базе данных
Трек 13  отсутствует в базе данных
Трек 14  отсутствует в базе данных
Трек 15  отсутствует в базе данных
Трек 16  отсутствует в базе данных
Трек 17  отсутствует в базе данных
Трек 18  отсутствует в базе данных
Трек 19  отсутствует в базе данных
Трек 20  отсутствует в базе данных
Трек 21  отсутствует в базе данных
Ни одного трека нет в базе AccurateRip
Конец отчёта

содержание индексной карты *cue

REM GENRE Retro/Pop
REM DATE 2011
REM DISCID 1D0F4C15
REM COMMENT "ExactAudioCopy v1.0b2"
PERFORMER "Песни композитора Вячеслава Добрынина"
TITLE "Золотые хиты ВИА [Было время, были песни...] Часть 1"
FILE "Песни композитора Вячеслава Добрынина - Золотые хиты ВИА [Было время, были песни...] Часть 1.flac" WAVE
  TRACK 01 AUDIO
    TITLE "На Земле живёт любовь (В. Добрынин - Л. Дербенёв)"
    PERFORMER "ВИА «Весёлые ребята»"
    FLAGS DCP
    INDEX 01 00:00:00
  TRACK 02 AUDIO
    TITLE "У нас, молодых (В. Добрынин - В. Харитонов)"
    PERFORMER "ВИА «Самоцветы»"
    FLAGS DCP
    INDEX 01 03:44:00
  TRACK 03 AUDIO
    TITLE "Шире круг (В. Добрынин - Л. Дербенёв)"
    PERFORMER "ВИА «Лейся, песня!»"
    FLAGS DCP
    INDEX 01 05:42:63
  TRACK 04 AUDIO
    TITLE "Ох, эти танцы (В. Добрынин - В. Харитонов)"
    PERFORMER "ВИА «Акварели»"
    FLAGS DCP
    INDEX 01 08:19:45
  TRACK 05 AUDIO
    TITLE "Двадцатый век (В. Добрынин - Л. Дербенёв, И. Шаферан)"
    PERFORMER "ВИА «Лейся, песня!»"
    FLAGS DCP
    INDEX 01 11:01:50
  TRACK 06 AUDIO
    TITLE "Выросли дети (В. Добрынин - М. Пляцковский)"
    PERFORMER "ВИА «Лейся, песня!»"
    FLAGS DCP
    INDEX 01 13:35:63
  TRACK 07 AUDIO
    TITLE "Как счастливым быть (В. Добрынин - И. Шаферан)"
    PERFORMER "ВИА «Добры молодцы»"
    FLAGS DCP
    INDEX 01 16:32:61
  TRACK 08 AUDIO
    TITLE "Помоги мне дождик (В. Добрынин - Н. Олев)"
    PERFORMER "ВИА «Поющие сердца»"
    FLAGS DCP
    INDEX 01 19:49:31
  TRACK 09 AUDIO
    TITLE "Я твой нелюбимый (В. Добрынин - Л. Дербенёв, И. Шаферан)"
    PERFORMER "ВИА «Калинка»"
    FLAGS DCP
    INDEX 01 22:59:36
  TRACK 10 AUDIO
    TITLE "Не обижайся на меня (В. Добрынин - М. Танич)"
    PERFORMER "ВИА «Синяя птица»"
    FLAGS DCP
    INDEX 01 25:45:61
  TRACK 11 AUDIO
    TITLE "Пусть я ошибусь (В. Добрынин - И. Шаферан)"
    PERFORMER "ВИА «Синяя птица»"
    FLAGS DCP
    INDEX 01 28:59:03
  TRACK 12 AUDIO
    TITLE "Разве быть могло такое (В. Добрынин - Ию Кохановский)"
    PERFORMER "ВИА «Добры молодцы»"
    FLAGS DCP
    INDEX 01 32:04:01
  TRACK 13 AUDIO
    TITLE "Кто тебе сказал (В. Добрынин - Л. Дербенёв)"
    PERFORMER "ВИА «Поющие сердца»"
    FLAGS DCP
    INDEX 01 34:21:23
  TRACK 14 AUDIO
    TITLE "22+28 (В. Добрынин - В. Луговой)"
    PERFORMER "ВИА «Музыка»"
    FLAGS DCP
    INDEX 01 36:49:36
  TRACK 15 AUDIO
    TITLE "Почтальон (В. Добрынин,А. Пузырёв - О. Гаджикасимов)"
    PERFORMER "ВИА «Голубые гитары»"
    FLAGS DCP
    INDEX 01 40:29:30
  TRACK 16 AUDIO
    TITLE "А я звоню опять (В. Добрынин - М. Пляцковский)"
    PERFORMER "ВИА «Надежда»"
    FLAGS DCP
    INDEX 01 43:28:00
  TRACK 17 AUDIO
    TITLE "Ты сама придумала (В. Добрынин - М. Пляцковский)"
    PERFORMER "ВИА «Надежда»"
    FLAGS DCP
    INDEX 01 46:41:49
  TRACK 18 AUDIO
    TITLE "Никогда не пойму (В. Добрынин - Л. Дербенёв)"
    PERFORMER "ВИА «Лейся, песня!»"
    FLAGS DCP
    INDEX 01 49:54:17
  TRACK 19 AUDIO
    TITLE "Напиши мне письмо (В. Добрынин - М. Рябинин)"
    PERFORMER "ВИА «Весёлые ребята»"
    FLAGS DCP
    INDEX 01 53:06:45
  TRACK 20 AUDIO
    TITLE "Качается вагон (В. Добрынин - И. Шаферан)"
    PERFORMER "ВИА «Лейся, песня!»"
    FLAGS DCP
    INDEX 01 56:26:16
  TRACK 21 AUDIO
    TITLE "Прощай (В. Добрынин - Л. Дербенёв)"
    PERFORMER "ВИА «Лейся, песня!»"
    FLAGS DCP
    INDEX 01 60:28:22

Лог Audiochecker:

AUDIOCHECKER v2.0 beta (build 457) - by Dester - opdester@freemail.hu
~~~~~~~~~~~~~~~~~~~~~~~~~~~~~~~~~~
-=== DO NOT EDIT THIS FILE! ===-
Path: ...\Часть 1 [Было время, были песни...]
1 -=- Песни композитора Вячеслава Добрынина - Золотые хиты ВИА [Было время, были песни...] Часть 1.wav -=- CDDA (76%)
240065332

Часть 2 | 01:11:44

01.ВИА «Весёлые ребята» - Ни минуты покоя (В. Добрынин - Л. Дербенёв) (03:45)
02.ВИА «Акварели» - Что такое осень (В. Добрынин - М. Рябинин) (03:42)
03.ВИА «Ариэль» - Облако на нитке (В. Добрынин - М. Пляцковский) (02:46)
04.ВИА «Верные друзья» - Школьная любовь (В. Добрынин - М. Пляцковский) (03:43)
05.ВИА «Верные друзья» - Я+ты (В. Добрынин - М. Пляцковский) (03:30)
06.ВИА «Калинка» - Всё наоборот (В. Добрынин - В. Харитонов) (03:05)
07.ВИА «Здравствуй, песня» - Давай уедем к морю (В. Добрынин - И. Кохановский) (03:51)
08.ВИА «Синяя птица» - Прогулка (В. Добрынин, В. Кретов - В. Гин) (02:56)
09.ВИА «ЛАДА» - Горячая любовь (В. Добрынин - А. Поперечный) (02:40)
10.ВИА «Молодые голоса» - Дедушка играет на гитаре (В. Добрынин - М. Пляцковский) (04:01)
11.ВИА «Здравствуй, песня» - Разве мы могли подумать (В. Добрынин - М. Пляцковский) (04:18)
12.ВИА «Лейся, песня! - Где же ты была? (В. Добрынин - Л. Дербенёв) (03:32)
13.ВИА «Лейся, песня! - Вот увидишь (В. Добрынин - И. Шаферан) (03:49)
14.ВИА «Поющие сердца» - Только я не верю (В. Добрынин - И. Шаферан) (03:51)
15.ВИА «Синяя птица» - Между мною и тобою (В. Добрынин - Л. Дербенёв) (03:26)
16.ВИА «Синяя птица» - Я тебя не прощу (В. Добрынин - И. Кохановский) (04:32)
17.ВИА «Поющие сердца» - Обманщица (В. Добрынин - М. Пляцковский) (04:00)
18.ВИА «Самоцветы» - Просто не верится (В. Добрынин - М. Пляцковский) (03:43)
19.ВИА «Самоцветы» - Будьте счастливы (В. Добрынин - М. Рябинин) (03:00)
20.ВИА «Лейся, песня! - Давайте праздновать любовь (В. Добрынин, В. Кретов - И. Шаферан) (03:41)

лог создания рипа

Exact Audio Copy V1.0 beta 2 from 29. April 2011
Отчёт EAC об извлечении, выполненном 25. декабря 2011, 8:49
Песни композитора Вячеслава Добрынина / Золотые хиты ВИА [Было время, были песни...] Часть 2
Дисковод: Optiarc DVD RW AD-7190A   Adapter: 0  ID: 0
Режим чтения                 : Достоверность
Использование точного потока : Да
Отключение кэша аудио        : Да
Использование указателей C2  : Нет
Коррекция смещения при чтении                     : 6
Способность читать области Lead-in и Lead-out     : Нет
Заполнение пропущенных сэмплов тишиной            : Да
Удаление блоков с тишиной в начале и конце        : Нет
При вычислениях CRC использовались нулевые сэмплы : Да
Интерфейс                                         : Встроенный Win32-интерфейс для Win NT/2000
Выходной формат : Внутренние WAV-операции
Формат сэмплов  : 44.100 Гц; 16 бит; стерео
TOC извлечённого CD
     Трек |   Старт  | Длительность | Начальный сектор | Конечный сектор
    ---------------------------------------------------------------------
       1  |  0:00.00 |    3:44.70   |           0      |      16869
       2  |  3:44.70 |    3:41.67   |       16870      |      33511
       3  |  7:26.62 |    2:45.56   |       33512      |      45942
       4  | 10:12.43 |    3:42.13   |       45943      |      62605
       5  | 13:54.56 |    3:29.54   |       62606      |      78334
       6  | 17:24.35 |    3:04.24   |       78335      |      92158
       7  | 20:28.59 |    3:50.48   |       92159      |     109456
       8  | 24:19.32 |    2:55.26   |      109457      |     122607
       9  | 27:14.58 |    2:39.52   |      122608      |     134584
      10  | 29:54.35 |    4:00.73   |      134585      |     152657
      11  | 33:55.33 |    4:17.38   |      152658      |     171970
      12  | 38:12.71 |    3:31.49   |      171971      |     187844
      13  | 41:44.45 |    3:48.61   |      187845      |     205005
      14  | 45:33.31 |    3:50.19   |      205006      |     222274
      15  | 49:23.50 |    3:25.56   |      222275      |     237705
      16  | 52:49.31 |    4:31.73   |      237706      |     258103
      17  | 57:21.29 |    3:59.33   |      258104      |     276061
      18  | 61:20.62 |    3:42.25   |      276062      |     292736
      19  | 65:03.12 |    2:59.68   |      292737      |     306229
      20  | 68:03.05 |    3:40.29   |      306230      |     322758
Характеристики диапазона извлечения и сообщения об ошибках
Выбранный диапазон
     Имя файла E:\КОМПОЗИТОРЫ\ДОБРЫНИН ВЯЧЕСЛАВ © [Дискография]\ДОБРЫНИН ВЯЧЕСЛАВ (c) 2011 [Золотые хиты ВИА] 01-04 Части\Часть 2 [Было время, были песни...]\Песни композитора Вячеслава Добрынина - Золотые хиты ВИА [Было время, были песни...] Часть 2.wav
     Пиковый уровень 98.9 %
     Скорость извлечения 4.0 X
     Качество диапазона 100.0 %
     CRC теста 6E6F7593
     CRC копии 6E6F7593
     Копирование... OK
Ошибок не произошло
AccurateRip: сводка
Трек  1  отсутствует в базе данных
Трек  2  отсутствует в базе данных
Трек  3  отсутствует в базе данных
Трек  4  отсутствует в базе данных
Трек  5  отсутствует в базе данных
Трек  6  отсутствует в базе данных
Трек  7  отсутствует в базе данных
Трек  8  отсутствует в базе данных
Трек  9  отсутствует в базе данных
Трек 10  отсутствует в базе данных
Трек 11  отсутствует в базе данных
Трек 12  отсутствует в базе данных
Трек 13  отсутствует в базе данных
Трек 14  отсутствует в базе данных
Трек 15  отсутствует в базе данных
Трек 16  отсутствует в базе данных
Трек 17  отсутствует в базе данных
Трек 18  отсутствует в базе данных
Трек 19  отсутствует в базе данных
Трек 20  отсутствует в базе данных
Ни одного трека нет в базе AccurateRip
Конец отчёта

содержание индексной карты *cue

REM GENRE Retro/Pop
REM DATE 2011
REM DISCID 1D10CF14
REM COMMENT "ExactAudioCopy v1.0b2"
PERFORMER "Песни композитора Вячеслава Добрынина"
TITLE "Золотые хиты ВИА [Было время, были песни...] Часть 2"
FILE "Песни композитора Вячеслава Добрынина - Золотые хиты ВИА [Было время, были песни...] Часть 2.flac" WAVE
  TRACK 01 AUDIO
    TITLE "Ни минуты покоя (В. Добрынин - Л. Дербенёв)"
    PERFORMER "ВИА «Весёлые ребята»"
    FLAGS DCP
    INDEX 01 00:00:00
  TRACK 02 AUDIO
    TITLE "Что такое осень (В. Добрынин - М. Рябинин)"
    PERFORMER "ВИА «Акварели»"
    FLAGS DCP
    INDEX 01 03:44:70
  TRACK 03 AUDIO
    TITLE "Облако на нитке (В. Добрынин - М. Пляцковский)"
    PERFORMER "ВИА «Ариэль»"
    FLAGS DCP
    INDEX 01 07:26:62
  TRACK 04 AUDIO
    TITLE "Школьная любовь (В. Добрынин - М. Пляцковский)"
    PERFORMER "ВИА «Верные друзья»"
    FLAGS DCP
    INDEX 01 10:12:43
  TRACK 05 AUDIO
    TITLE "Я+ты (В. Добрынин - М. Пляцковский)"
    PERFORMER "ВИА «Верные друзья»"
    FLAGS DCP
    INDEX 01 13:54:56
  TRACK 06 AUDIO
    TITLE "Всё наоборот (В. Добрынин - В. Харитонов)"
    PERFORMER "ВИА «Калинка»"
    FLAGS DCP
    INDEX 01 17:24:35
  TRACK 07 AUDIO
    TITLE "Давай уедем к морю (В. Добрынин - И. Кохановский)"
    PERFORMER "ВИА «Здравствуй, песня»"
    FLAGS DCP
    INDEX 01 20:28:59
  TRACK 08 AUDIO
    TITLE "Прогулка (В. Добрынин, В. Кретов - В. Гин)"
    PERFORMER "ВИА «Синяя птица»"
    FLAGS DCP
    INDEX 01 24:19:32
  TRACK 09 AUDIO
    TITLE "Горячая любовь (В. Добрынин - А. Поперечный)"
    PERFORMER "ВИА «ЛАДА»"
    FLAGS DCP
    INDEX 01 27:14:58
  TRACK 10 AUDIO
    TITLE "Дедушка играет на гитаре (В. Добрынин - М. Пляцковский)"
    PERFORMER "ВИА «Молодые голоса»"
    FLAGS DCP
    INDEX 01 29:54:35
  TRACK 11 AUDIO
    TITLE "Разве мы могли подумать (В. Добрынин - М. Пляцковский)"
    PERFORMER "ВИА «Здравствуй, песня»"
    FLAGS DCP
    INDEX 01 33:55:33
  TRACK 12 AUDIO
    TITLE "Где же ты была? (В. Добрынин - Л. Дербенёв)"
    PERFORMER "ВИА «Лейся, песня!"
    FLAGS DCP
    INDEX 01 38:12:71
  TRACK 13 AUDIO
    TITLE "Вот увидишь (В. Добрынин - И. Шаферан)"
    PERFORMER "ВИА «Лейся, песня!"
    FLAGS DCP
    INDEX 01 41:44:45
  TRACK 14 AUDIO
    TITLE "Только я не верю (В. Добрынин - И. Шаферан)"
    PERFORMER "ВИА «Поющие сердца»"
    FLAGS DCP
    INDEX 01 45:33:31
  TRACK 15 AUDIO
    TITLE "Между мною и тобою (В. Добрынин - Л. Дербенёв)"
    PERFORMER "ВИА «Синяя птица»"
    FLAGS DCP
    INDEX 01 49:23:50
  TRACK 16 AUDIO
    TITLE "Я тебя не прощу (В. Добрынин - И. Кохановский)"
    PERFORMER "ВИА «Синяя птица»"
    FLAGS DCP
    INDEX 01 52:49:31
  TRACK 17 AUDIO
    TITLE "Обманщица (В. Добрынин - М. Пляцковский)"
    PERFORMER "ВИА «Поющие сердца»"
    FLAGS DCP
    INDEX 01 57:21:29
  TRACK 18 AUDIO
    TITLE "Просто не верится (В. Добрынин - М. Пляцковский)"
    PERFORMER "ВИА «Самоцветы»"
    FLAGS DCP
    INDEX 01 61:20:62
  TRACK 19 AUDIO
    TITLE "Будьте счастливы (В. Добрынин - М. Рябинин)"
    PERFORMER "ВИА «Самоцветы»"
    FLAGS DCP
    INDEX 01 65:03:12
  TRACK 20 AUDIO
    TITLE "Давайте праздновать любовь (В. Добрынин, В. Кретов - И. Шаферан)"
    PERFORMER "ВИА «Лейся, песня!"
    FLAGS DCP
    INDEX 01 68:03:05

Лог Audiochecker:

AUDIOCHECKER v2.0 beta (build 457) - by Dester - opdester@freemail.hu
~~~~~~~~~~~~~~~~~~~~~~~~~~~~~~~~~~
-=== DO NOT EDIT THIS FILE! ===-
Path: ...\Часть 2 [Было время, были песни...]
1 -=- Песни композитора Вячеслава Добрынина - Золотые хиты ВИА [Было время, были песни...] Часть 2.wav -=- MPEG (90%)
176523124

Часть 3 | 01:15:49

01.ВИА «Самоцветы» - Всё, что в жизни есть у меня (В. Добрынин - Л. Дербенёв) (04:21)
02.ВИА «Земляне» - Прости, Земля (В. Добрынин - Л. Дербенёв) (05:04)
03.ВИА «Земляне» - Взлётная полоса (В. Добрынин - М. Пляцковский) (03:32)
04.ВИА «Лейся, песня! - Родная Земля (В. Добрынин - Л. Дербенёв) (04:29)
05.ВИА «Лейся, песня! - Рыжая метелица (В. Добрынин - М. Пляцковский) (03:41)
06.ВИА «Верасы» - Любишь - не любишь (В. Добрынин - И. Кохановский) (03:23)
07.ВИА «Самоцветы» - Чужая свадьба (В. Добрынин - И. Шаферан) (02:58)
08.ВИА «Синяя птица» - Горько (В. Добрынин - Л. Дербенёв, И. Шаферан) (02:54)
09.ВИА «Синяя птица» - Так вот какая ты (В. Добрынин - Л. Дербенёв) (03:31)
10.ВИА «Красные маки» - Не верь чужим словам (В. Добрынин - Л. Дербенёв) (03:37)
11.ВИА «Красные маки» - Как тебя мне разлюбить (В. Добрынин, В. Кретов - И. Резник) (03:56)
12.ВИА «Красные маки» - Не может быть (В. Добрынин - М. Пляцковский) (05:37)
13.ВИА «Синяя птица» - Ты мне не снишься (В. Добрынин - М. Рябинин) (03:06)
14.ВИА «Здравствуй, песня» - Зачем спешим (В. Добрынин - И. Кохановский) (03:44)
15.ВИА «Лейся, песня! - Этот вечер (В. Добрынин - А. Хайт) (03:59)
16.ВИА «Лейся, песня! - Глаза зелёные (В. Добрынин - В. Гин) (03:34)
17.ВИА «Лейся, песня! - Я так и знал (В. Добрынин - М. Рябинин) (03:27)
18.ВИА «Самоцветы» - Первый день (В. Добрынин - И. Шаферан) (03:26)
19.ВИА «Красные маки» - Если не расстанемся (В. Добрынин - Л. Дербенёв) (04:02)
20.ВИА «Песняры» - Мы песни поём (В. Добрынин - Л. Дербенёв) (03:38)

лог создания рипа

Exact Audio Copy V1.0 beta 2 from 29. April 2011
Отчёт EAC об извлечении, выполненном 26. декабря 2011, 16:50
Песни композитора Вячеслава Добрынина / Золотые хиты ВИА [Было время, были песни...] Часть 3
Дисковод: Optiarc DVD RW AD-7190A   Adapter: 0  ID: 0
Режим чтения                 : Достоверность
Использование точного потока : Да
Отключение кэша аудио        : Да
Использование указателей C2  : Нет
Коррекция смещения при чтении                     : 6
Способность читать области Lead-in и Lead-out     : Нет
Заполнение пропущенных сэмплов тишиной            : Да
Удаление блоков с тишиной в начале и конце        : Нет
При вычислениях CRC использовались нулевые сэмплы : Да
Интерфейс                                         : Встроенный Win32-интерфейс для Win NT/2000
Выходной формат : Внутренние WAV-операции
Формат сэмплов  : 44.100 Гц; 16 бит; стерео
TOC извлечённого CD
     Трек |   Старт  | Длительность | Начальный сектор | Конечный сектор
    ---------------------------------------------------------------------
       1  |  0:00.00 |    4:20.54   |           0      |      19553
       2  |  4:20.54 |    5:03.74   |       19554      |      42352
       3  |  9:24.53 |    3:31.10   |       42353      |      58187
       4  | 12:55.63 |    4:28.21   |       58188      |      78308
       5  | 17:24.09 |    3:40.39   |       78309      |      94847
       6  | 21:04.48 |    3:22.35   |       94848      |     110032
       7  | 24:27.08 |    2:57.39   |      110033      |     123346
       8  | 27:24.47 |    2:53.52   |      123347      |     136373
       9  | 30:18.24 |    3:30.53   |      136374      |     152176
      10  | 33:49.02 |    3:36.47   |      152177      |     168423
      11  | 37:25.49 |    3:55.69   |      168424      |     186117
      12  | 41:21.43 |    5:36.40   |      186118      |     211357
      13  | 46:58.08 |    3:05.16   |      211358      |     225248
      14  | 50:03.24 |    3:43.03   |      225249      |     241976
      15  | 53:46.27 |    3:58.06   |      241977      |     259832
      16  | 57:44.33 |    3:33.18   |      259833      |     275825
      17  | 61:17.51 |    3:26.34   |      275826      |     291309
      18  | 64:44.10 |    3:25.02   |      291310      |     306686
      19  | 68:09.12 |    4:01.02   |      306687      |     324763
      20  | 72:10.14 |    3:37.63   |      324764      |     341101
Характеристики диапазона извлечения и сообщения об ошибках
Выбранный диапазон
     Имя файла E:\КОМПОЗИТОРЫ\ДОБРЫНИН ВЯЧЕСЛАВ © [Дискография]\ДОБРЫНИН ВЯЧЕСЛАВ (c) 2011 [Золотые хиты ВИА] 01-04 Части\Часть 3 [Было время, были песни...]\Песни композитора Вячеслава Добрынина - Золотые хиты ВИА [Было время, были песни...] Часть 3.wav
     Пиковый уровень 98.9 %
     Скорость извлечения 4.2 X
     Качество диапазона 100.0 %
     CRC теста ED313ECB
     CRC копии ED313ECB
     Копирование... OK
Ошибок не произошло
AccurateRip: сводка
Трек  1  отсутствует в базе данных
Трек  2  отсутствует в базе данных
Трек  3  отсутствует в базе данных
Трек  4  отсутствует в базе данных
Трек  5  отсутствует в базе данных
Трек  6  отсутствует в базе данных
Трек  7  отсутствует в базе данных
Трек  8  отсутствует в базе данных
Трек  9  отсутствует в базе данных
Трек 10  отсутствует в базе данных
Трек 11  отсутствует в базе данных
Трек 12  отсутствует в базе данных
Трек 13  отсутствует в базе данных
Трек 14  отсутствует в базе данных
Трек 15  отсутствует в базе данных
Трек 16  отсутствует в базе данных
Трек 17  отсутствует в базе данных
Трек 18  отсутствует в базе данных
Трек 19  отсутствует в базе данных
Трек 20  отсутствует в базе данных
Ни одного трека нет в базе AccurateRip
Конец отчёта

содержание индексной карты *cue

REM GENRE Retro/Pop
REM DATE 2011
REM DISCID 2511C414
REM COMMENT "ExactAudioCopy v1.0b2"
PERFORMER "Песни композитора Вячеслава Добрынина"
TITLE "Золотые хиты ВИА [Было время, были песни...] Часть 3"
FILE "Песни композитора Вячеслава Добрынина - Золотые хиты ВИА [Было время, были песни...] Часть 3.flac" WAVE
  TRACK 01 AUDIO
    TITLE "Всё, что в жизни есть у меня (В. Добрынин - Л. Дербенёв)"
    PERFORMER "ВИА «Самоцветы»"
    FLAGS DCP
    INDEX 01 00:00:00
  TRACK 02 AUDIO
    TITLE "Прости, Земля (В. Добрынин - Л. Дербенёв)"
    PERFORMER "ВИА «Земляне»"
    FLAGS DCP
    INDEX 01 04:20:54
  TRACK 03 AUDIO
    TITLE "Взлётная полоса (В. Добрынин - М. Пляцковский)"
    PERFORMER "ВИА «Земляне»"
    FLAGS DCP
    INDEX 01 09:24:53
  TRACK 04 AUDIO
    TITLE "Родная Земля (В. Добрынин - Л. Дербенёв)"
    PERFORMER "ВИА «Лейся, песня!"
    FLAGS DCP
    INDEX 01 12:55:63
  TRACK 05 AUDIO
    TITLE "Рыжая метелица (В. Добрынин - М. Пляцковский)"
    PERFORMER "ВИА «Лейся, песня!"
    FLAGS DCP
    INDEX 01 17:24:09
  TRACK 06 AUDIO
    TITLE "Любишь - не любишь (В. Добрынин - И. Кохановский)"
    PERFORMER "ВИА «Верасы»"
    FLAGS DCP
    INDEX 01 21:04:48
  TRACK 07 AUDIO
    TITLE "Чужая свадьба (В. Добрынин - И. Шаферан)"
    PERFORMER "ВИА «Самоцветы»"
    FLAGS DCP
    INDEX 01 24:27:08
  TRACK 08 AUDIO
    TITLE "Горько (В. Добрынин - Л. Дербенёв, И. Шаферан)"
    PERFORMER "ВИА «Синяя птица»"
    FLAGS DCP
    INDEX 01 27:24:47
  TRACK 09 AUDIO
    TITLE "Так вот какая ты (В. Добрынин - Л. Дербенёв)"
    PERFORMER "ВИА «Синяя птица»"
    FLAGS DCP
    INDEX 01 30:18:24
  TRACK 10 AUDIO
    TITLE "Не верь чужим словам (В. Добрынин - Л. Дербенёв)"
    PERFORMER "ВИА «Красные маки»"
    FLAGS DCP
    INDEX 01 33:49:02
  TRACK 11 AUDIO
    TITLE "Как тебя мне разлюбить (В. Добрынин, В. Кретов - И. Резник)"
    PERFORMER "ВИА «Красные маки»"
    FLAGS DCP
    INDEX 01 37:25:49
  TRACK 12 AUDIO
    TITLE "Не может быть (В. Добрынин - М. Пляцковский)"
    PERFORMER "ВИА «Красные маки»"
    FLAGS DCP
    INDEX 01 41:21:43
  TRACK 13 AUDIO
    TITLE "Ты мне не снишься (В. Добрынин - М. Рябинин)"
    PERFORMER "ВИА «Синяя птица»"
    FLAGS DCP
    INDEX 01 46:58:08
  TRACK 14 AUDIO
    TITLE "Зачем спешим (В. Добрынин - И. Кохановский)"
    PERFORMER "ВИА «Здравствуй, песня»"
    FLAGS DCP
    INDEX 01 50:03:24
  TRACK 15 AUDIO
    TITLE "Этот вечер (В. Добрынин - А. Хайт)"
    PERFORMER "ВИА «Лейся, песня!"
    FLAGS DCP
    INDEX 01 53:46:27
  TRACK 16 AUDIO
    TITLE "Глаза зелёные (В. Добрынин - В. Гин)"
    PERFORMER "ВИА «Лейся, песня!"
    FLAGS DCP
    INDEX 01 57:44:33
  TRACK 17 AUDIO
    TITLE "Я так и знал (В. Добрынин - М. Рябинин)"
    PERFORMER "ВИА «Лейся, песня!"
    FLAGS DCP
    INDEX 01 61:17:51
  TRACK 18 AUDIO
    TITLE "Первый день (В. Добрынин - И. Шаферан)"
    PERFORMER "ВИА «Самоцветы»"
    FLAGS DCP
    INDEX 01 64:44:10
  TRACK 19 AUDIO
    TITLE "Если не расстанемся (В. Добрынин - Л. Дербенёв)"
    PERFORMER "ВИА «Красные маки»"
    FLAGS DCP
    INDEX 01 68:09:12
  TRACK 20 AUDIO
    TITLE "Мы песни поём (В. Добрынин - Л. Дербенёв)"
    PERFORMER "ВИА «Песняры»"
    FLAGS DCP
    INDEX 01 72:10:14

Лог Audiochecker:

AUDIOCHECKER v2.0 beta (build 457) - by Dester - opdester@freemail.hu
~~~~~~~~~~~~~~~~~~~~~~~~~~~~~~~~~~
-=== DO NOT EDIT THIS FILE! ===-
Path: ...\Часть 3 [Было время, были песни...]
1 -=- Песни композитора Вячеслава Добрынина - Золотые хиты ВИА [Было время, были песни...] Часть 3.wav -=- CDDA (62%)
240065492

Часть 4 | 01:14:57

01.ВИА «Ариэль» - Не забывайте друзей (В. Добрынин - Н. Пляцковская) (04:11)
02.ВИА «Красные маки» - Если у тебя своя дорога (В. Добрынин - Л. Дербенёв) (03:48)
03.ВИА «Красные маки» - Бессоница (В. Добрынин - М. Рябинин) (03:03)
04.ВИА «Надежда» - Раз и навсегда (В. Добрынин - М. Пляцковский) (02:25)
05.ВИА «Весёлые ребята» - Бологое (В. Добрынин - М. Рябинин) (03:45)
06.ВИА «Ариэль» - Холостая жизнь (В. Добрынин - С. Осиашвили) (04:14)
07.ВИА «Весёлые ребята» - Не волнуйтесь, тётя (В. Добрынин - Л. Дербенёв) (04:27)
08.ВИА «Здравствуй, песня» - В нашем дворе (В. Добрынин - Л. Дербенёв) (04:37)
09.ВИА «Пламя» - Причал (В. Добрынин - М. Пляцковский) (02:52)
10.ВИА «Лейся, песня !» - Не могу без тебя (В. Добрынин - С. Островой) (03:44)
11.ВИА «Самоцветы» - Если будем мы вдвоём (Музыка и слова В. Добрынин) (03:33)
12.ВИА «Земляне» - А жизнь идёт (В. Добрынин - Л. Дербенёв) (02:45)
13.ВИА «Весёлые ребята» - Пришла пора (В. Добрынин - Л. Дербенёв) (04:07)
14.ВИА «Красные маки» - Чужая ты (В. Добрынин - М. Пляцковский) (03:49)
15.ВИА «Красные маки» - Скажи мне правду (В. Добрынин - И. Кохановский) (04:22)
16.ВИА «Здравствуй, песня» - Искренность (В. Добрынин - М. Шабров) (04:44)
17.ВИА «Здравствуй, песня» - Светлый парус мечты (В. Добрынин - Л. Дербенёв) (03:54)
18.ВИА «Красные маки» - Было и прошло (В. Добрынин - И. Кохановский) (03:43)
19.ВИА «Лейся, песня !» - Плоская планета (В. Добрынин - Л. Дербенёв) (03:23)
20.ВИА «Здравствуй, песня» - Будь самим собой (В. Добрынин - Л. Дербенёв) (03:39)

лог создания рипа

Exact Audio Copy V1.0 beta 2 from 29. April 2011
Отчёт EAC об извлечении, выполненном 27. декабря 2011, 0:03
Песни композитора Вячеслава Добрынина / Золотые хиты ВИА [Было время, были песни...] Часть 4
Дисковод: Optiarc DVD RW AD-7190A   Adapter: 0  ID: 0
Режим чтения                 : Достоверность
Использование точного потока : Да
Отключение кэша аудио        : Да
Использование указателей C2  : Нет
Коррекция смещения при чтении                     : 6
Способность читать области Lead-in и Lead-out     : Нет
Заполнение пропущенных сэмплов тишиной            : Да
Удаление блоков с тишиной в начале и конце        : Нет
При вычислениях CRC использовались нулевые сэмплы : Да
Интерфейс                                         : Встроенный Win32-интерфейс для Win NT/2000
Выходной формат : Внутренние WAV-операции
Формат сэмплов  : 44.100 Гц; 16 бит; стерео
TOC извлечённого CD
     Трек |   Старт  | Длительность | Начальный сектор | Конечный сектор
    ---------------------------------------------------------------------
       1  |  0:00.00 |    4:10.36   |           0      |      18785
       2  |  4:10.36 |    3:47.69   |       18786      |      35879
       3  |  7:58.30 |    3:02.42   |       35880      |      49571
       4  | 11:00.72 |    2:24.47   |       49572      |      60418
       5  | 13:25.44 |    3:44.47   |       60419      |      77265
       6  | 17:10.16 |    4:13.62   |       77266      |      96302
       7  | 21:24.03 |    4:26.62   |       96303      |     116314
       8  | 25:50.65 |    4:36.42   |      116315      |     137056
       9  | 30:27.32 |    2:51.27   |      137057      |     149908
      10  | 33:18.59 |    3:43.52   |      149909      |     166685
      11  | 37:02.36 |    3:32.55   |      166686      |     182640
      12  | 40:35.16 |    2:44.35   |      182641      |     194975
      13  | 43:19.51 |    4:06.18   |      194976      |     213443
      14  | 47:25.69 |    3:48.11   |      213444      |     230554
      15  | 51:14.05 |    4:21.57   |      230555      |     250186
      16  | 55:35.62 |    4:43.63   |      250187      |     271474
      17  | 60:19.50 |    3:53.32   |      271475      |     288981
      18  | 64:13.07 |    3:42.48   |      288982      |     305679
      19  | 67:55.55 |    3:22.28   |      305680      |     320857
      20  | 71:18.08 |    3:38.09   |      320858      |     337216
Характеристики диапазона извлечения и сообщения об ошибках
Выбранный диапазон
     Имя файла E:\КОМПОЗИТОРЫ\ДОБРЫНИН ВЯЧЕСЛАВ © [Дискография]\ДОБРЫНИН ВЯЧЕСЛАВ (c) 2011 [Золотые хиты ВИА] 01-04 Части\Часть 4 [Было время, были песни...]\Песни композитора Вячеслава Добрынина - Золотые хиты ВИА [Было время, были песни...] Часть 4.wav
     Пиковый уровень 97.7 %
     Скорость извлечения 4.3 X
     Качество диапазона 100.0 %
     CRC теста F33EDDF8
     CRC копии F33EDDF8
     Копирование... OK
Ошибок не произошло
AccurateRip: сводка
Трек  1  отсутствует в базе данных
Трек  2  отсутствует в базе данных
Трек  3  отсутствует в базе данных
Трек  4  отсутствует в базе данных
Трек  5  отсутствует в базе данных
Трек  6  отсутствует в базе данных
Трек  7  отсутствует в базе данных
Трек  8  отсутствует в базе данных
Трек  9  отсутствует в базе данных
Трек 10  отсутствует в базе данных
Трек 11  отсутствует в базе данных
Трек 12  отсутствует в базе данных
Трек 13  отсутствует в базе данных
Трек 14  отсутствует в базе данных
Трек 15  отсутствует в базе данных
Трек 16  отсутствует в базе данных
Трек 17  отсутствует в базе данных
Трек 18  отсутствует в базе данных
Трек 19  отсутствует в базе данных
Трек 20  отсутствует в базе данных
Ни одного трека нет в базе AccurateRip
Конец отчёта

содержание индексной карты *cue

REM GENRE Retro/Pop
REM DATE 2011
REM DISCID 08119014
REM COMMENT "ExactAudioCopy v1.0b2"
PERFORMER "Песни композитора Вячеслава Добрынина"
TITLE "Золотые хиты ВИА [Было время, были песни...] Часть 4"
FILE "Песни композитора Вячеслава Добрынина - Золотые хиты ВИА [Было время, были песни...] Часть 4.flac" WAVE
  TRACK 01 AUDIO
    TITLE "Не забывайте друзей (В. Добрынин - Н. Пляцковская)"
    PERFORMER "ВИА «Ариэль»"
    FLAGS DCP
    INDEX 01 00:00:00
  TRACK 02 AUDIO
    TITLE "Если у тебя своя дорога (В. Добрынин - Л. Дербенёв)"
    PERFORMER "ВИА «Красные маки»"
    FLAGS DCP
    INDEX 01 04:10:36
  TRACK 03 AUDIO
    TITLE "Бессоница (В. Добрынин - М. Рябинин)"
    PERFORMER "ВИА «Красные маки»"
    FLAGS DCP
    INDEX 01 07:58:30
  TRACK 04 AUDIO
    TITLE "Раз и навсегда (В. Добрынин - М. Пляцковский)"
    PERFORMER "ВИА «Надежда»"
    FLAGS DCP
    INDEX 01 11:00:72
  TRACK 05 AUDIO
    TITLE "Бологое (В. Добрынин - М. Рябинин)"
    PERFORMER "ВИА «Весёлые ребята»"
    FLAGS DCP
    INDEX 01 13:25:44
  TRACK 06 AUDIO
    TITLE "Холостая жизнь (В. Добрынин - С. Осиашвили)"
    PERFORMER "ВИА «Ариэль»"
    FLAGS DCP
    INDEX 01 17:10:16
  TRACK 07 AUDIO
    TITLE "Не волнуйтесь, тётя (В. Добрынин - Л. Дербенёв)"
    PERFORMER "ВИА «Весёлые ребята»"
    FLAGS DCP
    INDEX 01 21:24:03
  TRACK 08 AUDIO
    TITLE "В нашем дворе (В. Добрынин - Л. Дербенёв)"
    PERFORMER "ВИА «Здравствуй, песня»"
    FLAGS DCP
    INDEX 01 25:50:65
  TRACK 09 AUDIO
    TITLE "Причал (В. Добрынин - М. Пляцковский)"
    PERFORMER "ВИА «Пламя»"
    FLAGS DCP
    INDEX 01 30:27:32
  TRACK 10 AUDIO
    TITLE "Не могу без тебя (В. Добрынин - С. Островой)"
    PERFORMER "ВИА «Лейся, песня !»"
    FLAGS DCP
    INDEX 01 33:18:59
  TRACK 11 AUDIO
    TITLE "Если будем мы вдвоём (Музыка и слова В. Добрынин)"
    PERFORMER "ВИА «Самоцветы»"
    FLAGS DCP
    INDEX 01 37:02:36
  TRACK 12 AUDIO
    TITLE "А жизнь идёт (В. Добрынин - Л. Дербенёв)"
    PERFORMER "ВИА «Земляне»"
    FLAGS DCP
    INDEX 01 40:35:16
  TRACK 13 AUDIO
    TITLE "Пришла пора (В. Добрынин - Л. Дербенёв)"
    PERFORMER "ВИА «Весёлые ребята»"
    FLAGS DCP
    INDEX 01 43:19:51
  TRACK 14 AUDIO
    TITLE "Чужая ты (В. Добрынин - М. Пляцковский)"
    PERFORMER "ВИА «Красные маки»"
    FLAGS DCP
    INDEX 01 47:25:69
  TRACK 15 AUDIO
    TITLE "Скажи мне правду (В. Добрынин - И. Кохановский)"
    PERFORMER "ВИА «Красные маки»"
    FLAGS DCP
    INDEX 01 51:14:05
  TRACK 16 AUDIO
    TITLE "Искренность (В. Добрынин - М. Шабров)"
    PERFORMER "ВИА «Здравствуй, песня»"
    FLAGS DCP
    INDEX 01 55:35:62
  TRACK 17 AUDIO
    TITLE "Светлый парус мечты (В. Добрынин - Л. Дербенёв)"
    PERFORMER "ВИА «Здравствуй, песня»"
    FLAGS DCP
    INDEX 01 60:19:50
  TRACK 18 AUDIO
    TITLE "Было и прошло (В. Добрынин - И. Кохановский)"
    PERFORMER "ВИА «Красные маки»"
    FLAGS DCP
    INDEX 01 64:13:07
  TRACK 19 AUDIO
    TITLE "Плоская планета (В. Добрынин - Л. Дербенёв)"
    PERFORMER "ВИА «Лейся, песня !»"
    FLAGS DCP
    INDEX 01 67:55:55
  TRACK 20 AUDIO
    TITLE "Будь самим собой (В. Добрынин - Л. Дербенёв)"
    PERFORMER "ВИА «Здравствуй, песня»"
    FLAGS DCP
    INDEX 01 71:18:08

Лог Audiochecker:

AUDIOCHECKER v2.0 beta (build 457) - by Dester - opdester@freemail.hu
~~~~~~~~~~~~~~~~~~~~~~~~~~~~~~~~~~
-=== DO NOT EDIT THIS FILE! ===-
Path: ...\Часть 4 [Было время, были песни...]
1 -=- Песни композитора Вячеслава Добрынина - Золотые хиты ВИА [Было время, были песни...] Часть 4.wav -=- MPEG (93%)
176523204
--Не забываем говорить
[Профиль] [ЛС]

Создавать темы 13-Авг-2015 10:04 (спустя 1 месяц 25 дней)

Топик был перенесен из форума Отечественная в форум Music from other genres
sergej644
 
Показать сообщения:    

Текущее время: Сегодня 11:04

Часовой пояс: GMT



Вы не можете начинать темы
Вы не можете отвечать на сообщения
Вы не можете редактировать свои сообщения
Вы не можете удалять свои сообщения
Вы не можете голосовать в опросах
Вы не можете прикреплять файлы к сообщениям
Вы не можете скачивать файлы