(Hard Rock)Uriah Heep - Three Years With Lawton (2011) [FLAC, (tracks+cue), Lossless]

 
Автор Сообщение

sergej644 ®

Пол:

Стаж: 4 года 11 месяцев

Сообщений: 6043

Откуда: Soviet Union



Награды: Нет

Торрент-статистика

Создавать темы 13-Окт-2014 07:46

[Цитировать]

-Uriah Heep - Three Years With Lawton (2011)-Год: 2011
Жанр: Hard Rock
Продолжительность: 01:15:14
Лейбл: KronStudioLab Int'l
Каталог: KSLCD 011-1701
Кодек: FLAC (tracks+.cue +log)
Битрейт: Lossless
Треклист:
01. The Hanging Tree (3:42)
02. Wise Man (4:43)
03. Do You Know (3:16)
04. Rollin' On (6:22)
05. Sympathy (4:47)
06. Keep On Ridin' (3:45)
07. Roller (4:42)
08. Free 'N' Easy (3:07)
09. Illusion (5:04)
10. Free Me (3:34)
11. Cheat 'N' Lie (4:54)
12. The Dance (4:52)
13. Woman Of The Night (4:07)
14. Falling In Love (2:56)
15. Come Back To Me (4:19)
16. Whad' Ya Say (3:42)
17. Love Or Nothing (3:02)
18. I'm Alive (4:19)

Отчёт ЕАС:

Exact Audio Copy V0.99 prebeta 5 from 4. May 2009
EAC extraction logfile from 26. May 2012, 18:40
Uriah Heep / Three Years With Lawton
Used drive  : HL-DT-STDVDRAM GT10N   Adapter: 1  ID: 0
Read mode               : Secure
Utilize accurate stream : Yes
Defeat audio cache      : Yes
Make use of C2 pointers : No
Read offset correction                      : 102
Overread into Lead-In and Lead-Out          : No
Fill up missing offset samples with silence : Yes
Delete leading and trailing silent blocks   : No
Null samples used in CRC calculations       : Yes
Used interface                              : Native Win32 interface for Win NT & 2000
Gap handling                                : Appended to previous track
Used output format : Internal WAV Routines
Sample format      : 44.100 Hz; 16 Bit; Stereo
TOC of the extracted CD
     Track |   Start  |  Length  | Start sector | End sector
    ---------------------------------------------------------
        1  |  0:00.00 |  3:41.66 |         0    |    16640
        2  |  3:41.66 |  4:43.35 |     16641    |    37900
        3  |  8:25.26 |  3:16.04 |     37901    |    52604
        4  | 11:41.30 |  6:22.37 |     52605    |    81291
        5  | 18:03.67 |  4:47.25 |     81292    |   102841
        6  | 22:51.17 |  3:44.41 |    102842    |   119682
        7  | 26:35.58 |  4:42.05 |    119683    |   140837
        8  | 31:17.63 |  3:06.63 |    140838    |   154850
        9  | 34:24.51 |  5:03.55 |    154851    |   177630
       10  | 39:28.31 |  3:34.11 |    177631    |   193691
       11  | 43:02.42 |  4:54.28 |    193692    |   215769
       12  | 47:56.70 |  4:52.35 |    215770    |   237704
       13  | 52:49.30 |  4:06.62 |    237705    |   256216
       14  | 56:56.17 |  2:55.50 |    256217    |   269391
       15  | 59:51.67 |  4:18.73 |    269392    |   288814
       16  | 64:10.65 |  3:42.05 |    288815    |   305469
       17  | 67:52.70 |  3:02.35 |    305470    |   319154
       18  | 70:55.30 |  4:18.51 |    319155    |   338555
Track  1
     Filename C:\REL\Uriah Heep - Three Years With Lawton (2011)\01 - The Hanging Tree.wav
     Pre-gap length  0:00:02.00
     Peak level 96.8 %
     Track quality 100.0 %
     Test CRC C5B486A2
     Copy CRC C5B486A2
     Copy OK
Track  2
     Filename C:\REL\Uriah Heep - Three Years With Lawton (2011)\02 - Wise Man.wav
     Pre-gap length  0:00:00.44
     Peak level 97.4 %
     Track quality 100.0 %
     Test CRC 2C27AB02
     Copy CRC 2C27AB02
     Copy OK
Track  3
     Filename C:\REL\Uriah Heep - Three Years With Lawton (2011)\03 - Do You Know.wav
     Pre-gap length  0:00:00.49
     Peak level 96.5 %
     Track quality 100.0 %
     Test CRC 7B55B332
     Copy CRC 7B55B332
     Copy OK
Track  4
     Filename C:\REL\Uriah Heep - Three Years With Lawton (2011)\04 - Rollin' On.wav
     Pre-gap length  0:00:00.43
     Peak level 98.5 %
     Track quality 100.0 %
     Test CRC 3E84B45A
     Copy CRC 3E84B45A
     Copy OK
Track  5
     Filename C:\REL\Uriah Heep - Three Years With Lawton (2011)\05 - Sympathy.wav
     Pre-gap length  0:00:00.52
     Peak level 98.5 %
     Track quality 100.0 %
     Test CRC 6203A8B2
     Copy CRC 6203A8B2
     Copy OK
Track  6
     Filename C:\REL\Uriah Heep - Three Years With Lawton (2011)\06 - Keep On Ridin'.wav
     Pre-gap length  0:00:00.49
     Peak level 98.1 %
     Track quality 100.0 %
     Test CRC 243760A1
     Copy CRC 243760A1
     Copy OK
Track  7
     Filename C:\REL\Uriah Heep - Three Years With Lawton (2011)\07 - Roller.wav
     Pre-gap length  0:00:00.40
     Peak level 96.4 %
     Track quality 100.0 %
     Test CRC 77B0DC03
     Copy CRC 77B0DC03
     Copy OK
Track  8
     Filename C:\REL\Uriah Heep - Three Years With Lawton (2011)\08 - Free 'N' Easy.wav
     Pre-gap length  0:00:00.46
     Peak level 97.4 %
     Track quality 100.0 %
     Test CRC A8F5A50C
     Copy CRC A8F5A50C
     Copy OK
Track  9
     Filename C:\REL\Uriah Heep - Three Years With Lawton (2011)\09 - Illusion.wav
     Pre-gap length  0:00:00.41
     Peak level 96.4 %
     Track quality 99.9 %
     Test CRC 4379BDA3
     Copy CRC 4379BDA3
     Copy OK
Track 10
     Filename C:\REL\Uriah Heep - Three Years With Lawton (2011)\10 - Free Me.wav
     Pre-gap length  0:00:00.44
     Peak level 97.8 %
     Track quality 100.0 %
     Test CRC 6D3A15E9
     Copy CRC 6D3A15E9
     Copy OK
Track 11
     Filename C:\REL\Uriah Heep - Three Years With Lawton (2011)\11 - Cheat 'N' Lie.wav
     Pre-gap length  0:00:00.42
     Peak level 97.9 %
     Track quality 100.0 %
     Test CRC 4DA6B17A
     Copy CRC 4DA6B17A
     Copy OK
Track 12
     Filename C:\REL\Uriah Heep - Three Years With Lawton (2011)\12 - The Dance.wav
     Pre-gap length  0:00:00.45
     Peak level 96.6 %
     Track quality 100.0 %
     Test CRC B24D02DE
     Copy CRC B24D02DE
     Copy OK
Track 13
     Filename C:\REL\Uriah Heep - Three Years With Lawton (2011)\13 - Woman Of The Night.wav
     Pre-gap length  0:00:00.43
     Peak level 96.0 %
     Track quality 100.0 %
     Test CRC 381D2448
     Copy CRC 381D2448
     Copy OK
Track 14
     Filename C:\REL\Uriah Heep - Three Years With Lawton (2011)\14 - Falling In Love.wav
     Pre-gap length  0:00:00.46
     Peak level 97.8 %
     Track quality 99.9 %
     Test CRC BCC120A3
     Copy CRC BCC120A3
     Copy OK
Track 15
     Filename C:\REL\Uriah Heep - Three Years With Lawton (2011)\15 - Come Back To Me.wav
     Pre-gap length  0:00:00.43
     Peak level 96.6 %
     Track quality 100.0 %
     Test CRC 134C7853
     Copy CRC 134C7853
     Copy OK
Track 16
     Filename C:\REL\Uriah Heep - Three Years With Lawton (2011)\16 - Whad' Ya Say.wav
     Pre-gap length  0:00:00.43
     Peak level 96.4 %
     Track quality 100.0 %
     Test CRC 13421FE1
     Copy CRC 13421FE1
     Copy OK
Track 17
     Filename C:\REL\Uriah Heep - Three Years With Lawton (2011)\17 - Love Or Nothing.wav
     Pre-gap length  0:00:00.42
     Peak level 95.6 %
     Track quality 100.0 %
     Test CRC 4993108B
     Copy CRC 4993108B
     Copy OK
Track 18
     Filename C:\REL\Uriah Heep - Three Years With Lawton (2011)\18 - I'm Alive.wav
     Pre-gap length  0:00:00.43
     Peak level 95.4 %
     Track quality 100.0 %
     Test CRC F5C56E2C
     Copy CRC F5C56E2C
     Copy OK
No errors occurred
End of status report

Отчёт auCDtect Task manager:

-----------------------
DON'T MODIFY THIS FILE
-----------------------
PERFORMER: auCDtect Task Manager, ver. 1.5.1RC6 build 1.5.1.7
Copyright (c) 2008-2010 y-soft. All rights reserved
http://y-soft.org
ANALYZER: auCDtect: CD records authenticity detector, version 0.8.2
Copyright (c) 2004 Oleg Berngardt. All rights reserved.
Copyright (c) 2004 Alexander Djourik. All rights reserved.
FILE: 18 - I'm Alive.flac
  Size: 33077710 Hash: 87358A7B26C9C4C538F7EEA6AF9370E3 Accuracy: -m8
  Conclusion: CDDA 100%
  Signature: 4287113F3965F8F05449576AC464F196E4331AFE
FILE: 17 - Love Or Nothing.flac
  Size: 21352026 Hash: E0CA871230155BF1965FBC86EE385538 Accuracy: -m8
  Conclusion: CDDA 100%
  Signature: A666AFEB8224261782A6ED447E3376306500908D
FILE: 16 - Whad' Ya Say.flac
  Size: 27790984 Hash: 5AA8244FB021DF2586A8B64DD5BE45B1 Accuracy: -m8
  Conclusion: CDDA 100%
  Signature: 87F4CF7E6E9440BDE137DF30913A8DE014DA3BD8
FILE: 15 - Come Back To Me.flac
  Size: 28778616 Hash: 50395B12653C6882C358577D53305A49 Accuracy: -m8
  Conclusion: CDDA 100%
  Signature: E8E0D9D76CB698E8DB8EF96D89547C084115CEBD
FILE: 14 - Falling In Love.flac
  Size: 22003041 Hash: B3480A640B88ACC54EC6A9C1E4EE534F Accuracy: -m8
  Conclusion: CDDA 100%
  Signature: 2E6C0DFA0E13906C408ADA1B4D9EBC5BBB58CFBD
FILE: 13 - Woman Of The Night.flac
  Size: 30338337 Hash: F6AB6DC73D27B80A8E26FD09929E1253 Accuracy: -m8
  Conclusion: CDDA 100%
  Signature: A2BB85C6C06FA054488A81789E23D918A55504D6
FILE: 12 - The Dance.flac
  Size: 34595156 Hash: FFF8ECE12F777758FC3378027F834157 Accuracy: -m8
  Conclusion: CDDA 100%
  Signature: DDBE931D99E56D9B948045EF20524D2FFE696DFC
FILE: 11 - Cheat 'N' Lie.flac
  Size: 35719663 Hash: 44D095EBC9E65649417535D183DC5EA2 Accuracy: -m8
  Conclusion: CDDA 100%
  Signature: DA2CF4499CA55D87BA353A959B9CDBF1BC1EFC21
FILE: 10 - Free Me.flac
  Size: 24570299 Hash: D7EAF8318115E1CA7151E8CCF7C3D787 Accuracy: -m8
  Conclusion: CDDA 100%
  Signature: 2C77B6E139CDBB647FB7053984F726DA6CD5B323
FILE: 09 - Illusion.flac
  Size: 34610305 Hash: 4CAE4D34468DD5FB848AF73CE00FBE72 Accuracy: -m8
  Conclusion: CDDA 100%
  Signature: 216E7784D868A7415CBFFF5A1954B95E6DE324BA
FILE: 08 - Free 'N' Easy.flac
  Size: 24217674 Hash: 133DCDFA4608EEBD2D362AA7A80EF5A0 Accuracy: -m8
  Conclusion: CDDA 100%
  Signature: C45A359384196EEA475E02CE061C871B1748AB0F
FILE: 07 - Roller.flac
  Size: 35107608 Hash: 8E20D0AF6D755F44ED50D23AAB467AF3 Accuracy: -m8
  Conclusion: CDDA 100%
  Signature: 8041B345A03F4A04576ECE691236DB4F6FA3E767
FILE: 06 - Keep On Ridin'.flac
  Size: 27733236 Hash: E514929CE6B0923ECBD209DAD7840152 Accuracy: -m8
  Conclusion: CDDA 100%
  Signature: 694A96CA4B22A7AEB2F4DBF08F1BCDD94F2823E0
FILE: 05 - Sympathy.flac
  Size: 33504865 Hash: 10176330A9EE7E08358A3AC3F92AE559 Accuracy: -m8
  Conclusion: CDDA 100%
  Signature: A037FFF3C6C59496E77F68FA62102F46F087157E
FILE: 04 - Rollin' On.flac
  Size: 40682983 Hash: CF3FBA0F9F2EC006273DB80718AA0577 Accuracy: -m8
  Conclusion: CDDA 100%
  Signature: 435222C20ED0716555AB759F8F44D50FE56E9644
FILE: 03 - Do You Know.flac
  Size: 23561009 Hash: 90ADC4279CB36E5486E24E9DFB59CCA0 Accuracy: -m8
  Conclusion: CDDA 99%
  Signature: E2A83DDE635CE35A4E89CF5948D78FBB5100E23A
FILE: 02 - Wise Man.flac
  Size: 30214203 Hash: 6ACE908A825789CB70C576E4A06C499E Accuracy: -m8
  Conclusion: CDDA 100%
  Signature: 66AAB5C54F76D0F4464F2F6F50B38D0392E53C10
FILE: 01 - The Hanging Tree.flac
  Size: 25595241 Hash: 675E0368C075A8D1A01C811791EF6C2E Accuracy: -m8
  Conclusion: CDDA 100%
  Signature: C0F830BD7E9C7D14A133293B86C233F253B48727
Время раздачи: 09:00 - 24:00-
[Профиль] [ЛС]
Показать сообщения:    

Текущее время: Сегодня 10:50

Часовой пояс: GMT



Вы не можете начинать темы
Вы не можете отвечать на сообщения
Вы не можете редактировать свои сообщения
Вы не можете удалять свои сообщения
Вы не можете голосовать в опросах
Вы не можете прикреплять файлы к сообщениям
Вы не можете скачивать файлы