(Rock,Hard Rock,Progressive) Uriah Heep - Outsider - 2014, FLAC (image + .cue), lossless

 
Автор Сообщение

sergej644 ®

Пол:

Стаж: 4 года 11 месяцев

Сообщений: 6041

Откуда: Soviet Union



Награды: Нет

Торрент-статистика

Создавать темы 01-Авг-2014 19:09

[Цитировать]

--Uriah Heep - Outsider
Страна: UK
Жанр: Rock,Hard Rock,Progressive
Год выпуска: 2014
Издатель (лейбл): Frontiers Records (Universal)
Номер по каталогу: B00JKJRGM2
Формат: FLAC (image + .cue)
Битрейт аудио: lossless
Продолжительность: 00:49:05
- -

треклист


01. Speed Of Sound (04:53)
02. One Minute (04:54)
03. The Law (05:24)
04. The Outsider (03:22)
05. Rock The Foundation (04:07)
06. Is Anybody Gonna Help Me? (05:07)
07. Looking At You (03:35)
08. Can't Take That Away (04:54)
09. Jesse (03:59)
10. Kiss The Rainbow (05:12)
11. Say Goodbye (03:34)

лог создания рипа

Exact Audio Copy V1.0 beta 3 from 29. August 2011
EAC extraction logfile from 6. June 2014, 16:40
Uriah Heep / Outsider
Used drive  : HL-DT-STDVDRAM GU40N   Adapter: 0  ID: 1
Read mode               : Secure
Utilize accurate stream : Yes
Defeat audio cache      : Yes
Make use of C2 pointers : No
Read offset correction                      : 103
Overread into Lead-In and Lead-Out          : No
Fill up missing offset samples with silence : Yes
Delete leading and trailing silent blocks   : No
Null samples used in CRC calculations       : Yes
Used interface                              : Installed external ASPI interface
Used output format              : User Defined Encoder
Selected bitrate                : 128 kBit/s
Quality                         : High
Add ID3 tag                     : No
Command line compressor         : C:\Program Files (x86)\AudioConverter\AudioConverter.exe
Additional command line options :  -V -8 -T "Date=%year%" -T "Genre=%genre%" %source%
TOC of the extracted CD
     Track |   Start  |  Length  | Start sector | End sector
    ---------------------------------------------------------
        1  |  0:00.00 |  4:53.63 |         0    |    22037
        2  |  4:53.63 |  4:54.12 |     22038    |    44099
        3  |  9:48.00 |  5:24.32 |     44100    |    68431
        4  | 15:12.32 |  3:22.17 |     68432    |    83598
        5  | 18:34.49 |  4:07.31 |     83599    |   102154
        6  | 22:42.05 |  5:07.36 |    102155    |   125215
        7  | 27:49.41 |  3:35.44 |    125216    |   141384
        8  | 31:25.10 |  4:54.59 |    141385    |   163493
        9  | 36:19.69 |  3:59.34 |    163494    |   181452
       10  | 40:19.28 |  5:12.18 |    181453    |   204870
       11  | 45:31.46 |  3:34.13 |    204871    |   220933
Range status and errors
Selected range
     Filename C:\Users\workutagin\Desktop\Neuer Ordner\Uriah Heep - Outsider.wav
     Peak level 98.8 %
     Extraction speed 2.0 X
     Range quality 100.0 %
     Test CRC 5C33626C
     Copy CRC 5C33626C
     Copy OK
No errors occurred
AccurateRip summary
Track  1  not present in database
Track  2  not present in database
Track  3  not present in database
Track  4  not present in database
Track  5  not present in database
Track  6  not present in database
Track  7  not present in database
Track  8  not present in database
Track  9  not present in database
Track 10  not present in database
Track 11  not present in database
None of the tracks are present in the AccurateRip database
End of status report

содержание индексной карты *cue

REM GENRE "Hard Rock"
REM DATE 2014
REM DISCID 900B810B
REM COMMENT "ExactAudioCopy v1.0b3"
PERFORMER "Uriah Heep"
TITLE "Outsider"
FILE "Uriah Heep - Outsider.flac" WAVE
  TRACK 01 AUDIO
    TITLE "Speed Of Sound"
    PERFORMER "Uriah Heep"
    INDEX 01 00:00:00
  TRACK 02 AUDIO
    TITLE "One Minute"
    PERFORMER "Uriah Heep"
    INDEX 01 04:53:63
  TRACK 03 AUDIO
    TITLE "The Law"
    PERFORMER "Uriah Heep"
    INDEX 01 09:48:00
  TRACK 04 AUDIO
    TITLE "The Outsider"
    PERFORMER "Uriah Heep"
    INDEX 01 15:12:32
  TRACK 05 AUDIO
    TITLE "Rock The Foundation"
    PERFORMER "Uriah Heep"
    INDEX 01 18:34:49
  TRACK 06 AUDIO
    TITLE "Is Anybody Gonna Help Me?"
    PERFORMER "Uriah Heep"
    INDEX 01 22:42:05
  TRACK 07 AUDIO
    TITLE "Looking At You"
    PERFORMER "Uriah Heep"
    INDEX 01 27:49:41
  TRACK 08 AUDIO
    TITLE "Can't Take That Away"
    PERFORMER "Uriah Heep"
    INDEX 01 31:25:10
  TRACK 09 AUDIO
    TITLE "Jesse"
    PERFORMER "Uriah Heep"
    INDEX 01 36:19:69
  TRACK 10 AUDIO
    TITLE "Kiss The Rainbow"
    PERFORMER "Uriah Heep"
    INDEX 01 40:19:28
  TRACK 11 AUDIO
    TITLE "Say Goodbye"
    PERFORMER "Uriah Heep"
    INDEX 01 45:31:46
[Профиль] [ЛС]
Показать сообщения:    

Текущее время: Сегодня 12:51

Часовой пояс: GMT



Вы не можете начинать темы
Вы не можете отвечать на сообщения
Вы не можете редактировать свои сообщения
Вы не можете удалять свои сообщения
Вы не можете голосовать в опросах
Вы не можете прикреплять файлы к сообщениям
Вы не можете скачивать файлы