Uriah Heep - Live At Koko [2014 г.] (Progressive rock, Hard rock) [BDRip, 1080p]

 
Автор Сообщение

sergej644 ®

Пол:

Стаж: 4 года 11 месяцев

Сообщений: 6046

Откуда: Soviet Union



Награды: Нет

Торрент-статистика

Создавать темы 07-Мар-2015 10:53

[Цитировать]

-Uriah Heep - Live At Koko--
Год выпуска: 2014 г.
Страна: UK
Жанр: Progressive rock, Hard rock
Студия: Frontiers Records
Продолжительность: 1:46:18-
Uriah Heep, величайшая группа двадцатого столетия наравне с Black Sabbath, Deep Purple и Led Zeppelin.Продано по всему миру более 40 миллионов альбомов с момента их создания в 1969 г. В их раннем исполнении были побиты все рекорды продажи золотых и платиновых альбомов.Миллионы поклонников во всем мире, Uriah Heep может по праву претендовать на одно из величайших британских прогрессивных тяжелых рок-групп как 20 и 21 веков. Этот живой спектакль был записан в Лондоне Коко.-Качество видео: BDRip
Контейнер: MKV
Стандарт разрешения: 1080p
Видео кодек: H.264
Аудио кодек: AC3
Видео: 1920x1080, 8372 kbps, 29,970 fps, 0.135 bit/pic
Аудио: AC-3, 2 Ch, 448 kbps, 16 bit
-

Трэклист

01. Against The Odds
02. Overload
03. Traveller In Time
04. Sunrise
05. Stealin
06. Im Ready
07. Cant Take That Away
08. Between Two Worlds
09. One Minute
10. Nail On The Head
11. Into The Wild
12. Gypsy
13. Look At Yourself
14. Box Wah Box
15. July Morning
16. Lady In Black
17. Free n Easy
18. Easy Livin

Media Info

Общее
Уникальный идентификатор                 : 221347114494320572610523550305080139853 (0xA685E751BA913DE9849FECAC3E21604D)
Полное имя                               : D:\Torrent files\Uriah.Heep.Live.At.Koko.2015.1080p.mkv
Формат                                   : Matroska
Версия формата                           : Version 4 / Version 2
Размер файла                             : 6,55 Гбайт
Продолжительность                        : 1 ч. 46 м.
Общий поток                              : 8823 Кбит/сек
Дата кодирования                         : UTC 2015-02-26 07:23:41
Программа кодирования                    : mkvmerge v7.1.0 ('Good Love') 64bit built on Jul 27 2014 13:06:55
Библиотека кодирования                   : libebml v1.3.0 + libmatroska v1.4.1
DURATION                                 : 01:46:18.240000000
NUMBER_OF_FRAMES                         : 199320
NUMBER_OF_BYTES                          : 357181440
_STATISTICS_WRITING_APP                  : mkvmerge v7.1.0 ('Good Love') 64bit built on Jul 27 2014 13:06:55
_STATISTICS_WRITING_DATE_UTC             : 2015-02-26 07:23:41
_STATISTICS_TAGS                         : BPS DURATION NUMBER_OF_FRAMES NUMBER_OF_BYTES
Видео
Идентификатор                            : 1
Формат                                   : AVC
Формат/Информация                        : Advanced Video Codec
Профиль формата                          : High@L4.1
Параметр CABAC формата                   : Да
Параметр ReFrames формата                : 4 кадра
Идентификатор кодека                     : V_MPEG4/ISO/AVC
Продолжительность                        : 1 ч. 46 м.
Битрейт                                  : 8372 Кбит/сек
Ширина                                   : 1920 пикселей
Высота                                   : 1080 пикселей
Соотношение сторон                       : 16:9
Режим частоты кадров                     : Постоянный
Частота кадров                           : 29,970 кадров/сек
Цветовое пространство                    : YUV
Субдискретизация насыщенности            : 4:2:0
Битовая глубина                          : 8 бит
Тип развёртки                            : Прогрессивная
Бит/(Пиксели*Кадры)                      : 0.135
Размер потока                            : 6,09 Гбайт (93%)
Библиотека кодирования                   : x264 core 142 r2491 24e4fed
Настройки программы                      : cabac=1 / ref=4 / deblock=1:0:0 / analyse=0x3:0x113 / me=umh / subme=8 / psy=1 / psy_rd=1.00:0.00 / mixed_ref=1 / me_range=16 / chroma_me=1 / trellis=1 / 8x8dct=1 / cqm=0 / deadzone=21,11 / fast_pskip=0 / chroma_qp_offset=-2 / threads=9 / lookahead_threads=1 / sliced_threads=0 / nr=0 / decimate=1 / interlaced=0 / bluray_compat=0 / constrained_intra=0 / bframes=3 / b_pyramid=2 / b_adapt=2 / b_bias=0 / direct=3 / weightb=1 / open_gop=0 / weightp=2 / keyint=250 / keyint_min=25 / scenecut=40 / intra_refresh=0 / rc_lookahead=50 / rc=2pass / mbtree=1 / bitrate=8372 / ratetol=1.0 / qcomp=0.60 / qpmin=0 / qpmax=69 / qpstep=4 / cplxblur=20.0 / qblur=0.5 / ip_ratio=1.40 / aq=1:1.00
Язык                                     : English
Default                                  : Да
Forced                                   : Нет
DURATION                                 : 01:46:18.205000000
NUMBER_OF_FRAMES                         : 191155
NUMBER_OF_BYTES                          : 6675283811
_STATISTICS_WRITING_APP                  : mkvmerge v7.1.0 ('Good Love') 64bit built on Jul 27 2014 13:06:55
_STATISTICS_WRITING_DATE_UTC             : 2015-02-26 07:23:41
_STATISTICS_TAGS                         : BPS DURATION NUMBER_OF_FRAMES NUMBER_OF_BYTES
Аудио
Идентификатор                            : 2
Формат                                   : AC-3
Формат/Информация                        : Audio Coding 3
Расширение режима                        : CM (complete main)
Параметр Endianness формата              : Big
Идентификатор кодека                     : A_AC3
Продолжительность                        : 1 ч. 46 м.
Вид битрейта                             : Постоянный
Битрейт                                  : 448 Кбит/сек
Каналы                                   : 2 канала
Расположение каналов                     : Front: L R
Частота                                  : 48,0 КГц
Битовая глубина                          : 16 бит
Метод сжатия                             : С потерями
Размер потока                            : 341 Мбайт (5%)
Язык                                     : English
Default                                  : Да
Forced                                   : Нет
Меню
00:00:00.000                             : en:00:00:00.000
00:03:00.113                             : en:00:03:00.113
00:08:46.926                             : en:00:08:46.926
00:15:54.787                             : en:00:15:54.787
00:19:14.387                             : en:00:19:14.387
00:24:25.698                             : en:00:24:25.698
00:30:52.884                             : en:00:30:52.884
00:35:15.614                             : en:00:35:15.614
00:42:22.340                             : en:00:42:22.340
00:47:29.880                             : en:00:47:29.880
00:52:44.228                             : en:00:52:44.228
00:57:47.998                             : en:00:57:47.998
01:03:23.600                             : en:01:03:23.600
01:08:03.212                             : en:01:08:03.212
01:12:26.843                             : en:01:12:26.843
01:16:19.708                             : en:01:16:19.708
01:29:25.327                             : en:01:29:25.327
01:38:32.440                             : en:01:38:32.440
01:41:41.696                             : en:01:41:41.696

Скриншоты

--
[Профиль] [ЛС]
Показать сообщения:    

Текущее время: Сегодня 19:31

Часовой пояс: GMT



Вы не можете начинать темы
Вы не можете отвечать на сообщения
Вы не можете редактировать свои сообщения
Вы не можете удалять свои сообщения
Вы не можете голосовать в опросах
Вы не можете прикреплять файлы к сообщениям
Вы не можете скачивать файлы