(Rock)Uriah Heep - Demons and Wizards - 1972(2004) [Ape, image +.cue, lossless]

 
Автор Сообщение

sergej644 ®

Пол:

Стаж: 4 года 11 месяцев

Сообщений: 6038

Откуда: Soviet Union



Награды: Нет

Торрент-статистика

Создавать темы 13-Авг-2016 15:40

[Цитировать]

---
Год издания: 1972 / 2004
Страна: UK
Жанр: Rock
Продолжительность: 01:06:03-Лейбл издания: Sanctuary Records
Страна-выпуска диска: EU
Номер по каталогу: 5050749205124-Формат: Ape
Битрейт аудио: Lossless
Тип рипа: image +.cue
Наличие сканов в содержимом раздачи: да
-

Трэклист


01. The Wizard (3:01)
02. Traveller in Time (3:25)
03. Easy Livin' (2:38)
04. Poet's Justice (4:16)
05. Circle of Hands (6:26)
06. Rainbow Demon (4:25)
07. All My Life (2:44)
08. Paradise (5:11)
09. The Spell (7:32)
Bonus tracks:
10. Why (10:35)
11. Rainbow Demon(single edit) (3:36)
12. Proud Words on a Dusty Shelf (2:52)
13. Home Again to You (5:36)
14. Green Eye (3:47)
-

Лог создания рипа

Exact Audio Copy V0.99 prebeta 5 from 4. May 2009
EAC extraction logfile from 11. August 2016, 8:05
Uriah Heep / Demons and Wizards
Used drive  : ASUS    DRW-20B1ST   Adapter: 3  ID: 0
Read mode               : Secure
Utilize accurate stream : Yes
Defeat audio cache      : Yes
Make use of C2 pointers : No
Read offset correction                      : 6
Overread into Lead-In and Lead-Out          : No
Fill up missing offset samples with silence : Yes
Delete leading and trailing silent blocks   : No
Null samples used in CRC calculations       : Yes
Used interface                              : Native Win32 interface for Win NT & 2000
Used output format              : Monkey's Audio Lossless Encoder
Selected bitrate                : High Lossless Compression
Quality                         : High
Add ID3 tag                     : No
Command line compressor         : C:\Program Files (x86)\Monkey's Audio\MAC.exe
Additional command line options :  %source% %dest% -c3000
Use compression offset          : 0
TOC of the extracted CD
     Track |   Start  |  Length  | Start sector | End sector
    ---------------------------------------------------------
        1  |  0:00.00 |  3:00.68 |         0    |    13567
        2  |  3:00.68 |  3:25.19 |     13568    |    28961
        3  |  6:26.12 |  2:37.46 |     28962    |    40782
        4  |  9:03.58 |  4:15.44 |     40783    |    59951
        5  | 13:19.27 |  6:25.57 |     59952    |    88883
        6  | 19:45.09 |  4:25.07 |     88884    |   108765
        7  | 24:10.16 |  2:44.11 |    108766    |   121076
        8  | 26:54.27 |  5:10.42 |    121077    |   144368
        9  | 32:04.69 |  7:31.44 |    144369    |   178237
       10  | 39:36.38 | 10:34.61 |    178238    |   225848
       11  | 50:11.24 |  3:36.35 |    225849    |   242083
       12  | 53:47.59 |  2:51.74 |    242084    |   254982
       13  | 56:39.58 |  5:36.33 |    254983    |   280215
       14  | 62:16.16 |  3:46.57 |    280216    |   297222
Range status and errors
Selected range
     Filename E:\Uriah Heep - Demons and Wizards.wav
     Peak level 99.4 %
     Range quality 100.0 %
     Copy CRC 45A4B855
     Copy OK
No errors occurred
AccurateRip summary
Track  1  accurately ripped (confidence 30)  [2E769011]
Track  2  accurately ripped (confidence 30)  [7D3E4902]
Track  3  accurately ripped (confidence 30)  [CBA4982E]
Track  4  accurately ripped (confidence 30)  [679952F7]
Track  5  accurately ripped (confidence 30)  [D8B2CED7]
Track  6  accurately ripped (confidence 30)  [CE2AE043]
Track  7  accurately ripped (confidence 30)  [2B844A5E]
Track  8  accurately ripped (confidence 30)  [5EDE183F]
Track  9  accurately ripped (confidence 30)  [6A8F7EFA]
Track 10  accurately ripped (confidence 30)  [8B93D2D6]
Track 11  accurately ripped (confidence 28)  [B3C5B518]
Track 12  accurately ripped (confidence 29)  [07EEFCEE]
Track 13  accurately ripped (confidence 30)  [BDEDBD37]
Track 14  accurately ripped (confidence 29)  [73EEC846]
All tracks accurately ripped
End of status report

Индексная карта (non-compilant .cue)

REM GENRE "Hard Rock"
REM DATE 1972
REM DISCID BC0F7A0E
REM COMMENT "ExactAudioCopy v0.99pb5"
PERFORMER "Uriah Heep"
TITLE "Demons and Wizards"
FILE "Uriah Heep - Demons and Wizards.ape" WAVE
  TRACK 01 AUDIO
    TITLE "The Wizard"
    PERFORMER "Uriah Heep"
    INDEX 01 00:00:00
  TRACK 02 AUDIO
    TITLE "Traveller in Time"
    PERFORMER "Uriah Heep"
    INDEX 00 02:59:26
    INDEX 01 03:00:68
  TRACK 03 AUDIO
    TITLE "Easy Livin'"
    PERFORMER "Uriah Heep"
    INDEX 00 06:24:42
    INDEX 01 06:26:12
  TRACK 04 AUDIO
    TITLE "Poet's Justice"
    PERFORMER "Uriah Heep"
    INDEX 00 09:01:10
    INDEX 01 09:03:58
  TRACK 05 AUDIO
    TITLE "Circle of Hands"
    PERFORMER "Uriah Heep"
    INDEX 00 13:17:41
    INDEX 01 13:19:27
  TRACK 06 AUDIO
    TITLE "Rainbow Demon"
    PERFORMER "Uriah Heep"
    INDEX 00 19:42:54
    INDEX 01 19:45:09
  TRACK 07 AUDIO
    TITLE "All My Life"
    PERFORMER "Uriah Heep"
    INDEX 00 24:09:01
    INDEX 01 24:10:16
  TRACK 08 AUDIO
    TITLE Paradise
    PERFORMER "Uriah Heep"
    INDEX 00 26:52:08
    INDEX 01 26:54:27
  TRACK 09 AUDIO
    TITLE "The Spell"
    PERFORMER "Uriah Heep"
    INDEX 01 32:04:69
  TRACK 10 AUDIO
    TITLE Why
    PERFORMER "Uriah Heep"
    INDEX 00 39:33:40
    INDEX 01 39:36:38
  TRACK 11 AUDIO
    TITLE "Rainbow Demon(single edit)"
    PERFORMER "Uriah Heep"
    INDEX 00 50:06:51
    INDEX 01 50:11:24
  TRACK 12 AUDIO
    TITLE "Proud Words on a Dusty Shelf"
    PERFORMER "Uriah Heep"
    INDEX 00 53:45:48
    INDEX 01 53:47:59
  TRACK 13 AUDIO
    TITLE "Home Again to You"
    PERFORMER "Uriah Heep"
    INDEX 00 56:36:34
    INDEX 01 56:39:58
  TRACK 14 AUDIO
    TITLE "Green Eye"
    PERFORMER "Uriah Heep"
    INDEX 00 62:15:01
    INDEX 01 62:16:16
--
[Профиль] [ЛС]
Кто просматривает тему:

Показать сообщения:    

Текущее время: Сегодня 22:12

Часовой пояс: GMT



Вы не можете начинать темы
Вы не можете отвечать на сообщения
Вы не можете редактировать свои сообщения
Вы не можете удалять свои сообщения
Вы не можете голосовать в опросах
Вы не можете прикреплять файлы к сообщениям
Вы не можете скачивать файлы