(Rock) Uriah Heep - Collection - 1988 [FLAC, image+.cue, lossless]

 
Автор Сообщение

sergej644 ®

Пол:

Стаж: 4 года 11 месяцев

Сообщений: 6045

Откуда: Soviet Union



Награды: Нет

Торрент-статистика

Создавать темы 19-Май-2015 15:23

[Цитировать]

-Uriah Heep / Collection-- Год издания: 1988
Страна: UK
Жанр: Rock
Продолжительность: 00:59:06-Лейбл издания: Carrere
Тип альбома: Compilation
Страна-выпуска диска: France
Номер по каталогу: 96 666
Формат: FLAC
Битрейт аудио: lossless
Тип рипа: image+.cue
Наличие сканов в содержимом раздачи: да
-

Трэклист

01. That's The Way That It (03:54)
02. So Tired (03:39)
03. Free Me (03:36)
04. One Way Or Another (04:38)
05. Too Scared To Run (03:50)
06. Lady In Black (04:44)
07. Gypsy (06:39)
08. Keep On Riding (03:44)
09. Sweet Loraine (04:16)
10. Roller (04:42)
11. Free 'N' Easy (03:06)
12. Love Machine (03:40)
13. Rock & Roll Medley (08:44)
--

Лог создания рипа

Exact Audio Copy V1.0 beta 3 from 29. August 2011
EAC extraction logfile from 18. February 2015, 0:24
Uriah Heep / Collection
Used drive  : SONY    BD RW BDX-S600U   Adapter: 2  ID: 1
Read mode               : Secure
Utilize accurate stream : Yes
Defeat audio cache      : Yes
Make use of C2 pointers : No
Read offset correction                      : 48
Overread into Lead-In and Lead-Out          : No
Fill up missing offset samples with silence : Yes
Delete leading and trailing silent blocks   : No
Null samples used in CRC calculations       : Yes
Used interface                              : Native Win32 interface for Win NT & 2000
Used output format              : User Defined Encoder
Selected bitrate                : 128 kBit/s
Quality                         : High
Add ID3 tag                     : No
Command line compressor         : C:\Program Files (x86)\Exact Audio Copy\Flac\flac.exe
Additional command line options : -V -8 -T "Date=%year%" -T "Genre=%genre%" %source%
TOC of the extracted CD
     Track |   Start  |  Length  | Start sector | End sector
    ---------------------------------------------------------
        1  |  0:00.33 |  3:53.12 |        33    |    17519
        2  |  3:53.45 |  3:38.68 |     17520    |    33937
        3  |  7:32.38 |  3:35.57 |     33938    |    50119
        4  | 11:08.20 |  4:37.58 |     50120    |    70952
        5  | 15:46.03 |  3:49.20 |     70953    |    88147
        6  | 19:35.23 |  4:43.07 |     88148    |   109379
        7  | 24:18.30 |  6:38.35 |    109380    |   139264
        8  | 30:56.65 |  3:43.13 |    139265    |   156002
        9  | 34:40.03 |  4:15.35 |    156003    |   175162
       10  | 38:55.38 |  4:41.27 |    175163    |   196264
       11  | 43:36.65 |  3:06.00 |    196265    |   210214
       12  | 46:42.65 |  3:39.28 |    210215    |   226667
       13  | 50:22.18 |  8:43.67 |    226668    |   265959
Range status and errors
Selected range
     Filename D:\Uriah Heep - Discography\Compilations\1988. Collection\1988. Collection (Legacy Rec.,Carrere 96 666,France)\Uriah Heep - Collection.wav
     Peak level 94.8 %
     Extraction speed 6.8 X
     Range quality 99.9 %
     Test CRC AC13E37E
     Copy CRC AC13E37E
     Copy OK
No errors occurred
AccurateRip summary
Track  1  not present in database
Track  2  not present in database
Track  3  not present in database
Track  4  not present in database
Track  5  not present in database
Track  6  not present in database
Track  7  not present in database
Track  8  not present in database
Track  9  not present in database
Track 10  not present in database
Track 11  not present in database
Track 12  not present in database
Track 13  not present in database
None of the tracks are present in the AccurateRip database
End of status report
---- CUETools DB Plugin V2.1.4
[CTDB TOCID: o7U2ND0OyEpsdvmezqw6yYzwNDw-] disk not present in database
Submit result: o7U2ND0OyEpsdvmezqw6yYzwNDw- has been uploaded

Индексная карта (non-compilant .cue)

REM GENRE Rock
REM DATE 1988
REM DISCID AF0DDA0D
REM COMMENT "ExactAudioCopy v1.0b3"
CATALOG 0000000000000
PERFORMER "Uriah Heep"
TITLE "Collection"
FILE "Uriah Heep - Collection.flac" WAVE
  TRACK 01 AUDIO
    TITLE "That's The Way That It"
    PERFORMER "Uriah Heep"
    INDEX 00 00:00:00
    INDEX 01 00:00:33
  TRACK 02 AUDIO
    TITLE "So Tired"
    PERFORMER "Uriah Heep"
    INDEX 00 03:53:38
    INDEX 01 03:53:45
  TRACK 03 AUDIO
    TITLE "Free Me"
    PERFORMER "Uriah Heep"
    INDEX 00 07:30:38
    INDEX 01 07:32:38
  TRACK 04 AUDIO
    TITLE "One Way Or Another"
    PERFORMER "Uriah Heep"
    INDEX 00 11:04:15
    INDEX 01 11:08:20
  TRACK 05 AUDIO
    TITLE "Too Scared To Run"
    PERFORMER "Uriah Heep"
    INDEX 00 15:42:73
    INDEX 01 15:46:03
  TRACK 06 AUDIO
    TITLE "Lady In Black"
    PERFORMER "Uriah Heep"
    INDEX 00 19:32:03
    INDEX 01 19:35:23
  TRACK 07 AUDIO
    TITLE "Gypsy"
    PERFORMER "Uriah Heep"
    INDEX 00 24:16:60
    INDEX 01 24:18:30
  TRACK 08 AUDIO
    TITLE "Keep On Riding"
    PERFORMER "Uriah Heep"
    INDEX 00 30:55:20
    INDEX 01 30:56:65
  TRACK 09 AUDIO
    TITLE "Sweet Loraine"
    PERFORMER "Uriah Heep"
    INDEX 00 34:38:35
    INDEX 01 34:40:03
  TRACK 10 AUDIO
    TITLE "Roller"
    PERFORMER "Uriah Heep"
    INDEX 00 38:54:10
    INDEX 01 38:55:38
  TRACK 11 AUDIO
    TITLE "Free 'N' Easy"
    PERFORMER "Uriah Heep"
    INDEX 00 43:35:55
    INDEX 01 43:36:65
  TRACK 12 AUDIO
    TITLE "Love Machine"
    PERFORMER "Uriah Heep"
    INDEX 00 46:40:65
    INDEX 01 46:42:65
  TRACK 13 AUDIO
    TITLE "Rock & Roll Medley"
    PERFORMER "Uriah Heep"
    INDEX 00 50:20:30
    INDEX 01 50:22:18

Лог Audiochecker

AUDIOCHECKER v2.0 beta (build 457) - by Dester - opdester@freemail.hu
~~~~~~~~~~~~~~~~~~~~~~~~~~~~~~~~~~
Started at: вторник, 19. 05. 2015. - 16:21.26
1 file found
1 -===- D:\Torrent files\1988. Collection (Legacy Rec.,Carrere 96 666,France)\Uriah Heep - Collection.flac
  Extracted successfully
  Conclusion: this track is CDDA with probability 100%
  Tempfile successfully deleted.
Finished at: вторник, 19. 05. 2015. - 16:23.52 (operation time: 0:02.25)

Скриншот спектра частот

--Не забываем говорить
[Профиль] [ЛС]
Кто просматривает тему:

Показать сообщения:    

Текущее время: Сегодня 11:52

Часовой пояс: GMT



Вы не можете начинать темы
Вы не можете отвечать на сообщения
Вы не можете редактировать свои сообщения
Вы не можете удалять свои сообщения
Вы не можете голосовать в опросах
Вы не можете прикреплять файлы к сообщениям
Вы не можете скачивать файлы