(Melodic Heavy Metal) Universe - Mission Rock - 2015 [FLAC, image+.cue, lossless]

 
Автор Сообщение

sergej644 ®

Пол:

Стаж: 4 года 11 месяцев

Сообщений: 6042

Откуда: Soviet Union



Награды: Нет

Торрент-статистика

Создавать темы 17-Май-2015 05:14

[Цитировать]

-Universe / Mission Rock-- Год издания: 2015
Страна: Germany
Жанр: Melodic Heavy Metal
Продолжительность: 00:52:34-Лейбл издания: Avenue of Allies Music
Тип альбома: album
Страна-выпуска диска: Germany
Номер по каталогу: Avenue15010063
Формат: FLAC
Битрейт аудио: lossless
Тип рипа: image+.cue
Наличие сканов в содержимом раздачи: да
-

Трэклист

01. Gravy Train (03:48)
02. Up To The Sky (03:57)
03. Mission Rock (03:09)
04. Innocence (05:08)
05. Now Or Never (05:00)
06. 06. Lies (04:16)
07. Brain Collector (04:56)
08. Welcome The Night (04:28)
09. Criminal (03:32)
10. Shame (03:54)
11. Broken Wings (03:15)
12. Tomorrow (07:16)
-

Лог создания рипа

Exact Audio Copy V1.0 beta 3 from 29. August 2011
EAC extraction logfile from 4. April 2015, 7:42
Universe / Mission Rock
Used drive  : MATSHITABD-CMB UJ242AS   Adapter: 0  ID: 1
Read mode               : Secure
Utilize accurate stream : Yes
Defeat audio cache      : Yes
Make use of C2 pointers : No
Read offset correction                      : 103
Overread into Lead-In and Lead-Out          : No
Fill up missing offset samples with silence : Yes
Delete leading and trailing silent blocks   : No
Null samples used in CRC calculations       : Yes
Used interface                              : Installed external ASPI interface
Used output format              : User Defined Encoder
Selected bitrate                : 1024 kBit/s
Quality                         : High
Add ID3 tag                     : Yes
Command line compressor         : C:\Program Files (x86)\Exact Audio Copy\Flac\flac.exe
Additional command line options : -V -8 -T "Date=%year%" -T "Genre=%genre%" %source%
TOC of the extracted CD
     Track |   Start  |  Length  | Start sector | End sector
    ---------------------------------------------------------
        1  |  0:00.00 |  3:47.29 |         0    |    17053
        2  |  3:47.29 |  3:56.63 |     17054    |    34816
        3  |  7:44.17 |  3:08.69 |     34817    |    48985
        4  | 10:53.11 |  5:07.70 |     48986    |    72080
        5  | 16:01.06 |  4:59.02 |     72081    |    94507
        6  | 21:00.08 |  4:15.01 |     94508    |   113633
        7  | 25:15.09 |  4:55.69 |    113634    |   135827
        8  | 30:11.03 |  4:27.35 |    135828    |   155887
        9  | 34:38.38 |  3:31.69 |    155888    |   171781
       10  | 38:10.32 |  3:53.29 |    171782    |   189285
       11  | 42:03.61 |  3:14.08 |    189286    |   203843
       12  | 45:17.69 |  7:15.09 |    203844    |   236477
Range status and errors
Selected range
     Filename C:\EACrip\Universe - Mission Rock.wav
     Peak level 98.8 %
     Extraction speed 2.5 X
     Range quality 99.9 %
     Test CRC 1BFFA3DD
     Copy CRC 1BFFA3DD
     Copy OK
No errors occurred
AccurateRip summary
Track  1  not present in database
Track  2  not present in database
Track  3  not present in database
Track  4  not present in database
Track  5  not present in database
Track  6  not present in database
Track  7  not present in database
Track  8  not present in database
Track  9  not present in database
Track 10  not present in database
Track 11  not present in database
Track 12  not present in database
None of the tracks are present in the AccurateRip database
End of status report

Индексная карта (non-compilant .cue)

REM GENRE Rock
REM DATE 2015
REM DISCID A10C510C
REM COMMENT ExactAudioCopy v1.0b3
PERFORMER "Universe"
TITLE "Mission Rock"
FILE "Universe - Mission Rock.flac" WAVE
  TRACK 01 AUDIO
    TITLE " Gravy Train"
    INDEX 01 00:00:00
  TRACK 02 AUDIO
    TITLE " Up To The Sky"
    INDEX 01 03:47:29
  TRACK 03 AUDIO
    TITLE "  Mission Rock"
    INDEX 01 07:44:17
  TRACK 04 AUDIO
    TITLE " Innocence"
    INDEX 01 10:53:11
  TRACK 05 AUDIO
    TITLE " Now Or Never"
    INDEX 01 16:01:06
  TRACK 06 AUDIO
    TITLE "06. Lies"
    INDEX 01 21:00:08
  TRACK 07 AUDIO
    TITLE " Brain Collector"
    INDEX 01 25:15:09
  TRACK 08 AUDIO
    TITLE "  Welcome The Night"
    INDEX 01 30:11:03
  TRACK 09 AUDIO
    TITLE " Criminal"
    INDEX 01 34:38:38
  TRACK 10 AUDIO
    TITLE " Shame"
    INDEX 01 38:10:32
  TRACK 11 AUDIO
    TITLE "  Broken Wings"
    INDEX 01 42:03:61
  TRACK 12 AUDIO
    TITLE " Tomorrow"
    INDEX 01 45:17:69

Лог Audiochecker

AUDIOCHECKER v2.0 beta (build 457) - by Dester - opdester@freemail.hu
~~~~~~~~~~~~~~~~~~~~~~~~~~~~~~~~~~
Started at: воскресенье, 17. 05. 2015. - 7:38.20
1 file found
1 -===- D:\Torrent files\Universe - 2015 - Mission Rock (Avenue15010063)\Universe - Mission Rock.flac
  Extracted successfully
  Conclusion: this track is CDDA with probability 100%
  Tempfile successfully deleted.
Finished at: воскресенье, 17. 05. 2015. - 7:40.52 (operation time: 0:02.31)

Об исполнителе (группе)

Metal - Archives
--Не забываем говорить
[Профиль] [ЛС]
Показать сообщения:    

Текущее время: Сегодня 12:31

Часовой пояс: GMT



Вы не можете начинать темы
Вы не можете отвечать на сообщения
Вы не можете редактировать свои сообщения
Вы не можете удалять свои сообщения
Вы не можете голосовать в опросах
Вы не можете прикреплять файлы к сообщениям
Вы не можете скачивать файлы