(Hard Rock) UFO - Japanese 1st Presses Collection 1974-1985 (10CD) - 1992 [FLAC, image+.cue, lossless]

 
Автор Сообщение

sergej644 ®

Пол:

Стаж: 4 года 11 месяцев

Сообщений: 6046

Откуда: Soviet Union



Награды: Нет

Торрент-статистика

Создавать темы 24-Дек-2015 15:14

[Цитировать]

-UFO / Japanese 1st Presses (10CD)-- Год | Год издания: 1989 | 1992
Страна: UK
Жанр: Hard Rock
Продолжительность: 06:25:09-Лейбл издания: EMI
Страна-выпуска диска: Japan
Формат: FLAC
Битрейт аудио: lossless
Тип рипа: image+.cue
Наличие сканов в содержимом раздачи: да
-

Трэклист

UFO - 1974 - Phenomenon (CP21-6032) | 00:39:33

01.Oh My (02:29)
02.Crystal Light (03:48)
03.Doctor Doctor (04:10)
04.Space Child (04:01)
05.Rock Bottom (06:36)
06.Too Young to No (03:12)
07.Time on My Hands (04:14)
08.Built For Comfort (03:05)
09.Lipstick Traces (02:20)
10.Queen of The Deep (05:43)

лог создания рипа

Exact Audio Copy V1.1 from 23. June 2015
EAC extraction logfile from 9. December 2015, 16:30
UFO / Phenomenon
Used drive  : ASUS    DRW-24F1ST   a   Adapter: 1  ID: 0
Read mode               : Secure
Utilize accurate stream : Yes
Defeat audio cache      : Yes
Make use of C2 pointers : No
Read offset correction                      : 6
Overread into Lead-In and Lead-Out          : No
Fill up missing offset samples with silence : Yes
Delete leading and trailing silent blocks   : No
Null samples used in CRC calculations       : Yes
Used interface                              : Native Win32 interface for Win NT & 2000
Used output format              : User Defined Encoder
Selected bitrate                : 768 kBit/s
Quality                         : High
Add ID3 tag                     : No
Command line compressor         : C:\Program Files (x86)\FLAC Frontend\tools\flac.exe
Additional command line options : -V -8 -T "Date=%year%" -T "Genre=%genre%" %source%
TOC of the extracted CD
     Track |   Start  |  Length  | Start sector | End sector
    ---------------------------------------------------------
        1  |  0:00.00 |  2:28.15 |         0    |    11114
        2  |  2:28.15 |  3:47.47 |     11115    |    28186
        3  |  6:15.62 |  4:09.13 |     28187    |    46874
        4  | 10:25.00 |  4:00.30 |     46875    |    64904
        5  | 14:25.30 |  6:35.67 |     64905    |    94596
        6  | 21:01.22 |  3:11.25 |     94597    |   108946
        7  | 24:12.47 |  4:13.10 |    108947    |   127931
        8  | 28:25.57 |  3:04.40 |    127932    |   141771
        9  | 31:30.22 |  2:19.38 |    141772    |   152234
       10  | 33:49.60 |  5:42.32 |    152235    |   177916
Range status and errors
Selected range
     Filename G:\EAC - Hellixxx rip\UFO - 1974 - Phenomenon (CP21-6032).wav
     Peak level 100.0 %
     Extraction speed 6.6 X
     Range quality 100.0 %
     Test CRC A418269E
     Copy CRC A418269E
     Copy OK
No errors occurred
AccurateRip summary
Track  1  accurately ripped (confidence 8)  [7F019165]  (AR v2)
Track  2  accurately ripped (confidence 8)  [3FCF967A]  (AR v2)
Track  3  accurately ripped (confidence 8)  [D8B48C7E]  (AR v2)
Track  4  accurately ripped (confidence 8)  [63044A47]  (AR v2)
Track  5  accurately ripped (confidence 8)  [452E9B70]  (AR v2)
Track  6  accurately ripped (confidence 8)  [EEED828B]  (AR v2)
Track  7  accurately ripped (confidence 8)  [4E8C5456]  (AR v2)
Track  8  accurately ripped (confidence 8)  [C8248C25]  (AR v2)
Track  9  accurately ripped (confidence 8)  [0ACF7A6F]  (AR v2)
Track 10  accurately ripped (confidence 8)  [8604815B]  (AR v2)
All tracks accurately ripped
End of status report

содержание индексной карты *cue

REM GENRE "Hard Rock"
REM DATE 1974
REM DISCID 8009440A
REM COMMENT "ExactAudioCopy v1.1"
PERFORMER "UFO"
TITLE "Phenomenon"
FILE "UFO - 1974 - Phenomenon (CP21-6032).flac" WAVE
  TRACK 01 AUDIO
    TITLE "Oh My"
    PERFORMER "UFO"
    INDEX 01 00:00:00
  TRACK 02 AUDIO
    TITLE "Crystal Light"
    PERFORMER "UFO"
    INDEX 00 02:24:65
    INDEX 01 02:28:15
  TRACK 03 AUDIO
    TITLE "Doctor Doctor"
    PERFORMER "UFO"
    INDEX 00 06:12:60
    INDEX 01 06:15:62
  TRACK 04 AUDIO
    TITLE "Space Child"
    PERFORMER "UFO"
    INDEX 01 10:25:00
  TRACK 05 AUDIO
    TITLE "Rock Bottom"
    PERFORMER "UFO"
    INDEX 00 14:24:62
    INDEX 01 14:25:30
  TRACK 06 AUDIO
    TITLE "Too Young to No"
    PERFORMER "UFO"
    INDEX 00 20:57:20
    INDEX 01 21:01:22
  TRACK 07 AUDIO
    TITLE "Time on My Hands"
    PERFORMER "UFO"
    INDEX 00 24:08:37
    INDEX 01 24:12:47
  TRACK 08 AUDIO
    TITLE "Built For Comfort"
    PERFORMER "UFO"
    INDEX 00 28:20:45
    INDEX 01 28:25:57
  TRACK 09 AUDIO
    TITLE "Lipstick Traces"
    PERFORMER "UFO"
    INDEX 00 31:25:32
    INDEX 01 31:30:22
  TRACK 10 AUDIO
    TITLE "Queen of The Deep"
    PERFORMER "UFO"
    INDEX 00 33:47:62
    INDEX 01 33:49:60

UFO - 1975 - Force It (CP21-6033) | 00:37:51

01.Let It Roll (03:57)
02.Shoot Shoot (03:38)
03.High Flyer (03:59)
04.Love Lost Love (03:22)
05.Out in The Street (05:15)
06.Mother Mary (03:53)
07.Too Much of Nothing (04:02)
08.Dance Your Life Away (03:34)
09.This Kids (Including Between The Walls) (06:14)

лог создания рипа

Exact Audio Copy V1.1 from 23. June 2015
EAC extraction logfile from 9. December 2015, 17:10
UFO / Force It
Used drive  : ASUS    DRW-24F1ST   a   Adapter: 1  ID: 0
Read mode               : Secure
Utilize accurate stream : Yes
Defeat audio cache      : Yes
Make use of C2 pointers : No
Read offset correction                      : 6
Overread into Lead-In and Lead-Out          : No
Fill up missing offset samples with silence : Yes
Delete leading and trailing silent blocks   : No
Null samples used in CRC calculations       : Yes
Used interface                              : Native Win32 interface for Win NT & 2000
Used output format              : User Defined Encoder
Selected bitrate                : 768 kBit/s
Quality                         : High
Add ID3 tag                     : No
Command line compressor         : C:\Program Files (x86)\FLAC Frontend\tools\flac.exe
Additional command line options : -V -8 -T "Date=%year%" -T "Genre=%genre%" %source%
TOC of the extracted CD
     Track |   Start  |  Length  | Start sector | End sector
    ---------------------------------------------------------
        1  |  0:00.00 |  3:56.62 |         0    |    17761
        2  |  3:56.62 |  3:37.68 |     17762    |    34104
        3  |  7:34.55 |  3:58.35 |     34105    |    51989
        4  | 11:33.15 |  3:21.35 |     51990    |    67099
        5  | 14:54.50 |  5:14.25 |     67100    |    90674
        6  | 20:09.00 |  3:52.47 |     90675    |   108121
        7  | 24:01.47 |  4:01.40 |    108122    |   126236
        8  | 28:03.12 |  3:33.43 |    126237    |   142254
        9  | 31:36.55 |  6:13.25 |    142255    |   170254
Range status and errors
Selected range
     Filename G:\EAC - Hellixxx rip\UFO - 1975 - Force It (CP21-6033).wav
     Peak level 100.0 %
     Extraction speed 2.6 X
     Range quality 100.0 %
     Test CRC 92B141DD
     Copy CRC 92B141DD
     Copy OK
No errors occurred
AccurateRip summary
Track  1  accurately ripped (confidence 4)  [CDFCC601]  (AR v2)
Track  2  accurately ripped (confidence 4)  [E0089061]  (AR v2)
Track  3  accurately ripped (confidence 4)  [0026F092]  (AR v2)
Track  4  accurately ripped (confidence 4)  [3F886BBD]  (AR v2)
Track  5  accurately ripped (confidence 4)  [15076D33]  (AR v2)
Track  6  accurately ripped (confidence 4)  [D6AED429]  (AR v2)
Track  7  accurately ripped (confidence 4)  [6B15E9A4]  (AR v2)
Track  8  accurately ripped (confidence 4)  [7159CEA8]  (AR v2)
Track  9  accurately ripped (confidence 4)  [8949089F]  (AR v2)
All tracks accurately ripped
End of status report

содержание индексной карты *cue

REM GENRE "Hard Rock"
REM DATE 1975
REM DISCID 8808DE09
REM COMMENT "ExactAudioCopy v1.1"
PERFORMER "UFO"
TITLE "Force It"
FILE "UFO - 1975 - Force It (CP21-6033).flac" WAVE
  TRACK 01 AUDIO
    TITLE "Let It Roll"
    PERFORMER "UFO"
    INDEX 01 00:00:00
  TRACK 02 AUDIO
    TITLE "Shoot Shoot"
    PERFORMER "UFO"
    INDEX 00 03:54:45
    INDEX 01 03:56:62
  TRACK 03 AUDIO
    TITLE "High Flyer"
    PERFORMER "UFO"
    INDEX 00 07:32:22
    INDEX 01 07:34:55
  TRACK 04 AUDIO
    TITLE "Love Lost Love"
    PERFORMER "UFO"
    INDEX 00 11:30:17
    INDEX 01 11:33:15
  TRACK 05 AUDIO
    TITLE "Out in The Street"
    PERFORMER "UFO"
    INDEX 00 14:51:42
    INDEX 01 14:54:50
  TRACK 06 AUDIO
    TITLE "Mother Mary"
    PERFORMER "UFO"
    INDEX 00 20:07:52
    INDEX 01 20:09:00
  TRACK 07 AUDIO
    TITLE "Too Much of Nothing"
    PERFORMER "UFO"
    INDEX 00 24:00:40
    INDEX 01 24:01:47
  TRACK 08 AUDIO
    TITLE "Dance Your Life Away"
    PERFORMER "UFO"
    INDEX 00 28:00:12
    INDEX 01 28:03:12
  TRACK 09 AUDIO
    TITLE "This Kids (Including Between The Walls)"
    PERFORMER "UFO"
    INDEX 00 31:34:00
    INDEX 01 31:36:55

UFO - 1976 - No Heavy Petting (CP21-6034) | 00:35:29

01.Natural Thing (04:03)
02.I'm A Loser (03:55)
03.Can You Roll Her (03:00)
04.Belladonna (04:33)
05.Reasons Love (03:18)
06.Highway Lady (03:47)
07.On With The Action (05:02)
08.A Fool in Love (02:49)
09.Martian Landscape (05:06)

лог создания рипа

Exact Audio Copy V1.1 from 23. June 2015
EAC extraction logfile from 9. December 2015, 18:12
UFO / No Heavy Petting
Used drive  : ASUS    DRW-24F1ST   a   Adapter: 1  ID: 0
Read mode               : Secure
Utilize accurate stream : Yes
Defeat audio cache      : Yes
Make use of C2 pointers : No
Read offset correction                      : 6
Overread into Lead-In and Lead-Out          : No
Fill up missing offset samples with silence : Yes
Delete leading and trailing silent blocks   : No
Null samples used in CRC calculations       : Yes
Used interface                              : Native Win32 interface for Win NT & 2000
Used output format              : User Defined Encoder
Selected bitrate                : 768 kBit/s
Quality                         : High
Add ID3 tag                     : No
Command line compressor         : C:\Program Files (x86)\FLAC Frontend\tools\flac.exe
Additional command line options : -V -8 -T "Date=%year%" -T "Genre=%genre%" %source%
TOC of the extracted CD
     Track |   Start  |  Length  | Start sector | End sector
    ---------------------------------------------------------
        1  |  0:00.00 |  4:02.02 |         0    |    18151
        2  |  4:02.02 |  3:54.68 |     18152    |    35769
        3  |  7:56.70 |  2:59.45 |     35770    |    49239
        4  | 10:56.40 |  4:32.40 |     49240    |    69679
        5  | 15:29.05 |  3:17.10 |     69680    |    84464
        6  | 18:46.15 |  3:46.47 |     84465    |   101461
        7  | 22:32.62 |  5:01.33 |    101462    |   124069
        8  | 27:34.20 |  2:48.65 |    124070    |   136734
        9  | 30:23.10 |  5:05.65 |    136735    |   159674
Range status and errors
Selected range
     Filename G:\EAC - Hellixxx rip\UFO - 1976 - No Heavy Petting (CP21-6034).wav
     Peak level 100.0 %
     Extraction speed 2.6 X
     Range quality 100.0 %
     Test CRC 1597D636
     Copy CRC 1597D636
     Copy OK
No errors occurred
AccurateRip summary
Track  1  accurately ripped (confidence 3)  [77C71CA5]  (AR v2)
Track  2  accurately ripped (confidence 3)  [F9BD2639]  (AR v2)
Track  3  accurately ripped (confidence 3)  [17564A11]  (AR v2)
Track  4  accurately ripped (confidence 3)  [C2439C78]  (AR v2)
Track  5  accurately ripped (confidence 3)  [C2678E2B]  (AR v2)
Track  6  accurately ripped (confidence 3)  [0C8B1FE6]  (AR v2)
Track  7  accurately ripped (confidence 3)  [CD650093]  (AR v2)
Track  8  accurately ripped (confidence 3)  [A605CCF1]  (AR v2)
Track  9  accurately ripped (confidence 3)  [E16CF056]  (AR v2)
All tracks accurately ripped
End of status report

содержание индексной карты *cue

REM GENRE "Hard Rock"
REM DATE 1976
REM DISCID 7A085109
REM COMMENT "ExactAudioCopy v1.1"
PERFORMER "UFO"
TITLE "No Heavy Petting"
FILE "UFO - 1976 - No Heavy Petting (CP21-6034).flac" WAVE
  TRACK 01 AUDIO
    TITLE "Natural Thing"
    PERFORMER "UFO"
    INDEX 01 00:00:00
  TRACK 02 AUDIO
    TITLE "I'm A Loser"
    PERFORMER "UFO"
    INDEX 00 04:00:10
    INDEX 01 04:02:02
  TRACK 03 AUDIO
    TITLE "Can You Roll Her"
    PERFORMER "UFO"
    INDEX 00 07:52:70
    INDEX 01 07:56:70
  TRACK 04 AUDIO
    TITLE "Belladonna"
    PERFORMER "UFO"
    INDEX 00 10:52:47
    INDEX 01 10:56:40
  TRACK 05 AUDIO
    TITLE "Reasons Love"
    PERFORMER "UFO"
    INDEX 00 15:25:05
    INDEX 01 15:29:05
  TRACK 06 AUDIO
    TITLE "Highway Lady"
    PERFORMER "UFO"
    INDEX 00 18:44:00
    INDEX 01 18:46:15
  TRACK 07 AUDIO
    TITLE "On With The Action"
    PERFORMER "UFO"
    INDEX 00 22:31:15
    INDEX 01 22:32:62
  TRACK 08 AUDIO
    TITLE "A Fool in Love"
    PERFORMER "UFO"
    INDEX 00 27:30:52
    INDEX 01 27:34:20
  TRACK 09 AUDIO
    TITLE "Martian Landscape"
    PERFORMER "UFO"
    INDEX 00 30:19:50
    INDEX 01 30:23:10

UFO - 1977 - Lights Out (CP21-6035) | 00:36:36

01.Too Hot to Handle (03:39)
02.Just Another Suicide (04:59)
03.Try Me (04:49)
04.Lights Out (04:29)
05.Gettin' Ready (03:47)
06.Alone Again Or (03:01)
07.Electric Phase (04:17)
08.Love to Love (07:38)

лог создания рипа

Exact Audio Copy V1.1 from 23. June 2015
EAC extraction logfile from 9. December 2015, 19:36
UFO / Lights Out
Used drive  : ASUS    DRW-24F1ST   a   Adapter: 1  ID: 0
Read mode               : Secure
Utilize accurate stream : Yes
Defeat audio cache      : Yes
Make use of C2 pointers : No
Read offset correction                      : 6
Overread into Lead-In and Lead-Out          : No
Fill up missing offset samples with silence : Yes
Delete leading and trailing silent blocks   : No
Null samples used in CRC calculations       : Yes
Used interface                              : Native Win32 interface for Win NT & 2000
Used output format              : User Defined Encoder
Selected bitrate                : 768 kBit/s
Quality                         : High
Add ID3 tag                     : No
Command line compressor         : C:\Program Files (x86)\FLAC Frontend\tools\flac.exe
Additional command line options : -V -8 -T "Date=%year%" -T "Genre=%genre%" %source%
TOC of the extracted CD
     Track |   Start  |  Length  | Start sector | End sector
    ---------------------------------------------------------
        1  |  0:00.00 |  3:38.50 |         0    |    16399
        2  |  3:38.50 |  4:58.12 |     16400    |    38761
        3  |  8:36.62 |  4:48.48 |     38762    |    60409
        4  | 13:25.35 |  4:28.55 |     60410    |    80564
        5  | 17:54.15 |  3:46.35 |     80565    |    97549
        6  | 21:40.50 |  3:00.35 |     97550    |   111084
        7  | 24:41.10 |  4:16.52 |    111085    |   130336
        8  | 28:57.62 |  7:37.28 |    130337    |   164639
Range status and errors
Selected range
     Filename G:\EAC - Hellixxx rip\UFO - 1977 - Lights Out (CP21-6035).wav
     Peak level 100.0 %
     Extraction speed 2.6 X
     Range quality 99.9 %
     Test CRC 547DBAE6
     Copy CRC 547DBAE6
     Copy OK
No errors occurred
AccurateRip summary
Track  1  accurately ripped (confidence 4)  [2BEAB000]  (AR v2)
Track  2  accurately ripped (confidence 4)  [4E7A039B]  (AR v2)
Track  3  accurately ripped (confidence 4)  [08077E9F]  (AR v2)
Track  4  accurately ripped (confidence 4)  [93A8322E]  (AR v2)
Track  5  accurately ripped (confidence 4)  [83E6AE32]  (AR v2)
Track  6  accurately ripped (confidence 4)  [33390138]  (AR v2)
Track  7  accurately ripped (confidence 4)  [87DB10D8]  (AR v2)
Track  8  accurately ripped (confidence 4)  [33596279]  (AR v2)
All tracks accurately ripped
End of status report

содержание индексной карты *cue

REM GENRE "Hard Rock"
REM DATE 1977
REM DISCID 5B089308
REM COMMENT "ExactAudioCopy v1.1"
PERFORMER "UFO"
TITLE "Lights Out"
FILE "UFO - 1977 - Lights Out (CP21-6035).flac" WAVE
  TRACK 01 AUDIO
    TITLE "Too Hot to Handle"
    PERFORMER "UFO"
    INDEX 01 00:00:00
  TRACK 02 AUDIO
    TITLE "Just Another Suicide"
    PERFORMER "UFO"
    INDEX 01 03:38:50
  TRACK 03 AUDIO
    TITLE "Try Me"
    PERFORMER "UFO"
    INDEX 00 08:34:10
    INDEX 01 08:36:62
  TRACK 04 AUDIO
    TITLE "Lights Out"
    PERFORMER "UFO"
    INDEX 00 13:22:12
    INDEX 01 13:25:35
  TRACK 05 AUDIO
    TITLE "Gettin' Ready"
    PERFORMER "UFO"
    INDEX 00 17:51:37
    INDEX 01 17:54:15
  TRACK 06 AUDIO
    TITLE "Alone Again Or"
    PERFORMER "UFO"
    INDEX 00 21:38:12
    INDEX 01 21:40:50
  TRACK 07 AUDIO
    TITLE "Electric Phase"
    PERFORMER "UFO"
    INDEX 00 24:40:12
    INDEX 01 24:41:10
  TRACK 08 AUDIO
    TITLE "Love to Love"
    PERFORMER "UFO"
    INDEX 01 28:57:62

UFO - 1978 - Obsession (TOCP-7201) | 00:35:58

01.Only You Can Rock Me (04:10)
02.Pack It Up (03:15)
03.Arbory Hill (01:12)
04.Ain't No Baby (03:59)
05.Lookin' Out For Number One (04:36)
06.Hot 'n' Ready (03:17)
07.Cherry (03:35)
08.You Don't Fool Me (03:24)
09.Lookin' Out For Number One (Reprise) (01:15)
10.One More For The Rodeo (03:46)
11.Born To Lose (03:33)

лог создания рипа

Exact Audio Copy V1.1 from 23. June 2015
EAC extraction logfile from 21. August 2015, 21:58
UFO / Obsession
Used drive  : ASUS    DRW-24F1ST   a   Adapter: 1  ID: 0
Read mode               : Secure
Utilize accurate stream : Yes
Defeat audio cache      : Yes
Make use of C2 pointers : No
Read offset correction                      : 6
Overread into Lead-In and Lead-Out          : No
Fill up missing offset samples with silence : Yes
Delete leading and trailing silent blocks   : No
Null samples used in CRC calculations       : Yes
Used interface                              : Native Win32 interface for Win NT & 2000
Used output format              : User Defined Encoder
Selected bitrate                : 768 kBit/s
Quality                         : High
Add ID3 tag                     : No
Command line compressor         : C:\Program Files (x86)\FLAC Frontend\tools\flac.exe
Additional command line options : -V -8 -T "Date=%year%" -T "Genre=%genre%" %source%
TOC of the extracted CD
     Track |   Start  |  Length  | Start sector | End sector
    ---------------------------------------------------------
        1  |  0:00.00 |  4:09.02 |         0    |    18676
        2  |  4:09.02 |  3:14.55 |     18677    |    33281
        3  |  7:23.57 |  1:11.50 |     33282    |    38656
        4  |  8:35.32 |  3:58.23 |     38657    |    56529
        5  | 12:33.55 |  4:35.27 |     56530    |    77181
        6  | 17:09.07 |  3:16.15 |     77182    |    91896
        7  | 20:25.22 |  3:34.65 |     91897    |   108011
        8  | 24:00.12 |  3:23.48 |    108012    |   123284
        9  | 27:23.60 |  1:14.62 |    123285    |   128896
       10  | 28:38.47 |  3:45.65 |    128897    |   145836
       11  | 32:24.37 |  3:32.55 |    145837    |   161791
Range status and errors
Selected range
     Filename G:\EAC - Hellixxx rip\UFO - 1978 - Obsession (TOCP-7201).wav
     Peak level 93.8 %
     Extraction speed 2.6 X
     Range quality 100.0 %
     Test CRC E28CEA40
     Copy CRC E28CEA40
     Copy OK
No errors occurred
AccurateRip summary
Track  1  accurately ripped (confidence 2)  [8E740293]  (AR v2)
Track  2  accurately ripped (confidence 2)  [23576A2E]  (AR v2)
Track  3  accurately ripped (confidence 2)  [021340E8]  (AR v2)
Track  4  accurately ripped (confidence 2)  [5F412D30]  (AR v2)
Track  5  accurately ripped (confidence 2)  [B3202CF8]  (AR v2)
Track  6  accurately ripped (confidence 2)  [73EFA1FC]  (AR v2)
Track  7  accurately ripped (confidence 2)  [5EE27E12]  (AR v2)
Track  8  accurately ripped (confidence 2)  [2AE2296E]  (AR v2)
Track  9  accurately ripped (confidence 2)  [EC4C7A4C]  (AR v2)
Track 10  accurately ripped (confidence 2)  [9C76F1EE]  (AR v2)
Track 11  accurately ripped (confidence 2)  [E88A948B]  (AR v2)
All tracks accurately ripped
End of status report

содержание индексной карты *cue

REM GENRE "Hard Rock"
REM DATE 1978
REM DISCID 7F086D0B
REM COMMENT "ExactAudioCopy v1.1"
PERFORMER "UFO"
TITLE "Obsession"
FILE "UFO - 1978 - Obsession (TOCP-7201).flac" WAVE
  TRACK 01 AUDIO
    TITLE "Only You Can Rock Me"
    PERFORMER "UFO"
    INDEX 01 00:00:00
  TRACK 02 AUDIO
    TITLE "Pack It Up"
    PERFORMER "UFO"
    INDEX 00 04:09:00
    INDEX 01 04:09:02
  TRACK 03 AUDIO
    TITLE "Arbory Hill"
    PERFORMER "UFO"
    INDEX 00 07:23:10
    INDEX 01 07:23:57
  TRACK 04 AUDIO
    TITLE "Ain't No Baby"
    PERFORMER "UFO"
    INDEX 00 08:34:15
    INDEX 01 08:35:32
  TRACK 05 AUDIO
    TITLE "Lookin' Out For Number One"
    PERFORMER "UFO"
    INDEX 00 12:33:35
    INDEX 01 12:33:55
  TRACK 06 AUDIO
    TITLE "Hot 'n' Ready"
    PERFORMER "UFO"
    INDEX 00 17:08:17
    INDEX 01 17:09:07
  TRACK 07 AUDIO
    TITLE "Cherry"
    PERFORMER "UFO"
    INDEX 00 20:25:20
    INDEX 01 20:25:22
  TRACK 08 AUDIO
    TITLE "You Don't Fool Me"
    PERFORMER "UFO"
    INDEX 00 23:58:72
    INDEX 01 24:00:12
  TRACK 09 AUDIO
    TITLE "Lookin' Out For Number One (Reprise)"
    PERFORMER "UFO"
    INDEX 00 27:23:15
    INDEX 01 27:23:60
  TRACK 10 AUDIO
    TITLE "One More For The Rodeo"
    PERFORMER "UFO"
    INDEX 00 28:38:45
    INDEX 01 28:38:47
  TRACK 11 AUDIO
    TITLE "Born To Lose"
    PERFORMER "UFO"
    INDEX 00 32:23:07
    INDEX 01 32:24:37

UFO - 1980 - No Place To Run (TOCP-7202) | 00:36:20

01.Alpha Centauri (01:58)
02.Lettin' Go (04:02)
03.Mystery Train (03:57)
04.This Fire Burns Tonight (04:15)
05.Gone in The Night (03:48)
06.Young Blood (04:02)
07.No Place To Run (04:00)
08.Take It or Leave It (03:03)
09.Money, Money (03:31)
10.Anyday (03:50)

лог создания рипа

Exact Audio Copy V1.1 from 23. June 2015
EAC extraction logfile from 10. December 2015, 12:24
UFO / No Place To Run
Used drive  : ASUS    DRW-24F1ST   a   Adapter: 1  ID: 0
Read mode               : Secure
Utilize accurate stream : Yes
Defeat audio cache      : Yes
Make use of C2 pointers : No
Read offset correction                      : 6
Overread into Lead-In and Lead-Out          : No
Fill up missing offset samples with silence : Yes
Delete leading and trailing silent blocks   : No
Null samples used in CRC calculations       : Yes
Used interface                              : Native Win32 interface for Win NT & 2000
Used output format              : User Defined Encoder
Selected bitrate                : 768 kBit/s
Quality                         : High
Add ID3 tag                     : No
Command line compressor         : C:\Program Files (x86)\FLAC Frontend\tools\flac.exe
Additional command line options : -V -8 -T "Date=%year%" -T "Genre=%genre%" %source%
TOC of the extracted CD
     Track |   Start  |  Length  | Start sector | End sector
    ---------------------------------------------------------
        1  |  0:00.00 |  1:57.30 |         0    |     8804
        2  |  1:57.30 |  4:01.30 |      8805    |    26909
        3  |  5:58.60 |  3:56.20 |     26910    |    44629
        4  |  9:55.05 |  4:14.30 |     44630    |    63709
        5  | 14:09.35 |  3:47.55 |     63710    |    80789
        6  | 17:57.15 |  4:01.05 |     80790    |    98869
        7  | 21:58.20 |  3:59.37 |     98870    |   116831
        8  | 25:57.57 |  3:02.30 |    116832    |   130511
        9  | 29:00.12 |  3:30.55 |    130512    |   146316
       10  | 32:30.67 |  3:49.08 |    146317    |   163499
Range status and errors
Selected range
     Filename G:\EAC - Hellixxx rip\UFO - 1980 - No Place To Run (TOCP-7202).wav
     Peak level 98.6 %
     Extraction speed 2.6 X
     Range quality 100.0 %
     Test CRC 4270ADE8
     Copy CRC 4270ADE8
     Copy OK
No errors occurred
AccurateRip summary
Track  1  accurately ripped (confidence 5)  [7832B649]  (AR v2)
Track  2  accurately ripped (confidence 5)  [2E308C5D]  (AR v2)
Track  3  accurately ripped (confidence 5)  [B5774B6D]  (AR v2)
Track  4  accurately ripped (confidence 5)  [01E86701]  (AR v2)
Track  5  accurately ripped (confidence 5)  [60323AFA]  (AR v2)
Track  6  accurately ripped (confidence 5)  [27B65D86]  (AR v2)
Track  7  accurately ripped (confidence 5)  [71C3FE24]  (AR v2)
Track  8  accurately ripped (confidence 5)  [6F03F725]  (AR v2)
Track  9  accurately ripped (confidence 5)  [CA2903B4]  (AR v2)
Track 10  accurately ripped (confidence 5)  [0B335318]  (AR v2)
All tracks accurately ripped
End of status report

содержание индексной карты *cue

REM GENRE "Hard Rock"
REM DATE 1980
REM DISCID 8308840A
REM COMMENT "ExactAudioCopy v1.1"
PERFORMER "UFO"
TITLE "No Place To Run"
FILE "UFO - 1980 - No Place To Run (TOCP-7202).flac" WAVE
  TRACK 01 AUDIO
    TITLE "Alpha Centauri"
    PERFORMER "UFO"
    INDEX 01 00:00:00
  TRACK 02 AUDIO
    TITLE "Lettin' Go"
    PERFORMER "UFO"
    INDEX 01 01:57:30
  TRACK 03 AUDIO
    TITLE "Mystery Train"
    PERFORMER "UFO"
    INDEX 00 05:58:57
    INDEX 01 05:58:60
  TRACK 04 AUDIO
    TITLE "This Fire Burns Tonight"
    PERFORMER "UFO"
    INDEX 00 09:55:02
    INDEX 01 09:55:05
  TRACK 05 AUDIO
    TITLE "Gone in The Night"
    PERFORMER "UFO"
    INDEX 00 14:09:32
    INDEX 01 14:09:35
  TRACK 06 AUDIO
    TITLE "Young Blood"
    PERFORMER "UFO"
    INDEX 00 17:56:35
    INDEX 01 17:57:15
  TRACK 07 AUDIO
    TITLE "No Place To Run"
    PERFORMER "UFO"
    INDEX 00 21:57:42
    INDEX 01 21:58:20
  TRACK 08 AUDIO
    TITLE "Take It or Leave It"
    PERFORMER "UFO"
    INDEX 00 25:57:52
    INDEX 01 25:57:57
  TRACK 09 AUDIO
    TITLE "Money, Money"
    PERFORMER "UFO"
    INDEX 00 29:00:07
    INDEX 01 29:00:12
  TRACK 10 AUDIO
    TITLE "Anyday"
    PERFORMER "UFO"
    INDEX 00 32:29:17
    INDEX 01 32:30:67

UFO - 1981 - The Wild The Willing and The Innocent (TOCP-7203) | 00:36:53

01.Chains Chains (03:26)
02.Long Gone (05:18)
03.The Wild The WIlling and The Innocent (05:01)
04.It's Killing Me (04:30)
05.Makin' Moves (04:46)
06.Lonely Heart (05:01)
07.Couldn't Get It Right (04:34)
08.Profession of Violence (04:19)

лог создания рипа

Exact Audio Copy V1.1 from 23. June 2015
EAC extraction logfile from 10. December 2015, 13:59
UFO / The Wild The Willing and The Innocent
Used drive  : ASUS    DRW-24F1ST   a   Adapter: 1  ID: 0
Read mode               : Secure
Utilize accurate stream : Yes
Defeat audio cache      : Yes
Make use of C2 pointers : No
Read offset correction                      : 6
Overread into Lead-In and Lead-Out          : No
Fill up missing offset samples with silence : Yes
Delete leading and trailing silent blocks   : No
Null samples used in CRC calculations       : Yes
Used interface                              : Native Win32 interface for Win NT & 2000
Used output format              : User Defined Encoder
Selected bitrate                : 768 kBit/s
Quality                         : High
Add ID3 tag                     : No
Command line compressor         : C:\Program Files (x86)\FLAC Frontend\tools\flac.exe
Additional command line options : -V -8 -T "Date=%year%" -T "Genre=%genre%" %source%
TOC of the extracted CD
     Track |   Start  |  Length  | Start sector | End sector
    ---------------------------------------------------------
        1  |  0:00.00 |  3:25.52 |         0    |    15426
        2  |  3:25.52 |  5:17.65 |     15427    |    39266
        3  |  8:43.42 |  5:00.18 |     39267    |    61784
        4  | 13:43.60 |  4:29.70 |     61785    |    82029
        5  | 18:13.55 |  4:45.02 |     82030    |   103406
        6  | 22:58.57 |  5:00.65 |    103407    |   125971
        7  | 27:59.47 |  4:33.68 |    125972    |   146514
        8  | 32:33.40 |  4:18.62 |    146515    |   165926
Range status and errors
Selected range
     Filename G:\EAC - Hellixxx rip\UFO - 1981 - The Wild The Willing and The Innocent (TOCP-7203).wav
     Peak level 96.3 %
     Extraction speed 2.6 X
     Range quality 100.0 %
     Test CRC D71BD4C0
     Copy CRC D71BD4C0
     Copy OK
No errors occurred
AccurateRip summary
Track  1  accurately ripped (confidence 4)  [E02A4272]  (AR v2)
Track  2  accurately ripped (confidence 5)  [D9FBABF7]  (AR v2)
Track  3  accurately ripped (confidence 5)  [E6169BF9]  (AR v2)
Track  4  accurately ripped (confidence 5)  [755B34DA]  (AR v2)
Track  5  accurately ripped (confidence 5)  [8B26160B]  (AR v2)
Track  6  accurately ripped (confidence 5)  [9124A762]  (AR v2)
Track  7  accurately ripped (confidence 5)  [04EE06EE]  (AR v2)
Track  8  accurately ripped (confidence 5)  [0478C52D]  (AR v2)
All tracks accurately ripped
End of status report

содержание индексной карты *cue

REM GENRE "Hard Rock"
REM DATE 1981
REM DISCID 6508A408
REM COMMENT "ExactAudioCopy v1.1"
PERFORMER "UFO"
TITLE "The Wild The Willing and The Innocent"
FILE "UFO - 1981 - The Wild The Willing and The Innocent (TOCP-7203).flac" WAVE
  TRACK 01 AUDIO
    TITLE "Chains Chains"
    PERFORMER "UFO"
    INDEX 01 00:00:00
  TRACK 02 AUDIO
    TITLE "Long Gone"
    PERFORMER "UFO"
    INDEX 00 03:25:40
    INDEX 01 03:25:52
  TRACK 03 AUDIO
    TITLE "The Wild The WIlling and The Innocent"
    PERFORMER "UFO"
    INDEX 01 08:43:42
  TRACK 04 AUDIO
    TITLE "It's Killing Me"
    PERFORMER "UFO"
    INDEX 00 13:42:65
    INDEX 01 13:43:60
  TRACK 05 AUDIO
    TITLE "Makin' Moves"
    PERFORMER "UFO"
    INDEX 00 18:12:05
    INDEX 01 18:13:55
  TRACK 06 AUDIO
    TITLE "Lonely Heart"
    PERFORMER "UFO"
    INDEX 00 22:58:55
    INDEX 01 22:58:57
  TRACK 07 AUDIO
    TITLE "Couldn't Get It Right"
    PERFORMER "UFO"
    INDEX 00 27:58:20
    INDEX 01 27:59:47
  TRACK 08 AUDIO
    TITLE "Profession of Violence"
    PERFORMER "UFO"
    INDEX 00 32:32:67
    INDEX 01 32:33:40

UFO - 1982 - Mechanix (TOCP-7204) | 00:40:17

01.The Writer (04:10)
02.Something Else (03:20)
03.Back Into My Life (04:57)
04.You'll Get Love (03:08)
05.Doing It All For You (05:00)
06.We Belong to The Night (03:57)
07.Let It Rain (04:01)
08.Terri (03:51)
09.Feel It (04:05)
10.Dreaming (03:54)

лог создания рипа

Exact Audio Copy V1.1 from 23. June 2015
EAC extraction logfile from 10. December 2015, 14:52
UFO / Mechanix
Used drive  : ASUS    DRW-24F1ST   a   Adapter: 1  ID: 0
Read mode               : Secure
Utilize accurate stream : Yes
Defeat audio cache      : Yes
Make use of C2 pointers : No
Read offset correction                      : 6
Overread into Lead-In and Lead-Out          : No
Fill up missing offset samples with silence : Yes
Delete leading and trailing silent blocks   : No
Null samples used in CRC calculations       : Yes
Used interface                              : Native Win32 interface for Win NT & 2000
Used output format              : User Defined Encoder
Selected bitrate                : 768 kBit/s
Quality                         : High
Add ID3 tag                     : No
Command line compressor         : C:\Program Files (x86)\FLAC Frontend\tools\flac.exe
Additional command line options : -V -8 -T "Date=%year%" -T "Genre=%genre%" %source%
TOC of the extracted CD
     Track |   Start  |  Length  | Start sector | End sector
    ---------------------------------------------------------
        1  |  0:00.00 |  4:09.55 |         0    |    18729
        2  |  4:09.55 |  3:19.22 |     18730    |    33676
        3  |  7:29.02 |  4:56.10 |     33677    |    55886
        4  | 12:25.12 |  3:07.05 |     55887    |    69916
        5  | 15:32.17 |  4:59.30 |     69917    |    92371
        6  | 20:31.47 |  3:57.00 |     92372    |   110146
        7  | 24:28.47 |  4:00.23 |    110147    |   128169
        8  | 28:28.70 |  3:50.45 |    128170    |   145464
        9  | 32:19.40 |  4:04.17 |    145465    |   163781
       10  | 36:23.57 |  3:53.15 |    163782    |   181271
Range status and errors
Selected range
     Filename G:\EAC - Hellixxx rip\UFO - 1982 - Mechanix (TOCP-7204).wav
     Peak level 97.7 %
     Extraction speed 2.6 X
     Range quality 99.9 %
     Test CRC E50C3F6E
     Copy CRC E50C3F6E
     Copy OK
No errors occurred
AccurateRip summary
Track  1  accurately ripped (confidence 2)  [8C8CDD5D]  (AR v2)
Track  2  accurately ripped (confidence 2)  [D224143D]  (AR v2)
Track  3  accurately ripped (confidence 2)  [99048731]  (AR v2)
Track  4  accurately ripped (confidence 2)  [419B514C]  (AR v2)
Track  5  accurately ripped (confidence 2)  [921C67AA]  (AR v2)
Track  6  accurately ripped (confidence 2)  [26AA7461]  (AR v2)
Track  7  accurately ripped (confidence 2)  [7EBF3352]  (AR v2)
Track  8  accurately ripped (confidence 2)  [7E824CB6]  (AR v2)
Track  9  accurately ripped (confidence 2)  [E80C6A04]  (AR v2)
Track 10  accurately ripped (confidence 2)  [EB753BD1]  (AR v2)
All tracks accurately ripped
End of status report

содержание индексной карты *cue

REM GENRE "Hard Rock"
REM DATE 1982
REM DISCID 7309700A
REM COMMENT "ExactAudioCopy v1.1"
PERFORMER "UFO"
TITLE "Mechanix"
FILE "UFO - 1982 - Mechanix (TOCP-7204).flac" WAVE
  TRACK 01 AUDIO
    TITLE "The Writer"
    PERFORMER "UFO"
    INDEX 01 00:00:00
  TRACK 02 AUDIO
    TITLE "Something Else"
    PERFORMER "UFO"
    INDEX 00 04:08:65
    INDEX 01 04:09:55
  TRACK 03 AUDIO
    TITLE "Back Into My Life"
    PERFORMER "UFO"
    INDEX 00 07:27:72
    INDEX 01 07:29:02
  TRACK 04 AUDIO
    TITLE "You'll Get Love"
    PERFORMER "UFO"
    INDEX 00 12:23:52
    INDEX 01 12:25:12
  TRACK 05 AUDIO
    TITLE "Doing It All For You"
    PERFORMER "UFO"
    INDEX 00 15:32:00
    INDEX 01 15:32:17
  TRACK 06 AUDIO
    TITLE "We Belong to The Night"
    PERFORMER "UFO"
    INDEX 00 20:30:27
    INDEX 01 20:31:47
  TRACK 07 AUDIO
    TITLE "Let It Rain"
    PERFORMER "UFO"
    INDEX 01 24:28:47
  TRACK 08 AUDIO
    TITLE "Terri"
    PERFORMER "UFO"
    INDEX 00 28:28:45
    INDEX 01 28:28:70
  TRACK 09 AUDIO
    TITLE "Feel It"
    PERFORMER "UFO"
    INDEX 00 32:18:37
    INDEX 01 32:19:40
  TRACK 10 AUDIO
    TITLE "Dreaming"
    PERFORMER "UFO"
    INDEX 01 36:23:57

UFO - 1983 - Making Contact (TOCP-7205) | 00:39:46

01.Blinded By a Lie (04:04)
02.Diesel in The Dust (04:25)
03.A Fool For Love (03:58)
04.You and Me (03:26)
05.When It's Time to Rock (05:19)
06.The Way The Wild Wind Blows (04:14)
07.Call My Name (03:15)
08.All Over You (04:25)
09.No Getaway (03:32)
10.Push, It's Love (03:13)

лог создания рипа

Exact Audio Copy V1.1 from 23. June 2015
EAC extraction logfile from 10. December 2015, 18:47
UFO / Making Contact
Used drive  : ASUS    DRW-24F1ST   a   Adapter: 1  ID: 0
Read mode               : Secure
Utilize accurate stream : Yes
Defeat audio cache      : Yes
Make use of C2 pointers : No
Read offset correction                      : 6
Overread into Lead-In and Lead-Out          : No
Fill up missing offset samples with silence : Yes
Delete leading and trailing silent blocks   : No
Null samples used in CRC calculations       : Yes
Used interface                              : Native Win32 interface for Win NT & 2000
Used output format              : User Defined Encoder
Selected bitrate                : 768 kBit/s
Quality                         : High
Add ID3 tag                     : No
Command line compressor         : C:\Program Files (x86)\FLAC Frontend\tools\flac.exe
Additional command line options : -V -8 -T "Date=%year%" -T "Genre=%genre%" %source%
TOC of the extracted CD
     Track |   Start  |  Length  | Start sector | End sector
    ---------------------------------------------------------
        1  |  0:00.00 |  4:03.10 |         0    |    18234
        2  |  4:03.10 |  4:24.52 |     18235    |    38086
        3  |  8:27.62 |  3:57.23 |     38087    |    55884
        4  | 12:25.10 |  3:25.57 |     55885    |    71316
        5  | 15:50.67 |  5:18.08 |     71317    |    95174
        6  | 21:09.00 |  4:13.67 |     95175    |   114216
        7  | 25:22.67 |  3:14.33 |    114217    |   128799
        8  | 28:37.25 |  4:24.07 |    128800    |   148606
        9  | 33:01.32 |  3:31.58 |    148607    |   164489
       10  | 36:33.15 |  3:12.07 |    164490    |   178896
Range status and errors
Selected range
     Filename G:\EAC - Hellixxx rip\UFO - 1983 - Making Contact (TOCP-7205).wav
     Peak level 100.0 %
     Extraction speed 2.7 X
     Range quality 100.0 %
     Test CRC C85EEE13
     Copy CRC C85EEE13
     Copy OK
No errors occurred
AccurateRip summary
Track  1  accurately ripped (confidence 3)  [735BDF99]  (AR v2)
Track  2  accurately ripped (confidence 3)  [C311E855]  (AR v2)
Track  3  accurately ripped (confidence 3)  [A239C8CE]  (AR v2)
Track  4  accurately ripped (confidence 3)  [35206101]  (AR v2)
Track  5  accurately ripped (confidence 3)  [510297C1]  (AR v2)
Track  6  accurately ripped (confidence 3)  [28CE3EB8]  (AR v2)
Track  7  accurately ripped (confidence 3)  [65BAAE7F]  (AR v2)
Track  8  accurately ripped (confidence 3)  [AC1558CA]  (AR v2)
Track  9  accurately ripped (confidence 3)  [8E881D1A]  (AR v2)
Track 10  accurately ripped (confidence 2)  [9450C84D]  (AR v2)
All tracks accurately ripped
End of status report

содержание индексной карты *cue

REM GENRE "Hard Rock"
REM DATE 1983
REM DISCID 8C09510A
REM COMMENT "ExactAudioCopy v1.1"
PERFORMER "UFO"
TITLE "Making Contact"
FILE "UFO - 1983 - Making Contact (TOCP-7205).flac" WAVE
  TRACK 01 AUDIO
    TITLE "Blinded By a Lie"
    PERFORMER "UFO"
    INDEX 01 00:00:00
  TRACK 02 AUDIO
    TITLE "Diesel in The Dust"
    PERFORMER "UFO"
    INDEX 00 04:03:07
    INDEX 01 04:03:10
  TRACK 03 AUDIO
    TITLE "A Fool For Love"
    PERFORMER "UFO"
    INDEX 00 08:25:00
    INDEX 01 08:27:62
  TRACK 04 AUDIO
    TITLE "You and Me"
    PERFORMER "UFO"
    INDEX 00 12:21:27
    INDEX 01 12:25:10
  TRACK 05 AUDIO
    TITLE "When It's Time to Rock"
    PERFORMER "UFO"
    INDEX 01 15:50:67
  TRACK 06 AUDIO
    TITLE "The Way The Wild Wind Blows"
    PERFORMER "UFO"
    INDEX 00 21:07:07
    INDEX 01 21:09:00
  TRACK 07 AUDIO
    TITLE "Call My Name"
    PERFORMER "UFO"
    INDEX 00 25:22:10
    INDEX 01 25:22:67
  TRACK 08 AUDIO
    TITLE "All Over You"
    PERFORMER "UFO"
    INDEX 00 28:35:05
    INDEX 01 28:37:25
  TRACK 09 AUDIO
    TITLE "No Getaway"
    PERFORMER "UFO"
    INDEX 00 32:59:15
    INDEX 01 33:01:32
  TRACK 10 AUDIO
    TITLE "Push, It's Love"
    PERFORMER "UFO"
    INDEX 00 36:33:12
    INDEX 01 36:33:15

UFO - 1985 - Misdemeanor (TOCP-7206) | 00:46:31

01.This Time (04:37)
02.One Heart (04:10)
03.Night Run (04:33)
04.The Only Ones (05:17)
05.Meanstreets (04:18)
06.Name of Love (04:38)
07.Blue (05:19)
08.Dream The Dream (04:33)
09.Heaven's Gate (04:16)
10.Wreckless (04:54)

лог создания рипа

Exact Audio Copy V1.1 from 23. June 2015
EAC extraction logfile from 10. December 2015, 20:00
UFO / Misdemeanor
Used drive  : ASUS    DRW-24F1ST   a   Adapter: 1  ID: 0
Read mode               : Secure
Utilize accurate stream : Yes
Defeat audio cache      : Yes
Make use of C2 pointers : No
Read offset correction                      : 6
Overread into Lead-In and Lead-Out          : No
Fill up missing offset samples with silence : Yes
Delete leading and trailing silent blocks   : No
Null samples used in CRC calculations       : Yes
Used interface                              : Native Win32 interface for Win NT & 2000
Used output format              : User Defined Encoder
Selected bitrate                : 768 kBit/s
Quality                         : High
Add ID3 tag                     : No
Command line compressor         : C:\Program Files (x86)\FLAC Frontend\tools\flac.exe
Additional command line options : -V -8 -T "Date=%year%" -T "Genre=%genre%" %source%
TOC of the extracted CD
     Track |   Start  |  Length  | Start sector | End sector
    ---------------------------------------------------------
        1  |  0:00.00 |  4:36.40 |         0    |    20739
        2  |  4:36.40 |  4:09.42 |     20740    |    39456
        3  |  8:46.07 |  4:32.38 |     39457    |    59894
        4  | 13:18.45 |  5:16.17 |     59895    |    83611
        5  | 18:34.62 |  4:18.00 |     83612    |   102961
        6  | 22:52.62 |  4:37.08 |    102962    |   123744
        7  | 27:29.70 |  5:18.20 |    123745    |   147614
        8  | 32:48.15 |  4:32.60 |    147615    |   168074
        9  | 37:21.00 |  4:15.37 |    168075    |   187236
       10  | 41:36.37 |  4:53.48 |    187237    |   209259
Range status and errors
Selected range
     Filename G:\EAC - Hellixxx rip\UFO - 1985 - Misdemeanor (TOCP-7206).wav
     Peak level 100.0 %
     Extraction speed 6.9 X
     Range quality 99.9 %
     Test CRC 1B38004D
     Copy CRC 1B38004D
     Copy OK
No errors occurred
AccurateRip summary
Track  1  accurately ripped (confidence 2)  [6321BBA1]  (AR v2)
Track  2  accurately ripped (confidence 2)  [727A44DE]  (AR v2)
Track  3  accurately ripped (confidence 2)  [ECA6DD79]  (AR v2)
Track  4  accurately ripped (confidence 2)  [7AEB7A3B]  (AR v2)
Track  5  accurately ripped (confidence 2)  [10139595]  (AR v2)
Track  6  accurately ripped (confidence 2)  [861D166E]  (AR v2)
Track  7  accurately ripped (confidence 2)  [76E17768]  (AR v2)
Track  8  accurately ripped (confidence 2)  [9D63FF45]  (AR v2)
Track  9  accurately ripped (confidence 2)  [AE90A673]  (AR v2)
Track 10  accurately ripped (confidence 2)  [3B05BD0E]  (AR v2)
All tracks accurately ripped
End of status report

содержание индексной карты *cue

REM GENRE "Hard Rock"
REM DATE 1985
REM DISCID 820AE60A
REM COMMENT "ExactAudioCopy v1.1"
PERFORMER "UFO"
TITLE "Misdemeanor"
FILE "UFO - 1985 - Misdemeanor (TOCP-7206).flac" WAVE
  TRACK 01 AUDIO
    TITLE "This Time"
    PERFORMER "UFO"
    INDEX 01 00:00:00
  TRACK 02 AUDIO
    TITLE "One Heart"
    PERFORMER "UFO"
    INDEX 00 04:34:15
    INDEX 01 04:36:40
  TRACK 03 AUDIO
    TITLE "Night Run"
    PERFORMER "UFO"
    INDEX 00 08:43:65
    INDEX 01 08:46:07
  TRACK 04 AUDIO
    TITLE "The Only Ones"
    PERFORMER "UFO"
    INDEX 00 13:16:42
    INDEX 01 13:18:45
  TRACK 05 AUDIO
    TITLE "Meanstreets"
    PERFORMER "UFO"
    INDEX 00 18:33:52
    INDEX 01 18:34:62
  TRACK 06 AUDIO
    TITLE "Name of Love"
    PERFORMER "UFO"
    INDEX 00 22:51:60
    INDEX 01 22:52:62
  TRACK 07 AUDIO
    TITLE "Blue"
    PERFORMER "UFO"
    INDEX 00 27:28:25
    INDEX 01 27:29:70
  TRACK 08 AUDIO
    TITLE "Dream The Dream"
    PERFORMER "UFO"
    INDEX 00 32:45:30
    INDEX 01 32:48:15
  TRACK 09 AUDIO
    TITLE "Heaven's Gate"
    PERFORMER "UFO"
    INDEX 00 37:19:05
    INDEX 01 37:21:00
  TRACK 10 AUDIO
    TITLE "Wreckless"
    PERFORMER "UFO"
    INDEX 00 41:35:25
    INDEX 01 41:36:37
--Не забываем говорить
[Профиль] [ЛС]
Показать сообщения:    

Текущее время: Сегодня 13:51

Часовой пояс: GMT



Вы не можете начинать темы
Вы не можете отвечать на сообщения
Вы не можете редактировать свои сообщения
Вы не можете удалять свои сообщения
Вы не можете голосовать в опросах
Вы не можете прикреплять файлы к сообщениям
Вы не можете скачивать файлы