(Heavy Metal) U.D.O. - Steelhammer (Japanese Edition) - 2013, FLAC (image + .cue), lossless

 
Автор Сообщение

sergej644 ®

Пол:

Стаж: 4 года 11 месяцев

Сообщений: 6042

Откуда: Soviet Union



Награды: Нет

Торрент-статистика

Создавать темы 01-Дек-2014 18:09

[Цитировать]

--U.D.O. - Steelhammer (Japanese Edition)

Страна: Germany
Страна производитель диска: JAPAN
Жанр: Heavy Metal
Год выпуска: 2013
Издатель: (Лейбл) Avalon
Номер по каталогу: MICP-11097
Формат: FLAC
Тип рипа: image+cue
Битрейт аудио: lossless
Продолжительность: 01:06:10
Полиграфия: присутствует


CD | 01:06:10

01.Steelhammer (03:23)
02.A Cry Of A Nation (05:41)
03.Metal Machine (04:46)
04.Basta Ya (04:33)
05.Heavy Rain (02:25)
06.Devil's Bite (05:05)
07.Death Ride (04:08)
08.King Of Mean (04:07)
09.Timekeeper (04:26)
10.Never Cross My Way (04:23)
11.Take My Medicine (05:07)
12.Stay True (04:04)
13.When Love Becomes A Lie (04:12)
14.Book Of Faith (05:12)
15.Dust And Rust (bonus track) (04:31)

лог создания рипа

Exact Audio Copy V1.0 beta 3 from 29. August 2011
EAC extraction logfile from 1. June 2013, 22:43
U.D.O. / Steelhammer
Used drive  : PIONEER DVD-RW  DVR-115D   Adapter: 1  ID: 0
Read mode               : Secure
Utilize accurate stream : Yes
Defeat audio cache      : Yes
Make use of C2 pointers : No
Read offset correction                      : 48
Overread into Lead-In and Lead-Out          : No
Fill up missing offset samples with silence : Yes
Delete leading and trailing silent blocks   : No
Null samples used in CRC calculations       : Yes
Used interface                              : Native Win32 interface for Win NT & 2000
Used output format : Internal WAV Routines
Sample format      : 44.100 Hz; 16 Bit; Stereo
TOC of the extracted CD
     Track |   Start  |  Length  | Start sector | End sector
    ---------------------------------------------------------
        1  |  0:00.00 |  3:23.54 |         0    |    15278
        2  |  3:23.54 |  5:41.18 |     15279    |    40871
        3  |  9:04.72 |  4:46.07 |     40872    |    62328
        4  | 13:51.04 |  4:33.27 |     62329    |    82830
        5  | 18:24.31 |  2:25.06 |     82831    |    93711
        6  | 20:49.37 |  5:05.70 |     93712    |   116656
        7  | 25:55.32 |  4:08.68 |    116657    |   135324
        8  | 30:04.25 |  4:07.18 |    135325    |   153867
        9  | 34:11.43 |  4:26.36 |    153868    |   173853
       10  | 38:38.04 |  4:23.35 |    173854    |   193613
       11  | 43:01.39 |  5:07.55 |    193614    |   216693
       12  | 48:09.19 |  4:04.64 |    216694    |   235057
       13  | 52:14.08 |  4:12.55 |    235058    |   254012
       14  | 56:26.63 |  5:12.49 |    254013    |   277461
       15  | 61:39.37 |  4:31.17 |    277462    |   297803
Range status and errors
Selected range
     Filename C:\Music\U.D.O. - Steelhammer (Japanese Edition) - 2013\U.D.O. - Steelhammer.wav
     Peak level 98.8 %
     Extraction speed 7.6 X
     Range quality 99.9 %
     Test CRC 59432DDC
     Copy CRC 59432DDC
     Copy OK
No errors occurred
AccurateRip summary
Track  1  not present in database
Track  2  not present in database
Track  3  not present in database
Track  4  not present in database
Track  5  not present in database
Track  6  not present in database
Track  7  not present in database
Track  8  not present in database
Track  9  not present in database
Track 10  not present in database
Track 11  not present in database
Track 12  not present in database
Track 13  not present in database
Track 14  not present in database
Track 15  not present in database
None of the tracks are present in the AccurateRip database
End of status report

содержание индексной карты *cue

REM GENRE "Heavy Metal"
REM DATE 2013
REM DISCID BD0F820F
REM COMMENT "ExactAudioCopy v1.0b3"
PERFORMER "U.D.O."
TITLE "Steelhammer "
FILE "U.D.O. - Steelhammer.flac" WAVE
  TRACK 01 AUDIO
    TITLE "Steelhammer"
    PERFORMER "U.D.O."
    INDEX 01 00:00:00
  TRACK 02 AUDIO
    TITLE "A Cry Of A Nation"
    PERFORMER "U.D.O."
    INDEX 01 03:23:54
  TRACK 03 AUDIO
    TITLE "Metal Machine"
    PERFORMER "U.D.O."
    INDEX 01 09:04:72
  TRACK 04 AUDIO
    TITLE "Basta Ya"
    PERFORMER "U.D.O."
    INDEX 01 13:51:04
  TRACK 05 AUDIO
    TITLE "Heavy Rain"
    PERFORMER "U.D.O."
    INDEX 01 18:24:31
  TRACK 06 AUDIO
    TITLE "Devil's Bite"
    PERFORMER "U.D.O."
    INDEX 01 20:49:37
  TRACK 07 AUDIO
    TITLE "Death Ride"
    PERFORMER "U.D.O."
    INDEX 01 25:55:32
  TRACK 08 AUDIO
    TITLE "King Of Mean"
    PERFORMER "U.D.O."
    INDEX 01 30:04:25
  TRACK 09 AUDIO
    TITLE "Timekeeper"
    PERFORMER "U.D.O."
    INDEX 01 34:11:43
  TRACK 10 AUDIO
    TITLE "Never Cross My Way"
    PERFORMER "U.D.O."
    INDEX 01 38:38:04
  TRACK 11 AUDIO
    TITLE "Take My Medicine"
    PERFORMER "U.D.O."
    INDEX 01 43:01:39
  TRACK 12 AUDIO
    TITLE "Stay True"
    PERFORMER "U.D.O."
    INDEX 01 48:09:19
  TRACK 13 AUDIO
    TITLE "When Love Becomes A Lie"
    PERFORMER "U.D.O."
    INDEX 01 52:14:08
  TRACK 14 AUDIO
    TITLE "Book Of Faith "
    PERFORMER "U.D.O."
    INDEX 01 56:26:63
  TRACK 15 AUDIO
    TITLE "Dust And Rust (bonus track)"
    PERFORMER "U.D.O."
    INDEX 01 61:39:37
--Не забываем говорить --
[Профиль] [ЛС]
Показать сообщения:    

Текущее время: Сегодня 10:34

Часовой пояс: GMT



Вы не можете начинать темы
Вы не можете отвечать на сообщения
Вы не можете редактировать свои сообщения
Вы не можете удалять свои сообщения
Вы не можете голосовать в опросах
Вы не можете прикреплять файлы к сообщениям
Вы не можете скачивать файлы