(Heavy Metal) UDO (U.D.O.) - Navy Metal Night (2CD) - 2015 [FLAC, image+.cue, lossless]

 
Автор Сообщение

sergej644 ®

Пол:

Стаж: 4 года 11 месяцев

Сообщений: 6038

Откуда: Soviet Union



Награды: Нет

Торрент-статистика

Создавать темы 05-Авг-2015 19:14

[Цитировать]

-UDO (U.D.O.) - Navy Metal Night (2CD)-- Год издания: 2015
Страна: Germany
Жанр: Heavy Metal
Продолжительность: 01:36:15-Лейбл издания: AFM Records
Страна-выпуска диска: Germany
Номер по каталогу: AFM 525-7
Формат: FLAC
Битрейт аудио: lossless
Тип рипа: image+.cue
Наличие сканов в содержимом раздачи: да
-

Трэклист

CD 1 | 00:49:08

01.Intro (Das Boot) (00:47)
02.Das Boot (04:59)
03.Future Land (07:10)
04.Independence Day (05:41)
05.Animal Instinct (04:22)
06.The Hall Of The Mountain King (03:29)
07.Heart Of Gold (04:56)
08.Man And Machine (06:14)
09.Dancing With An Angel (feat. Doro Pesch) (04:55)
10.Faceless World (06:40)

CD 2 | 00:47:08

01.Ride (04:09)
02.Days Of Hope And Glory (05:16)
03.Cut Me Out (05:08)
04.Trainride In Russia (Poezd Po Rossii) (07:38)
05.Stillness Of Time (06:45)
06.King Of Mean (06:57)
07.Book Of Faith (06:26)
08.Animal House (04:53)

Лог создания рипа

CD 1

Exact Audio Copy V1.0 beta 3 from 29. August 2011
EAC extraction logfile from 5. August 2015, 13:57
U.D.O. / Navy Metal Night (CD1)
Used drive  : ATAPI   iHAS122   W   Adapter: 2  ID: 0
Read mode               : Secure
Utilize accurate stream : Yes
Defeat audio cache      : Yes
Make use of C2 pointers : No
Read offset correction                      : 48
Overread into Lead-In and Lead-Out          : No
Fill up missing offset samples with silence : Yes
Delete leading and trailing silent blocks   : No
Null samples used in CRC calculations       : Yes
Used interface                              : Installed external ASPI interface
Used output format              : User Defined Encoder
Selected bitrate                : 1024 kBit/s
Quality                         : High
Add ID3 tag                     : No
Command line compressor         : C:\Program Files\FLAC\flac.exe
Additional command line options : -V -8 -T "Date=%year%" -T "Genre=%genre%" -T"COMMENT=Ripped by  Ilijan" -8 -V %source%
TOC of the extracted CD
     Track |   Start  |  Length  | Start sector | End sector
    ---------------------------------------------------------
        1  |  0:00.00 |  0:46.55 |         0    |     3504
        2  |  0:46.55 |  4:58.08 |      3505    |    25862
        3  |  5:44.63 |  7:09.16 |     25863    |    58053
        4  | 12:54.04 |  5:40.37 |     58054    |    83590
        5  | 18:34.41 |  4:21.34 |     83591    |   103199
        6  | 22:56.00 |  3:28.41 |    103200    |   118840
        7  | 26:24.41 |  4:55.34 |    118841    |   140999
        8  | 31:20.00 |  6:13.50 |    141000    |   169024
        9  | 37:33.50 |  4:54.32 |    169025    |   191106
       10  | 42:28.07 |  6:39.41 |    191107    |   221072
Range status and errors
Selected range
     Filename D:\ИЛИЯН\U.D.O. - Navy Metal Night (CD1).wav
     Peak level 98.9 %
     Extraction speed 3.8 X
     Range quality 100.0 %
     Test CRC 910168E9
     Copy CRC 910168E9
     Copy OK
No errors occurred
AccurateRip summary
Track  1  not present in database
Track  2  not present in database
Track  3  not present in database
Track  4  not present in database
Track  5  not present in database
Track  6  not present in database
Track  7  not present in database
Track  8  not present in database
Track  9  not present in database
Track 10  not present in database
None of the tracks are present in the AccurateRip database
End of status report
---- CUETools DB Plugin V2.1.3
[CTDB TOCID: EidxHAZiSoQElPIDQvTDTPIGh1E-] found, Submit result: EidxHAZiSoQElPIDQvTDTPIGh1E- has been confirmed
[4c4232e0] (1/1) Accurately ripped

CD 2

Exact Audio Copy V1.0 beta 3 from 29. August 2011
EAC extraction logfile from 5. August 2015, 14:27
U.D.O. / Navy Metal Night (CD2)
Used drive  : ATAPI   iHAS122   W   Adapter: 2  ID: 0
Read mode               : Secure
Utilize accurate stream : Yes
Defeat audio cache      : Yes
Make use of C2 pointers : No
Read offset correction                      : 48
Overread into Lead-In and Lead-Out          : No
Fill up missing offset samples with silence : Yes
Delete leading and trailing silent blocks   : No
Null samples used in CRC calculations       : Yes
Used interface                              : Installed external ASPI interface
Used output format              : User Defined Encoder
Selected bitrate                : 1024 kBit/s
Quality                         : High
Add ID3 tag                     : No
Command line compressor         : C:\Program Files\FLAC\flac.exe
Additional command line options : -V -8 -T "Date=%year%" -T "Genre=%genre%" -T"COMMENT=Ripped by  Ilijan" -8 -V %source%
TOC of the extracted CD
     Track |   Start  |  Length  | Start sector | End sector
    ---------------------------------------------------------
        1  |  0:00.00 |  4:08.25 |         0    |    18624
        2  |  4:08.25 |  5:15.48 |     18625    |    42297
        3  |  9:23.73 |  5:07.32 |     42298    |    65354
        4  | 14:31.30 |  7:37.49 |     65355    |    99678
        5  | 22:09.04 |  6:44.13 |     99679    |   129991
        6  | 28:53.17 |  6:56.15 |    129992    |   161206
        7  | 35:49.32 |  6:25.51 |    161207    |   190132
        8  | 42:15.08 |  4:52.03 |    190133    |   212035
Range status and errors
Selected range
     Filename D:\ИЛИЯН\U.D.O. - Navy Metal Night (CD2).wav
     Peak level 98.9 %
     Extraction speed 3.8 X
     Range quality 100.0 %
     Test CRC B4D4A663
     Copy CRC B4D4A663
     Copy OK
No errors occurred
AccurateRip summary
Track  1  not present in database
Track  2  not present in database
Track  3  not present in database
Track  4  not present in database
Track  5  not present in database
Track  6  not present in database
Track  7  not present in database
Track  8  not present in database
None of the tracks are present in the AccurateRip database
End of status report
---- CUETools DB Plugin V2.1.3
[CTDB TOCID: GD6BKuVmR84cNc9JF0NLT8n6OuU-] found, Submit result: GD6BKuVmR84cNc9JF0NLT8n6OuU- has been confirmed
[88928eba] (1/1) Accurately ripped

Индексная карта (non-compilant .cue)

CD 1

REM GENRE "Heavy Metal"
REM DATE 2015
REM DISCID 8C0B830A
REM COMMENT "ExactAudioCopy v1.0b3"
PERFORMER "U.D.O."
TITLE "Navy Metal Night (CD1)"
FILE "U.D.O. - Navy Metal Night (CD1).wav" WAVE
  TRACK 01 AUDIO
    TITLE "Intro (Das Boot)"
    PERFORMER "U.D.O."
    INDEX 01 00:00:00
  TRACK 02 AUDIO
    TITLE "Das Boot"
    PERFORMER "U.D.O."
    INDEX 01 00:46:55
  TRACK 03 AUDIO
    TITLE "Future Land"
    PERFORMER "U.D.O."
    INDEX 01 05:44:63
  TRACK 04 AUDIO
    TITLE "Independence Day"
    PERFORMER "U.D.O."
    INDEX 01 12:54:04
  TRACK 05 AUDIO
    TITLE "Animal Instinct"
    PERFORMER "U.D.O."
    INDEX 01 18:34:41
  TRACK 06 AUDIO
    TITLE "The Hall Of The Mountain King"
    PERFORMER "U.D.O."
    INDEX 01 22:56:00
  TRACK 07 AUDIO
    TITLE "Heart Of Gold"
    PERFORMER "U.D.O."
    INDEX 01 26:24:41
  TRACK 08 AUDIO
    TITLE "Man And Machine"
    PERFORMER "U.D.O."
    INDEX 01 31:20:00
  TRACK 09 AUDIO
    TITLE "Dancing With An Angel (feat. Doro Pesch)"
    PERFORMER "U.D.O."
    INDEX 01 37:33:50
  TRACK 10 AUDIO
    TITLE "Faceless World"
    PERFORMER "U.D.O."
    INDEX 01 42:28:07

CD 2

REM GENRE "Heavy Metal"
REM DATE 2015
REM DISCID 5D0B0B08
REM COMMENT "ExactAudioCopy v1.0b3"
PERFORMER "U.D.O."
TITLE "Navy Metal Night (CD2)"
FILE "U.D.O. - Navy Metal Night (CD2).wav" WAVE
  TRACK 01 AUDIO
    TITLE "Ride"
    PERFORMER "U.D.O."
    INDEX 01 00:00:00
  TRACK 02 AUDIO
    TITLE "Days Of Hope And Glory"
    PERFORMER "U.D.O."
    INDEX 01 04:08:25
  TRACK 03 AUDIO
    TITLE "Cut Me Out"
    PERFORMER "U.D.O."
    INDEX 01 09:23:73
  TRACK 04 AUDIO
    TITLE "Trainride In Russia (Poezd Po Rossii)"
    PERFORMER "U.D.O."
    INDEX 01 14:31:30
  TRACK 05 AUDIO
    TITLE "Stillness Of Time"
    PERFORMER "U.D.O."
    INDEX 01 22:09:04
  TRACK 06 AUDIO
    TITLE "King Of Mean"
    PERFORMER "U.D.O."
    INDEX 01 28:53:17
  TRACK 07 AUDIO
    TITLE "Book Of Faith"
    PERFORMER "U.D.O."
    INDEX 01 35:49:32
  TRACK 08 AUDIO
    TITLE "Animal House"
    PERFORMER "U.D.O."
    INDEX 01 42:15:08
--Не забываем говорить
[Профиль] [ЛС]
Показать сообщения:    

Текущее время: Сегодня 08:29

Часовой пояс: GMT



Вы не можете начинать темы
Вы не можете отвечать на сообщения
Вы не можете редактировать свои сообщения
Вы не можете удалять свои сообщения
Вы не можете голосовать в опросах
Вы не можете прикреплять файлы к сообщениям
Вы не можете скачивать файлы