(Hard & Heavy) Twisted Sister - You Can't Stop Rock 'n' Roll - 1983 [FLAC, image +.cue, lossless]

 
Автор Сообщение

sergej644 ®

Пол:

Стаж: 4 года 11 месяцев

Сообщений: 6041

Откуда: Soviet Union



Награды: Нет

Торрент-статистика

Создавать темы 24-Июл-2016 10:54

[Цитировать]

-Twisted Sister - You Can't Stop Rock 'n' Roll--
Год издания: 1983
Страна: USA
Жанр: Hard & Heavy
Продолжительность: 00:38:09-Лейбл издания: Atlantic
Страна-выпуска диска: Germany
Номер по каталогу: 7567-80074-2-Формат: Ape
Битрейт аудио: Lossless
Тип рипа: image +.cue
Наличие сканов в содержимом раздачи: да
-

Трэклист


01. The Kids Are Back (3:17)
02. Like a Knife in the Back (3:05)
03. Ride to Live,Live to Ride (4:05)
04. I Am(I'm Me) (3:36)
05. The Power and the Glory (4:22)
06. We're Gonna Make It (3:45)
07. I've Had Enough (4:03)
08. I'll Take You Alive (3:07)
09. You're Not Alone(Suzette's Song) (4:06)
10. You Can't Stop Rock'n'Roll (4:42)
-

Лог создания рипа

Exact Audio Copy V0.99 prebeta 5 from 4. May 2009
EAC extraction logfile from 6. July 2016, 7:20
Twisted Sister / You Can't Stop Rock'n'Roll
Used drive  : ASUS    DRW-20B1ST   Adapter: 3  ID: 0
Read mode               : Secure
Utilize accurate stream : Yes
Defeat audio cache      : Yes
Make use of C2 pointers : No
Read offset correction                      : 6
Overread into Lead-In and Lead-Out          : No
Fill up missing offset samples with silence : Yes
Delete leading and trailing silent blocks   : No
Null samples used in CRC calculations       : Yes
Used interface                              : Native Win32 interface for Win NT & 2000
Used output format              : Monkey's Audio Lossless Encoder
Selected bitrate                : High Lossless Compression
Quality                         : High
Add ID3 tag                     : No
Command line compressor         : C:\Program Files (x86)\Monkey's Audio\MAC.exe
Additional command line options :  %source% %dest% -c3000
Use compression offset          : 0
TOC of the extracted CD
     Track |   Start  |  Length  | Start sector | End sector
    ---------------------------------------------------------
        1  |  0:00.00 |  3:17.25 |         0    |    14799
        2  |  3:17.25 |  3:04.65 |     14800    |    28664
        3  |  6:22.15 |  4:05.30 |     28665    |    47069
        4  | 10:27.45 |  3:35.45 |     47070    |    63239
        5  | 14:03.15 |  4:22.27 |     63240    |    82916
        6  | 18:25.42 |  3:44.73 |     82917    |    99789
        7  | 22:10.40 |  4:03.10 |     99790    |   118024
        8  | 26:13.50 |  3:07.07 |    118025    |   132056
        9  | 29:20.57 |  4:06.28 |    132057    |   150534
       10  | 33:27.10 |  4:41.67 |    150535    |   171676
Range status and errors
Selected range
     Filename E:\Twisted Sister - You Can't Stop Rock'n'Roll.wav
     Peak level 100.0 %
     Range quality 100.0 %
     Copy CRC 98C7E35B
     Copy OK
No errors occurred
AccurateRip summary
Track  1  accurately ripped (confidence 4)  [0ACE12E9]
Track  2  accurately ripped (confidence 4)  [FD874FC9]
Track  3  accurately ripped (confidence 4)  [27C6CB17]
Track  4  accurately ripped (confidence 4)  [A8C61ACB]
Track  5  accurately ripped (confidence 4)  [32E816B7]
Track  6  accurately ripped (confidence 4)  [C4864739]
Track  7  accurately ripped (confidence 4)  [86DD073E]
Track  8  accurately ripped (confidence 4)  [5E0E579C]
Track  9  accurately ripped (confidence 4)  [004C68AA]
Track 10  accurately ripped (confidence 4)  [9A66F0E8]
All tracks accurately ripped
End of status report

Индексная карта (non-compilant .cue)

REM GENRE "Heavy Metal"
REM DATE 1983
REM DISCID 8508F10A
REM COMMENT "ExactAudioCopy v0.99pb5"
PERFORMER "Twisted Sister"
TITLE "You Can't Stop Rock'n'Roll"
FILE "Twisted Sister - You Can't Stop Rock'n'Roll.ape" WAVE
TRACK 01 AUDIO
    TITLE "The Kids Are Back"
    PERFORMER "Twisted Sister"
    INDEX 01 00:00:00
  TRACK 02 AUDIO
    TITLE "Like a Knife in the Back"
    PERFORMER "Twisted Sister"
    INDEX 01 03:17:25
  TRACK 03 AUDIO
    TITLE "Ride to Live,Live to Ride"
    PERFORMER "Twisted Sister"
    INDEX 01 06:22:15
  TRACK 04 AUDIO
    TITLE "I Am(I'm Me)"
    PERFORMER "Twisted Sister"
    INDEX 00 10:26:67
    INDEX 01 10:27:45
  TRACK 05 AUDIO
    TITLE "The Power and the Glory"
    PERFORMER "Twisted Sister"
    INDEX 01 14:03:15
  TRACK 06 AUDIO
    TITLE "We're Gonna Make It"
    PERFORMER "Twisted Sister"
    INDEX 00 18:25:00
    INDEX 01 18:25:42
  TRACK 07 AUDIO
    TITLE "I've Had Enough"
    PERFORMER "Twisted Sister"
    INDEX 01 22:10:40
  TRACK 08 AUDIO
    TITLE "I'll Take You Alive"
    PERFORMER "Twisted Sister"
    INDEX 01 26:13:50
  TRACK 09 AUDIO
    TITLE "You're Not Alone(Suzette's Song)"
    PERFORMER "Twisted Sister"
    INDEX 01 29:20:57
  TRACK 10 AUDIO
    TITLE "You Can't Stop Rock'n'Roll"
    PERFORMER "Twisted Sister"
    INDEX 00 33:24:27
    INDEX 01 33:27:10
--
[Профиль] [ЛС]
Показать сообщения:    

Текущее время: Сегодня 18:58

Часовой пояс: GMT



Вы не можете начинать темы
Вы не можете отвечать на сообщения
Вы не можете редактировать свои сообщения
Вы не можете удалять свои сообщения
Вы не можете голосовать в опросах
Вы не можете прикреплять файлы к сообщениям
Вы не можете скачивать файлы