(Symphonic Power Metal) Turilli/ Lione Rhapsody - Zero Gravity (Rebird And Evolution) - 2019 [WavPack, image +.cue, lossless]

 
Author Message

sergej644 ®

Gender:

Longevity: 7 years 10 months

Posts: 7299



: 10 ()

Mega Seeder 1 (1) Mega Seeder 2 (1) Top Seeder 2 (1)
Торрент-статистика

Post 29-Oct-2019 23:09

[Quote]

-Turilli/ Lione Rhapsody - Zero Gravity (Rebird And Evolution)--
Год издания: 2019
Страна: Italy
Жанр: Symphonic Power Metal
Продолжительность: 00:57:52-Лейбл издания: King Records
Страна-выпуска диска: Japan
Номер по каталогу: KICP 1991-Формат: WavPack
Битрейт аудио: Lossless
Тип рипа: image +.cue
Наличие сканов в содержимом раздачи: да
-

Трэклист


01. Phoenix Rising (6:15)
02. D.N.A. (4:20)
03. Zero Gravity (5:53)
04. Fast Radio Burst (5:08)
05. Decoding The Multiverse (6:19)
06. Origins (2:27)
07. Multidimensional (4:43)
08. Amata Immortale (5:05)
09. I Am (7:15)
10. Arcanum (6:25)
11. Oceano (Bonus Track) (4:03)
-

Лог создания рипа

Exact Audio Copy V1.3 from 2. September 2016
EAC extraction logfile from 2. August 2019, 12:52
Turilli - Lione Rhapsody / Zero Gravity (Rebird And Evolution) (Japanese Edition)
Used drive  : HL-DT-STDVDRAM GH24NSD1   Adapter: 1  ID: 0
Read mode               : Secure
Utilize accurate stream : Yes
Defeat audio cache      : Yes
Make use of C2 pointers : No
Read offset correction                      : 6
Overread into Lead-In and Lead-Out          : No
Fill up missing offset samples with silence : Yes
Delete leading and trailing silent blocks   : No
Null samples used in CRC calculations       : Yes
Used interface                              : Native Win32 interface for Win NT & 2000
Used output format              : User Defined Encoder
Selected bitrate                : 896 kBit/s
Quality                         : High
Add ID3 tag                     : No
Command line compressor         : C:\Program Files (x86)\Exact Audio Copy\wavpack.exe
Additional command line options : -hm %source% %dest%
TOC of the extracted CD
     Track |   Start  |  Length  | Start sector | End sector
    ---------------------------------------------------------
        1  |  0:00.00 |  6:14.65 |         0    |    28114
        2  |  6:14.65 |  4:19.38 |     28115    |    47577
        3  | 10:34.28 |  5:53.37 |     47578    |    74089
        4  | 16:27.65 |  5:07.38 |     74090    |    97152
        5  | 21:35.28 |  6:19.00 |     97153    |   125577
        6  | 27:54.28 |  2:27.02 |    125578    |   136604
        7  | 30:21.30 |  4:42.73 |    136605    |   157827
        8  | 35:04.28 |  5:04.56 |    157828    |   180683
        9  | 40:09.09 |  7:15.00 |    180684    |   213308
       10  | 47:24.09 |  6:25.00 |    213309    |   242183
       11  | 53:49.09 |  4:02.53 |    242184    |   260386
Range status and errors
Selected range
     Filename E:\Turilli - Lione Rhapsody - 2019 - Zero Gravity (Rebirth And Evolution) (Japanese Edition)\Turilli - Lione Rhapsody - Zero Gravity (Rebird And Evolution) (Japanese Edition).wav
     Peak level 98.8 %
     Extraction speed 1.3 X
     Range quality 100.0 %
     Test CRC AE607DB6
     Copy CRC AE607DB6
     Copy OK
No errors occurred
AccurateRip summary
Track  1  not present in database
Track  2  not present in database
Track  3  not present in database
Track  4  not present in database
Track  5  not present in database
Track  6  not present in database
Track  7  not present in database
Track  8  not present in database
Track  9  not present in database
Track 10  not present in database
Track 11  not present in database
None of the tracks are present in the AccurateRip database
End of status report

Индексная карта (non-compilant .cue)

REM GENRE "Symphonic Power Metal"
REM DATE 2019
REM DISCID 9E0D8F0B
REM COMMENT "ExactAudioCopy v1.3"
PERFORMER "Turilli - Lione Rhapsody"
TITLE "Zero Gravity (Rebird And Evolution) (Japanese Edition)"
FILE "Turilli - Lione Rhapsody - 2019 - Zero Gravity (Rebird And Evolution) (Japanese Edition).wv" WAVE
  TRACK 01 AUDIO
    TITLE "Phoenix Rising"
    PERFORMER ""
    INDEX 01 00:00:00
  TRACK 02 AUDIO
    TITLE "D.N.A."
    PERFORMER ""
    INDEX 01 06:14:65
  TRACK 03 AUDIO
    TITLE "Zero Gravity"
    PERFORMER ""
    INDEX 01 10:34:28
  TRACK 04 AUDIO
    TITLE "Fast Radio Burst"
    PERFORMER ""
    INDEX 01 16:27:65
  TRACK 05 AUDIO
    TITLE "Decoding The Multiverse"
    PERFORMER ""
    INDEX 01 21:35:28
  TRACK 06 AUDIO
    TITLE "Origins"
    PERFORMER ""
    INDEX 01 27:54:28
  TRACK 07 AUDIO
    TITLE "Multidimensional"
    PERFORMER ""
    INDEX 01 30:21:30
  TRACK 08 AUDIO
    TITLE "Amata Immortale"
    PERFORMER ""
    INDEX 01 35:04:28
  TRACK 09 AUDIO
    TITLE "I Am"
    PERFORMER ""
    INDEX 01 40:09:09
  TRACK 10 AUDIO
    TITLE "Arcanum"
    PERFORMER ""
    INDEX 01 47:24:09
  TRACK 11 AUDIO
    TITLE "Oceano (Bonus Track)"
    PERFORMER ""
    INDEX 01 53:49:09
-

для ознакомления:

https://www.youtube.com/watch?v=UWGG7FSLUsQ
--
[Profile] [PM]
Display posts from previous:    

The time now is: Today 06:32

All times are GMT



You cannot post new topics in this forum
You cannot reply to topics in this forum
You cannot edit your posts in this forum
You cannot delete your posts in this forum
You cannot vote in polls in this forum
You cannot attach files in this forum
You cannot download files in this forum