Triggerfinger • Deichbrand Festival [2014, Hard rock, Blues rock, HDTV 720p]

 
Автор Сообщение

reversefile ®

Пол:

Стаж: 4 года 5 месяцев

Сообщений: 842

Откуда: ReverseFile.org



Награды: Нет

Торрент-статистика

Создавать темы 11-Авг-2014 18:53

[Цитировать]


Triggerfinger


Жанр: Hard rock, Blues rock
Продолжительность: 00:56:21
Год выпуска: 2014
Качество: HDTV 720p
Контейнер: TS
Видео кодек: H.264
Аудио кодек: AC3
Видео: MPEG4 Video (H264) 1280x720 50fps 12.1 Mbps
Аудио: Dolby AC3 48000Hz stereo 448kbps

Треклист

01.Game
02.By Absence of the Sun
03.On My Knees
04.Perfect Match
05.My Baby's Got a Gun
06.Camaro
07.Let It Ride
08.All This Dancin' Around
09.Cherry

Отчёт MediaInfo / BDInfo

GeneralID : 1 (0x1)Complete name : L:\Triggerfinger - Deichbrand Festival 2014.tsFormat : MPEG-TSFile size : 5.22 GiBDuration : 56mn 21sOverall bit rate mode : VariableOverall bit rate : 13.2 Mbps
VideoID : 5421 (0x152D)Menu ID : 1 (0x1)Format : AVCFormat/Info : Advanced Video CodecFormat profile : High@L4.0Format settings, CABAC : YesFormat settings, ReFrames : 4 framesCodec ID : 27Duration : 56mn 21sBit rate : 12.1 MbpsWidth : 1 280 pixelsHeight : 720 pixelsDisplay aspect ratio : 16:9Frame rate : 50.000 fpsColor space : YUVChroma subsampling : 4:2:0Bit depth : 8 bitsScan type : ProgressiveBits/(Pixel*Frame) : 0.264Stream size : 4.78 GiB (92%)
AudioID : 5426 (0x1532)Menu ID : 1 (0x1)Format : AC-3Format/Info : Audio Coding 3Mode extension : CM (complete main)Format settings, Endianness : BigCodec ID : 6Duration : 56mn 21sBit rate mode : ConstantBit rate : 448 KbpsChannel(s) : 2 channelsChannel positions : Front: L RSampling rate : 48.0 KHzBit depth : 16 bitsCompression mode : LossyStream size : 181 MiB (3%)Language : German
[Профиль] [ЛС]
Кто просматривает тему:

Показать сообщения:    

Текущее время: Сегодня 06:03

Часовой пояс: GMT



Вы не можете начинать темы
Вы не можете отвечать на сообщения
Вы не можете редактировать свои сообщения
Вы не можете удалять свои сообщения
Вы не можете голосовать в опросах
Вы не можете прикреплять файлы к сообщениям
Вы не можете скачивать файлы