Travel Channel: Легенды старого замка / Castle Secrets & Legends [сезон 1 серии 1-5 из 5] (Рэми Вэбер) [2014 г., Документальный, приключения, образование, история, путешествия, HDTVRip-AVC 720p]

 
Автор Сообщение

skorpionN ®

Пол:

Стаж: 1 год 8 месяцев

Сообщений: 591



Награды: 4 (Подробнее)

Top Releaser 2 (Количество: 1) Mega Seeder 1 (Количество: 1) Mega Seeder 3 (Количество: 1)
Торрент-статистика

Создавать темы 20-Мар-2015 09:10

[Цитировать]

Travel Channel: Легенды старого замка / Castle Secrets & Legends [сезон 1 серии 1-5 из 5]
Год выпуска: 2014
Страна: США, Travel Channel, Optomen Productions
Жанр: Документальный, приключения, образование, история, путешествия
Продолжительность: 5 x ~ 00:40:29
Перевод: Профессиональный (одноголосый)
Режиссер: Рэми Вэбер
Качество: HDTVRip-AVC 720p
Формат: MKV
Видео кодек: H.26x
Аудио кодек: AC3
Видео: 1280x720 25fps 5579 Kbps
Аудио: AC3, 2ch, 192 kbps, 48 kHz
Описание: Этот оригинальный сериал переносит зрителя в необычайное и захватывающее историческое путешествие территорией стран всего мира. От вдохновения Мэри Шелли "Франкенштейн" к "Человек в железной маске", каждый эпизод будет включать в себя посещение великолепных замков, удивительных усадеб и великолепных особняков, раскроет невероятные истории, которые происходят в них.
Список серий:

01. Прототип Франкенштейна, проклятие мумии, человек в железной маске / Real Frankenstein, Mummy Curse, Man in the Iron Mask

В премьере сезона: скандальный роман между британским министром правительства, танцовщицей, и советским шпионом, английский аристократ сраженный древним проклятием, страшная правда стоящая за классическим романом-ужасов, человек в маске, подлинную личность которого мы никогда не узнаем, скупая миллионерша выбирает между деньгами и собственным сыном- история о жестокости, мести и жадности разыгравшаяся в легендарном особняке Новой Англии, изобретатель Джон Хейс Хаммонд -младший экспериментировавший с клеткой Фарадея и доказывал существование экстрасенсорного восприятия (ESP).

02. Сокровища короны, Маркиз де Сад, загадка Каспара Хаузера / Crown Jewels Heist; Marquis de Sade; Enigma of Kaspar Hauser

Наглый грабёж, произошедший в самой знаменитой цитадели мира, неугомонный дух мстительной жены, кровожадные сестры, сошедшиеся в битве за корону, необъяснимая история таинственного дитя, история о похоти и литературном гении, захватывающее хобби миллионера прокладывает путь в современность Америки, благодаря идеи, вдохновлённой удивительным особняком.

03. Собака Баскервилей, лорд Гордон-Гордон, побег из Колдица / Hound of the Baskervilles, Lord Gordon Gordon, Escape from Colditz

Леденящая кровь история случившаяся на затерянном английском болоте, которая послужила вдохновением для шедевра английской литературы, а сердце этой легенды родовое поместье, скоротечный роман обернувшийся ночным кошмаром,бесстрашный побег из логова врага, легендарная семейная вражда из-за которого юная наследница оказалась пленницей в собственном доме.

04. Дело Тичборна, смерть Вашингтона, Лох-Несская мистификация / The Tichborne Claimant, Washington Resurrection, Loch Ness Hoax

Правда об истории о легендарном чудовище, таинственный незнакомец претендует на фамильное состояние, фантастический план оживить президента, стены итальянской виллы с привидениями хранят страшную тайну, дерзкий план побега императора с острова Эльба, американская наследницы, европейский граф и неудавшийся роман ...

05. Черный обед, манускрипт Войнича, нападение на Сьюарда / The Black Dinner; Voynich Manuscript; Seward Attack

Обреченный роман закончившийся убийством, коварный план свержения американского правительства, спрятанное на видном месте секретное оружие нацистов, юный король мстит мятежнику (по этой истории написано литературное произведение "Игра престолов")

Скриншоты

MediaInfo:

Unique ID : 172897109098666704588518306969583045454 (0x8212C59FE612C781ABDD4D46F24B4B4E)
Complete name : D:\Bittracer\Castle Secrets & Legends\01_Real Frankenstein_Mummy Curse_Man in the Iron Mask.mkv
Format : Matroska
File size : 1.67 GiB
Duration : 40mn 29s
Overall bit rate : 5 888 Kbps
Encoded date : UTC 2014-04-19 19:58:30
Writing application : mkvmerge v5.0.1 ('Es ist Sommer') built on Oct 24 2011 19:45:06
Writing library : libebml v1.2.2 + libmatroska v1.3.0
Video #1
ID : 1
Format : AVC
Format/Info : Advanced Video Codec
Format profile : High@L3.1
Format settings, CABAC : Yes
Format settings, ReFrames : 3 frames
Codec ID : V_MPEG4/ISO/AVC
Duration : 40mn 29s
Bit rate mode : Constant
Bit rate : 5 579 Kbps
Nominal bit rate : 6 000 Kbps / 6 000 Kbps
Width : 1 280 pixels
Height : 720 pixels
Display aspect ratio : 16:9
Frame rate : 25.000 fps
Standard : NTSC
Color space : YUV
Chroma subsampling : 4:2:0
Bit depth : 8 bits
Scan type : Progressive
Bits/(Pixel*Frame) : 0.242
Stream size : 1.58 GiB (95%)
Writing library : x264 core 114
Encoding settings : cabac=1 / ref=3 / deblock=1:0:0 / analyse=0x3:0x113 / me=hex / subme=7 / psy=1 / psy_rd=1.00:0.00 / mixed_ref=1 / me_range=16 / chroma_me=1 / trellis=1 / 8x8dct=1 / cqm=2 / deadzone=21,11 / fast_pskip=1 / chroma_qp_offset=-2 / threads=6 / sliced_threads=0 / slices=1 / nr=0 / decimate=1 / interlaced=0 / constrained_intra=0 / bframes=3 / b_pyramid=0 / b_adapt=1 / b_bias=0 / direct=1 / weightb=1 / open_gop=0 / weightp=2 / keyint=250 / keyint_min=25 / scenecut=40 / intra_refresh=0 / rc_lookahead=40 / rc=cbr / mbtree=1 / bitrate=6000 / ratetol=1.0 / qcomp=0.60 / qpmin=3 / qpmax=69 / qpstep=4 / vbv_maxrate=6000 / vbv_bufsize=5996 / nal_hrd=cbr / ip_ratio=1.40 / aq=1:1.00
Color primaries : BT.709-5, BT.1361, IEC 61966-2-4, SMPTE RP177
Transfer characteristics : BT.709-5, BT.1361
Matrix coefficients : BT.709-5, BT.1361, IEC 61966-2-4 709, SMPTE RP177
Audio #2
ID : 2
Format : AC-3
Format/Info : Audio Coding 3
Mode extension : CM (complete main)
Codec ID : A_AC3
Duration : 40mn 29s
Bit rate mode : Constant
Bit rate : 192 Kbps
Channel(s) : 2 channels
Channel positions : Front: L R
Sampling rate : 48.0 KHz
Bit depth : 16 bits
Compression mode : Lossy
Stream size : 55.6 MiB (3%)
Travel Channel: Легенды старого замка / Castle Secrets & Legends [сезон 1 серии 1-5 из 5]
Travel Channel: Тайны замков / Mysteries at the Castle (Castle Secrets & Legends) [сезон 2 серии 1-13 из 13]
Travel Channel: Тайны замков / Mysteries at the Castle (Castle Secrets & Legends) [сезон 3 серии 1-13 из 13]
[Профиль] [ЛС]
Показать сообщения:    

Текущее время: Сегодня 22:24

Часовой пояс: GMT



Вы не можете начинать темы
Вы не можете отвечать на сообщения
Вы не можете редактировать свои сообщения
Вы не можете удалять свои сообщения
Вы не можете голосовать в опросах
Вы не можете прикреплять файлы к сообщениям
Вы не можете скачивать файлы