Travel: Тайны замков / Mysteries at the Castle (Castle Secrets & Legends) [сезон 2 серии 1-13 из 13] (Jeremiah Crowell) [2015 г., Документальный, приключения, образование, история, путешествия HDTVRip-AVC 720p]

 
Автор Сообщение

skorpionN ®

Пол:

Стаж: 1 год 8 месяцев

Сообщений: 588



Награды: 4 (Подробнее)

Mega Seeder 3 (Количество: 1) Top Releaser 2 (Количество: 1) Mega Seeder 2 (Количество: 1)
Торрент-статистика

Создавать темы 20-Мар-2015 08:50

[Цитировать]

Travel: Тайны замков / Mysteries at the Castle (Castle Secrets & Legends) [сезон 2 серии 1-13 из 13]
Год выпуска: 2015
Страна: США, Travel Channel, Optomen Productions
Жанр: Документальный, приключения, образование, история, путешествия
Продолжительность: 13x~00:40:08
Перевод: Профессиональный (двухголосый)
Режиссер: Jeremiah Crowell
В ролях: Rory Duffy, Scott Watson, Lara Alcantara, Drew Allen, Mickie Banyas, Damien Bosco, Julie Chateauvert, Malin Edengard, James Feuer, Colin Gold, Michael Simon, Vin Hamilton, Alexander Gordon, Alcantara Lara, David Marr III, Jonathan Mastrojohn, Josh Rhett Noble, Christopher Pickhardt, Ernest Romeo, Marcia Sofley, Nicholas Thomas, Luljeta Trupi, Samantha Fairfield Walsh, Lindsay Zaroogian
Описание: Благодаря нашей программе вы заглянете в эти завораживающие здания и узнаете поразительные истории их прежних обитателей. В Нью-Йорке мы посетим знаменитый замок Баннермана, где жадность и предательство когда-то повлекли за собой ужасающие события. В Трансильвании мы увидим замок Бран, где жил кровожадный князь, которому посвящена одна из самых жутких книг в мире. А также мы побываем в Ноттингемском дворце, который прославился благодаря легендам об одном благородном герое.
Список серий:
01. Дракула, месть королевы, король Артур / Dracula; Queen and the Mistress; King Arthur
02. Генрих VII, проклятие замка Баннермана, фальшивый шахматный автомат / Henry 8th; Bannerman's Castle Curse; Mechanical Turk Hoax
03. Фауст, королева пиратов, основание Версаля / Faust; Pirate Queen; First Versailles
04. Зеленая женщина, граф Монте-Кристо, Робин Гуд / Green Lady; Count of Monte Cristo; Robin Hood
05. Дом, который спас короля, Жанна д'Арк, Любовный скандал Гамильтона / House That Saved a King; Joan of Arc; Hamilton Sex Scandal
06. Королевский скандал, итальянская крепость, Франц Фердинанд / Royal Baccarat Scandal; Soleste and Moroello; Franz Ferdinand
07. Побег из тюрьмы, чудо Анны Грин, последний цент Хемингуэя / Book Chest Escape; Miracle of Anne Greene; Hemingway's Last Cent
08. Книжный вор, герцогиня-двоемужница, чудодейственное лекарство / Book Thief; Bigamist Duchess; Patent-ly Absurd
09. Похищение Мартина Лютера, ведьмы Бельвуара и тайная королева / Martin Luther Kidnapping; Witches of Belvoir; Secret Queen
10. Настоящие красавица и чудовище, шотландский летун / The Real Beauty and the Beauty; Birdman of Scotland; Master of Disguise
11. Похищение шедевра, авантюры Диккенса и фарфоровый принц / Irish Art Heist; Dickens Affair; Prince of Porcelain
12. Рождение творца, секретный локатор и волшебный флаг / Making of an Artist; Secret Sonar; Fairy Flag
13. Битва за пересечение канала, королевский сводник и похищение Боттчера / Battle to Cross the Channel; Royal Matchmaker; Boettcher
Kidnapping
Качество: HDTVRip-AVC 720p
Формат: MKV
Видео кодек: H.264
Аудио кодек: AC3
Видео: 1280x720 25fps 5000 Kbps
Аудио: AC3, 2ch, 192 kbps, 48 kHz

MediaInfo:

Format : Matroska
Format version : Version 4 / Version 2
File size : 1.45 GiB
Duration : 40mn 8s
Overall bit rate mode : Variable
Overall bit rate : 5 180 Kbps
Encoded date : UTC 2015-03-13 18:48:16
Writing application : mkvmerge v7.6.0 ('Garden of Dreams') 64bit built on Feb 8 2015 13:04:34
Writing library : libebml v1.3.1 + libmatroska v1.4.2
DURATION : 00:40:08.000000000
NUMBER_OF_FRAMES : 60200
NUMBER_OF_BYTES : 1500967561
_STATISTICS_WRITING_APP : mkvmerge v7.6.0 ('Garden of Dreams') 64bit built on Feb 8 2015 13:04:34
_STATISTICS_WRITING_DATE_UTC : 2015-03-13 18:48:16
_STATISTICS_TAGS : BPS DURATION NUMBER_OF_FRAMES NUMBER_OF_BYTES
Video
ID : 1
Format : AVC
Format/Info : Advanced Video Codec
Format profile : High@L3.1
Format settings, CABAC : Yes
Format settings, ReFrames : 3 frames
Codec ID : V_MPEG4/ISO/AVC
Duration : 40mn 8s
Bit rate mode : Variable
Bit rate : 5 000 Kbps
Maximum bit rate : 8 000 Kbps
Width : 1 280 pixels
Height : 720 pixels
Display aspect ratio : 16:9
Frame rate mode : Constant
Frame rate : 25.000 fps
Standard : NTSC
Color space : YUV
Chroma subsampling : 4:2:0
Bit depth : 8 bits
Scan type : Progressive
Bits/(Pixel*Frame) : 0.217
Stream size : 1.37 GiB (94%)
Writing library : x264 core 114
Encoding settings : cabac=1 / ref=3 / deblock=1:0:0 / analyse=0x3:0x113 / me=hex / subme=7 / psy=1 / psy_rd=1.00:0.00 / mixed_ref=1 / me_range=16 / chroma_me=1 / trellis=1 / 8x8dct=1 / cqm=2 / deadzone=21,11 / fast_pskip=1 / chroma_qp_offset=-4 / threads=6 / sliced_threads=0 / slices=1 / nr=0 / decimate=1 / interlaced=0 / constrained_intra=0 / bframes=3 / b_pyramid=0 / b_adapt=1 / b_bias=0 / direct=1 / weightb=1 / open_gop=0 / weightp=2 / keyint=250 / keyint_min=25 / scenecut=40 / intra_refresh=0 / rc_lookahead=40 / rc=2pass / mbtree=1 / bitrate=5000 / ratetol=1.0 / qcomp=0.60 / qpmin=5 / qpmax=69 / qpstep=4 / cplxblur=20.0 / qblur=0.5 / vbv_maxrate=8000 / vbv_bufsize=7995 / nal_hrd=vbr / ip_ratio=1.40 / aq=1:1.00
Default : Yes
Forced : No
Color primaries : BT.709
Transfer characteristics : BT.709
Matrix coefficients : BT.709
Color range : Limited
Audio
ID : 2
Format : AC-3
Format/Info : Audio Coding 3
Mode extension : CM (complete main)
Format settings, Endianness : Big
Codec ID : A_AC3
Duration : 40mn 8s
Bit rate mode : Constant
Bit rate : 192 Kbps
Channel(s) : 2 channels
Channel positions : Front: L R
Sampling rate : 48.0 KHz
Bit depth : 16 bits
Compression mode : Lossy
Stream size : 55.1 MiB (4%)
Default : Yes
Forced : No
Travel Channel: Легенды старого замка / Castle Secrets & Legends [сезон 1 серии 1-5 из 5]
Travel Channel: Тайны замков / Mysteries at the Castle (Castle Secrets & Legends) [сезон 2 серии 1-13 из 13]
Travel Channel: Тайны замков / Mysteries at the Castle (Castle Secrets & Legends) [сезон 3 серии 1-13 из 13]

Внимание:

Раздача ведётся путём добавления новых серий; при каждом добавлении создаётся новый торрент. Чтобы начать докачку новой серии, пользователям необходимо сделать следующее:
- Остановить скачивание.
- Удалить старый торрент у себя из клиента (старые серии удалять не надо).
- Скачать новый торрент и запустить его у себя в клиенте вместо старого, при этом указать клиенту путь в старую папку куда и должно происходить скачивание новых серий.
Добавлено 11. Похищение шедевра, авантюры Диккенса и фарфоровый принц / Irish Art Heist; Dickens Affair; Prince of Porcelain


Последний раз редактировалось: skorpionN (2016-09-23 15:08), всего редактировалось 29 раз(а)
[Профиль] [ЛС]

KiruhaDelMar

Стаж: 1 год 8 месяцев

Сообщений: 247



Награды: Нет

Торрент-статистика

Создавать темы 03-Апр-2015 19:47 (спустя 14 дней)

[Цитировать]

Я так понимаю спрашивать где 4 серия глупо, хороший сон это хорошо bx
[Профиль] [ЛС]

skorpionN ®

Пол:

Стаж: 1 год 8 месяцев

Сообщений: 588



Награды: 4 (Подробнее)

Mega Seeder 3 (Количество: 1) Mega Seeder 2 (Количество: 1) Top Releaser 2 (Количество: 1)
Торрент-статистика

Создавать темы 27-Апр-2015 06:12 (спустя 23 дня)

[Цитировать]

65335Я так понимаю спрашивать где 4 серия глупо, хороший сон это хорошо bx
Вот тебе и 4 серия. Жаль 7 не удалось дописать Отрубил провайдер инет (минут 10) будем ждать
[Профиль] [ЛС]

skorpionN ®

Пол:

Стаж: 1 год 8 месяцев

Сообщений: 588



Награды: 4 (Подробнее)

Mega Seeder 2 (Количество: 1) Mega Seeder 1 (Количество: 1) Top Releaser 2 (Количество: 1)
Торрент-статистика

Создавать темы 18-Май-2015 10:33 (спустя 21 день)

[Цитировать]

Нашлась и 7 серия bf
[Профиль] [ЛС]

skorpionN ®

Пол:

Стаж: 1 год 8 месяцев

Сообщений: 588



Награды: 4 (Подробнее)

Mega Seeder 3 (Количество: 1) Mega Seeder 1 (Количество: 1) Top Releaser 2 (Количество: 1)
Торрент-статистика

Создавать темы 14-Июн-2015 12:11 (спустя 27 дней)

[Цитировать]

Сериал окончен
[Профиль] [ЛС]
Показать сообщения:    

Текущее время: Сегодня 08:58

Часовой пояс: GMT



Вы не можете начинать темы
Вы не можете отвечать на сообщения
Вы не можете редактировать свои сообщения
Вы не можете удалять свои сообщения
Вы не можете голосовать в опросах
Вы не можете прикреплять файлы к сообщениям
Вы не можете скачивать файлы