Travel: Музейные тайны / Mysteries at the Museum [сезон 5 серии 1-13 из 13] (Remy Weber, Sterling Milan, Nick Zeig-Owens) [2014 г., Документально-постановочный, история, археология, путешествия, исследования, мифы, загадки, тайны, HDTVRip 720p]

 
Автор Сообщение

skorpionN ®

Пол:

Стаж: 1 год 8 месяцев

Сообщений: 592



Награды: 4 (Подробнее)

Mega Seeder 3 (Количество: 1) Mega Seeder 1 (Количество: 1) Mega Seeder 2 (Количество: 1)
Торрент-статистика

Создавать темы 06-Июл-2015 12:39

[Цитировать]

Travel: Музейные тайны / Mysteries at the Museum [сезон 5 серии 1-13 из 13]
Год выпуска: 2014
Страна: США, The Travel Channel, Optomen Productions
Жанр: Документально-постановочный, история, археология, путешествия, исследования, мифы, загадки, тайны
Продолжительность: 13x~00:42:00
Перевод: Профессиональный (двухголосый)
Режиссер: Remy Weber, Sterling Milan, Nick Zeig-Owens
В ролях: ведущий - Дон Вайлдман
Описание: В музеях находятся удивительные сокровища, которые помогают нам больше узнать о нашем прошлом. Однако не все знают, что порой экспонаты скрывают в себе загадки и тайны, полные скандалов и интриг, и даже убийств. Мы отправимся в захватывающее и познавательное, а порой шокирующее путешествие по истории. Мы попадем в самые темные и потаенные уголки музеев, и узнаем о невидимых шпионах, хладнокровных убийцах и паранормальных явлениях.
Список серий:
01. Удивительная машина, стеклянная гармоника / Miracle Car, Glass Armonica
02. Незнакомцы в поезде, музей мадам Тюссо / Strangers on a Train, WD40
03. Ясновидящая лошадь, невероятная история каучука / Psychic Horse, Pulaski Axe
04. Мумия из комнаты смеха, золото плейбоя / Funhouse Mummy, Playboy's Gold
05. Маршал вне закона, 76 дней дрейфа / Outlaw Marshall, Diamond Hoax
06. Эксперимент Милгрэма / Gold Accumulator Hoax
07. Белокурый мясник, похищение Чарли Росса / Charley Ross Kidnapping
08. Неудавшееся покушение на Джона Кеннеди, Макс Фактор / Martian Monkey, Max Factor
09. Проститутки Гражданской войны, искусство мистификации / Civil War Prostitutes
10. Бейсбольная преследовательница Пегги Шиппен / Baseball Stalker Peggy Shippen
11. Энни Оукли, проект "Колесница" / Annie Oakley, Project Chariot
12. Ракета Дамаска, слежение с воздуха / Eye in the Sky, Soapy Smith
13. Мошенник, спасение кита / Son of a Gun, Whale Rescue

Качество: HDTVRip 720p
Формат: MKV
Видео кодек: H.264
Аудио кодек: AC3
Видео: 1280x720, 25fps, ~4170 kbps
Аудио: AC3 2ch, 48kHz, 192 kbps

Скриншоты


MediaInfo:

Complete name : E:\Mysteries at the Museum_s05_720p\01_Miracle Car_Glass Armonica.mkv
Format : Matroska
Format version : Version 4 / Version 2
File size : 1.28 GiB
Duration : 41mn 12s
Overall bit rate mode : Constant
Overall bit rate : 4 456 Kbps
Encoded date : UTC 2015-06-22 15:27:42
Writing application : mkvmerge v8.0.0 ('Til The Day That I Die') 64bit
Writing library : libebml v1.3.1 + libmatroska v1.4.2
DURATION : 00:41:12.599000000
NUMBER_OF_FRAMES : 61815
NUMBER_OF_BYTES : 1317206746
_STATISTICS_WRITING_APP : mkvmerge v8.0.0 ('Til The Day That I Die') 64bit
_STATISTICS_WRITING_DATE_UTC : 2015-06-22 15:27:42
_STATISTICS_TAGS : BPS DURATION NUMBER_OF_FRAMES NUMBER_OF_BYTES
Video
ID : 2
Format : AVC
Format/Info : Advanced Video Codec
Format profile : High@L4.1
Format settings, CABAC : Yes
Format settings, ReFrames : 3 frames
Codec ID : V_MPEG4/ISO/AVC
Duration : 41mn 12s
Bit rate mode : Constant
Bit rate : 4 175 Kbps
Nominal bit rate : 4 500 Kbps / 4 500 Kbps
Width : 1 280 pixels
Height : 720 pixels
Display aspect ratio : 16:9
Frame rate mode : Constant
Frame rate : 25.000 fps
Standard : NTSC
Color space : YUV
Chroma subsampling : 4:2:0
Bit depth : 8 bits
Scan type : Progressive
Bits/(Pixel*Frame) : 0.181
Stream size : 1.20 GiB (94%)
Writing library : x264 core 114
Encoding settings : cabac=1 / ref=3 / deblock=1:0:0 / analyse=0x3:0x113 / me=hex / subme=7 / psy=1 / psy_rd=1.00:0.00 / mixed_ref=1 / me_range=16 / chroma_me=1 / trellis=1 / 8x8dct=1 / cqm=2 / deadzone=21,11 / fast_pskip=1 / chroma_qp_offset=-2 / threads=6 / sliced_threads=0 / slices=2 / nr=0 / decimate=1 / interlaced=0 / constrained_intra=0 / bframes=3 / b_pyramid=0 / b_adapt=1 / b_bias=0 / direct=1 / weightb=1 / open_gop=0 / weightp=2 / keyint=250 / keyint_min=25 / scenecut=40 / intra_refresh=0 / rc_lookahead=40 / rc=cbr / mbtree=1 / bitrate=4500 / ratetol=1.0 / qcomp=0.60 / qpmin=3 / qpmax=69 / qpstep=4 / vbv_maxrate=4500 / vbv_bufsize=4489 / nal_hrd=cbr / ip_ratio=1.40 / aq=1:1.00
Default : Yes
Forced : No
Color range : Limited
Color primaries : BT.709
Transfer characteristics : BT.709
Matrix coefficients : BT.709
Audio
ID : 1
Format : AC-3
Format/Info : Audio Coding 3
Mode extension : CM (complete main)
Format settings, Endianness : Big
Codec ID : A_AC3
Duration : 41mn 12s
Bit rate mode : Constant
Bit rate : 192 Kbps
Channel(s) : 2 channels
Channel positions : Front: L R
Sampling rate : 48.0 KHz
Compression mode : Lossy
Stream size : 56.6 MiB (4%)
Default : Yes
Forced : No
Добавлено 13. Мошенник, спасение кита / Son of a Gun, Whale Rescue

Внимание! Раздача ведётся путём добавления новых выпусков

Внимание! Раздача ведётся путём добавления новых выпусков; при каждом добавлении создаётся новый торрент. Чтобы начать докачку нового выпуска, пользователям необходимо сделать следующее:
(1) остановить скачивание,
(2) удалить старый торрент у себя из клиента (старые серии удалять не надо),
(3) скачать новый торрент и запустить его у себя в клиенте вместо старого, при этом указать клиенту путь в старую папку куда и должно происходить скачивание новых выпусков.
Ваш клиент при этом должен произвести хеширование (проверку) старой папки (если не производит сам - помогите ему сделать это). В результате он будет докачивать только те выпуски, которых у Вас ещё нет. Старые выпуски при этом не удаляются, а продолжают раздаваться!
Eсли Вы уже удалили старые выпуски, то предотвратить их повторную закачку можно, сняв галочки в соответствующих местах при запуске нового торрента. По возможности, желательно не удалять старые выпуски как можно дольше, чтобы релизёр не только продолжал раздавать старые выпуски, но и смог сконцентрироваться на новых.
Из этой серии:
Музейные тайны / Mysteries at the Museum[сезон 1 серии 1-12 из 12]
Музейные тайны / Mysteries at the Museum[сезон 2 серии 1-24 из 24]
Музейные тайны / Mysteries at the Museum[сезон 3 серии 1-13 из 13]
Музейные тайны / Mysteries at the Museum[сезон 4 серии 1-12 из 12]
Музейные тайны / Mysteries at the Museum[сезон 5 серии 1-13 из 13]
Музейные тайны / Mysteries at the Museum[сезон 6 серии 4-13 из 13]
Музейные тайны / Mysteries at the Museum[сезон 7 серии 5-13 из 13]


Последний раз редактировалось: skorpionN (2016-09-11 08:27), всего редактировалось 19 раз(а)
[Профиль] [ЛС]

KiruhaDelMar

Стаж: 1 год 8 месяцев

Сообщений: 248



Награды: Нет

Торрент-статистика

Создавать темы 20-Июл-2015 09:50 (спустя 13 дней)

[Цитировать]

Та чёс это , нема никаких сидов ни шмидов
[Профиль] [ЛС]

skorpionN ®

Пол:

Стаж: 1 год 8 месяцев

Сообщений: 592



Награды: 4 (Подробнее)

Mega Seeder 2 (Количество: 1) Mega Seeder 3 (Количество: 1) Mega Seeder 1 (Количество: 1)
Торрент-статистика

Создавать темы 20-Июл-2015 16:27 (спустя 6 часов)

[Цитировать]

Шмиды в контакте bj
[Профиль] [ЛС]

skorpionN ®

Пол:

Стаж: 1 год 8 месяцев

Сообщений: 592



Награды: 4 (Подробнее)

Mega Seeder 1 (Количество: 1) Mega Seeder 2 (Количество: 1) Mega Seeder 3 (Количество: 1)
Торрент-статистика

Создавать темы 07-Сен-2015 07:17 (спустя 1 месяц 17 дней)

[Цитировать]

Сезон окончен
[Профиль] [ЛС]
Показать сообщения:    

Текущее время: Сегодня 16:54

Часовой пояс: GMT



Вы не можете начинать темы
Вы не можете отвечать на сообщения
Вы не можете редактировать свои сообщения
Вы не можете удалять свои сообщения
Вы не можете голосовать в опросах
Вы не можете прикреплять файлы к сообщениям
Вы не можете скачивать файлы