Travel: Музейные тайны / Mysteries at the Museum [сезон 4 серии 1-12 из 12] (Nicholas Zeig-Owens, Remy Weber) [2013 г., Документально-постановочный, история, археология, путешествия, исследования, мифы, загадки, тайны, HDTVRip 720p]

 
Автор Сообщение

skorpionN ®

Пол:

Стаж: 1 год 8 месяцев

Сообщений: 592



Награды: 4 (Подробнее)

Top Releaser 2 (Количество: 1) Mega Seeder 2 (Количество: 1) Mega Seeder 1 (Количество: 1)
Торрент-статистика

Создавать темы 16-Мар-2015 09:16

[Цитировать]

Travel: Музейные тайны / Mysteries at the Museum [сезон 4 серии 1-12 из 12]
Год выпуска: 2013 г.
Страна: США, The Travel Channel, Optomen Productions
Жанр: Документально-постановочный, история, археология, путешествия, исследования, мифы, загадки, тайны
Продолжительность: 12x~00:39:08
Перевод: Профессиональный (двухголосый закадровый)
Cубтитры: нет
Режиссер: Nicholas Zeig-Owens, Remy Weber
В ролях: Ведущий - Дон Вайлдман / Don Wildman
Описание: Музеи обладают удивительными сокровищами, которые помогают нам больше узнать о нашем прошлом. Однако не все знают, что порой экспонаты скрывают в себе загадки и тайны, полные скандалов и интриг, и даже убийств. Мы отправимся в захватывающее и познавательное, а порой шокирующее путешествие по истории.
Список серий:
01. Электрическая ручка Эдисона и корабль-призрак / Edison's Electric Pen, Vanishing Carroll Deering, Lizard Man
02. Операция "Пасториус", Нелли Блай и Бостонский душитель / Operation Pastorius, Nellie Bly, Boston Strangler
03. Линетт Фромм, ходаг и Тифозная Мэри / Squeaky Fromme, Hodag, Typhoid Mary
04. Танец, покоривший целый город. Исчезающее озеро / The Dance That Seduced a City, Vanishing Lake, Mysterious Death of Bugsy Seigel
05. Расследование Дона Боллса и чудотворное змеиное масло / Don Bolles' Quest for the Truth, Stanley's Miraculous Snake Oil, the Infamous Northfield Raid
06. Дьявол из Джерси и танк-разрушитель / The Infamous Jersey Devil, Tank Rampage, the Mysterious Death of President Harding
07. Медиум Марджери и восхождение на Эверест / Margery the Medium, Everest Ascent, the Pastor and the Choir Singer
08. Джек-потрошитель в Нью-Йорке и фальшивомонетчик Джи / Jack the Ripper in New York, Jim the Penman, Locust Swarm
09. Катастрофа в Ист-Ривер и мясной дождь / East River Blowout, the Day It Rained Meat, Michigan Triangle
10. Загадка кукол и разоблачение заговора / The Death William Wood, Hacker Spy, Skunk Ape
11. Тюремный эксперимент и настоящий Ноев ковчег / Prison Experiment, the Real Noah's Ark, the Informant
12. Отравление в лечебнице и Голый Джо / Asylum Poisoning, Naked Joe, the Mad Bomber

Качество: HDTVRip 720p
Формат видео: MKV
Видео кодек: H.264
Аудио кодек: AC3
Видео: 1280x720, 25fps, ~4170 kbps
Аудио: AC3 2ch, 48kHz, 192 kbps

MediaInfo

Format : Matroska
Format version : Version 4 / Version 2
File size : 1.22 GiB
Duration : 39mn 7s
Overall bit rate mode : Constant
Overall bit rate : 4 450 Kbps
Encoded date : UTC 2015-01-12 11:56:16
Writing application : mkvmerge v7.5.0 ('Glass Culture') 64bit built on Jan 4 2015 16:48:44
Writing library : libebml v1.3.1 + libmatroska v1.4.2
DURATION : 00:39:07.560000000
NUMBER_OF_FRAMES : 58689
NUMBER_OF_BYTES : 1249089227
_STATISTICS_WRITING_APP : mkvmerge v7.5.0 ('Glass Culture') 64bit built on Jan 4 2015 16:48:44
_STATISTICS_WRITING_DATE_UTC : 2015-01-12 11:56:16
_STATISTICS_TAGS : BPS DURATION NUMBER_OF_FRAMES NUMBER_OF_BYTES
Video
ID : 1
Format : AVC
Format/Info : Advanced Video Codec
Format profile : High@L3.1
Format settings, CABAC : Yes
Format settings, ReFrames : 3 frames
Codec ID : V_MPEG4/ISO/AVC
Duration : 39mn 7s
Bit rate mode : Constant
Bit rate : 4 170 Kbps
Nominal bit rate : 4 500 Kbps / 4 500 Kbps
Width : 1 280 pixels
Height : 720 pixels
Display aspect ratio : 16:9
Frame rate mode : Constant
Frame rate : 25.000 fps
Standard : NTSC
Color space : YUV
Chroma subsampling : 4:2:0
Bit depth : 8 bits
Scan type : Progressive
Bits/(Pixel*Frame) : 0.181
Stream size : 1.14 GiB (94%)
Writing library : x264 core 114
Encoding settings : cabac=1 / ref=3 / deblock=1:0:0 / analyse=0x3:0x113 / me=hex / subme=7 / psy=1 / psy_rd=1.00:0.00 / mixed_ref=1 / me_range=16 / chroma_me=1 / trellis=1 / 8x8dct=1 / cqm=2 / deadzone=21,11 / fast_pskip=1 / chroma_qp_offset=-2 / threads=6 / sliced_threads=0 / slices=1 / nr=0 / decimate=1 / interlaced=0 / constrained_intra=0 / bframes=3 / b_pyramid=0 / b_adapt=1 / b_bias=0 / direct=1 / weightb=1 / open_gop=0 / weightp=2 / keyint=250 / keyint_min=25 / scenecut=40 / intra_refresh=0 / rc_lookahead=40 / rc=cbr / mbtree=1 / bitrate=4500 / ratetol=1.0 / qcomp=0.60 / qpmin=3 / qpmax=69 / qpstep=4 / vbv_maxrate=4500 / vbv_bufsize=4489 / nal_hrd=cbr / ip_ratio=1.40 / aq=1:1.00
Default : Yes
Forced : No
Color primaries : BT.709
Transfer characteristics : BT.709
Matrix coefficients : BT.709
Color range : Limited
Audio
ID : 2
Format : AC-3
Format/Info : Audio Coding 3
Mode extension : CM (complete main)
Format settings, Endianness : Big
Codec ID : A_AC3
Duration : 39mn 7s
Bit rate mode : Constant
Bit rate : 192 Kbps
Channel(s) : 2 channels
Channel positions : Front: L R
Sampling rate : 48.0 KHz
Bit depth : 16 bits
Compression mode : Lossy
Stream size : 53.7 MiB (4%)
Default : Yes
Forced : No

Скриншоты


Внимание! Раздача ведётся путём добавления новых выпусков

Внимание! Раздача ведётся путём добавления новых выпусков; при каждом добавлении создаётся новый торрент. Чтобы начать докачку нового выпуска, пользователям необходимо сделать следующее:
(1) остановить скачивание,
(2) удалить старый торрент у себя из клиента (старые серии удалять не надо),
(3) скачать новый торрент и запустить его у себя в клиенте вместо старого, при этом указать клиенту путь в старую папку куда и должно происходить скачивание новых выпусков.
Ваш клиент при этом должен произвести хеширование (проверку) старой папки (если не производит сам - помогите ему сделать это). В результате он будет докачивать только те выпуски, которых у Вас ещё нет. Старые выпуски при этом не удаляются, а продолжают раздаваться!
Eсли Вы уже удалили старые выпуски, то предотвратить их повторную закачку можно, сняв галочки в соответствующих местах при запуске нового торрента. По возможности, желательно не удалять старые выпуски как можно дольше, чтобы релизёр не только продолжал раздавать старые выпуски, но и смог сконцентрироваться на новых.
Из этой серии:
Музейные тайны / Mysteries at the Museum[сезон 1 серии 1-12 из 12]
Музейные тайны / Mysteries at the Museum[сезон 2 серии 1-24 из 24]
Музейные тайны / Mysteries at the Museum[сезон 3 серии 1-13 из 13]
Музейные тайны / Mysteries at the Museum[сезон 4 серии 1-12 из 12]
Музейные тайны / Mysteries at the Museum[сезон 5 серии 1-13 из 13]
Музейные тайны / Mysteries at the Museum[сезон 6 серии 4-13 из 13]
Музейные тайны / Mysteries at the Museum[сезон 7 серии 5-13 из 13]Добавлена серия 12. Отравление в лечебнице и Голый Джо / Asylum Poisoning, Naked Joe, the Mad Bomber


Последний раз редактировалось: skorpionN (2016-09-11 08:27), всего редактировалось 12 раз(а)
[Профиль] [ЛС]

RYT

Пол:

Стаж: 4 года 11 месяцев

Сообщений: 3



Награды: Нет

Торрент-статистика

Создавать темы 27-Мар-2015 10:19 (спустя 11 дней)

[Цитировать]

думаю интересная передача.....
[Профиль] [ЛС]

KiruhaDelMar

Стаж: 1 год 8 месяцев

Сообщений: 248



Награды: Нет

Торрент-статистика

Создавать темы 27-Мар-2015 10:53 (спустя 33 минуты)

[Цитировать]

поначалу все так думают
[Профиль] [ЛС]

skorpionN ®

Пол:

Стаж: 1 год 8 месяцев

Сообщений: 592



Награды: 4 (Подробнее)

Mega Seeder 2 (Количество: 1) Top Releaser 2 (Количество: 1) Mega Seeder 3 (Количество: 1)
Торрент-статистика

Создавать темы 27-Мар-2015 13:04 (спустя 2 часа 11 минут)

[Цитировать]

Вот было бы интересно про космос посмотреть, но где взять то? bk Ты KiruhaDelMar, небось зажал всё, как в NASA
[Профиль] [ЛС]

skorpionN ®

Пол:

Стаж: 1 год 8 месяцев

Сообщений: 592



Награды: 4 (Подробнее)

Mega Seeder 1 (Количество: 1) Mega Seeder 3 (Количество: 1) Mega Seeder 2 (Количество: 1)
Торрент-статистика

Создавать темы 06-Апр-2015 08:32 (спустя 9 дней)

[Цитировать]

Сезон окончен
[Профиль] [ЛС]

KiruhaDelMar

Стаж: 1 год 8 месяцев

Сообщений: 248



Награды: Нет

Торрент-статистика

Создавать темы 06-Апр-2015 17:37 (спустя 9 часов)

[Цитировать]

и сериал, расходимся
[Профиль] [ЛС]
Показать сообщения:    

Текущее время: Сегодня 20:43

Часовой пояс: GMT



Вы не можете начинать темы
Вы не можете отвечать на сообщения
Вы не можете редактировать свои сообщения
Вы не можете удалять свои сообщения
Вы не можете голосовать в опросах
Вы не можете прикреплять файлы к сообщениям
Вы не можете скачивать файлы