Travel: Монументальные секреты / Monumental Mysteries [сезон 3 серии 1-5, 7-13 из 13] (Марк Сентер) [2015 г., Документальный, история, путешествия, HDTVRip 720p]

 
Автор Сообщение

skorpionN ®

Пол:

Стаж: 1 год 8 месяцев

Сообщений: 585



Награды: 4 (Подробнее)

Mega Seeder 3 (Количество: 1) Top Releaser 2 (Количество: 1) Mega Seeder 1 (Количество: 1)
Торрент-статистика

Создавать темы 04-Мар-2016 11:41

[Цитировать]

Travel: Монументальные секреты / Monumental Mysteries [сезон 3 серии 1-5, 7-13 из 13]
Год выпуска: 2015
Страна: США, Optomen Productions, Travel Channel
Жанр: Документальный, история, путешествия
Продолжительность: 12x~00:42:00
Перевод: Профессиональный (двухголосый)
Режиссер: Марк Сентер
В ролях: ведущий - Дон Вайлдман / Don Wildman
Качество: HDTVRip 720p
Формат: MKV
Видео кодек: H.264
Аудио кодек: AC3
Видео: 1280x720 25.00fps 5000 Kbps
Аудио: AC3 2ch, 48kHz, 192 kbps
Описание: В познавательном цикле «Монументальные секреты» от журналистов The Travel Channel будут изучаться загадочные памятки культурного и исторического наследия. Ведущий Дон Вайлдман в каждом эпизоде освещает несколько всемирно известных объектов или персон из разных сфер жизни.
Список серий:

01. Камень судьбы и день остановки Ниагарского водопада / Stone of Destiny, the Day Niagara Falls Shuts Off, the Madness of Mary

Ведущий Дон Вайлдман посещает известную лондонскую церковь, положившую начало дерзкому ограблению, уникальное место, существованию которого угрожает сама мать-природа, и тюрьму, где некогда размещалась знаменитая первая леди.

02. Полет к свободе, начало первого фильма и собака-терапевт Фрейда / Freedom Balloon, First Film Star, Therapy Dog

Ведущий Дон Вайлдман изучает легендарную стену, давшую толчок ряду смелых побегов, смотрит на звезду, вовлеченную в голливудский скандал, и отдает дань уважения статуе ученого-новатора.

03. Бойцы Гарлема, воскресший жокей и изобретение Брайля / Harlem Hellfighters, Resurrected Jockey, Braille

Ведущий Дон Вайлдман осматривает памятник героям Первой мировой войны в Гарлеме и калифорнийский ипподром, на котором жокей победил смерть, а также отдает дань уважения великому человеку в парижском Пантеоне.

04. Защитник колючих акул, спаситель Пизы и бомбардировщик сладостями / Savior of the Squalus

От глубоководной спасательной операции до диковинного сооружения, от аферистов казино до искусного грабителя. Ведущий Дон Вайлдман исследует памятник историческому судну, пережившему настоящий кошмар, легендарное итальянское строение и немецкий парк, фигурирующий в трогательном рассказе о герое войны.

05. Принц-самозванец, обед, изменивший Америку, и фабрика лжи / Pretender Prince, American Lunch, Lie Factory

Ведущий Дон Вайлдман исследует в Лондоне тюремную крепость, сыгравшую роль в рискованной борьбе за английский престол, скульптуру, воздвигнутую в честь гражданских прав, и историю писателя, ставшего жертвой клеветнической кампании.
06. The Real Q, Alibi Clock, Sasquatch in a Shelf отсутствует

07. Копилка, все лошади короля и похороны во имя свободы / Piggy Bank, All the Kings' Horses, Funeral to Freedom

Дон Вайлдман изучает простую табличку в честь мальчика и его свинки, давших начало массовому увлечению, средневековую башню, послужившую источником вдохновения для детского стихотворения, и захоронение, обязанное появлением стремлению к свободе.

08. Маринад, спасшаий Кубок мира, искатель Строуджера и роза конфедератов / Pickles Saves the World Cup, Strowger Switch, Rebel Rose

Дон Вайлдман изучает простую табличку в честь мальчика и его свинки, давших начало массовому увлечению, средневековую башню, послужившую источником вдохновения для детского стихотворения, и захоронение, обязанное появлением стремлению к свободе.

09. Ученый-колдун, дитя Бродвея и катастрофа на Эвересе / Black Magic, Tobacco Heir, Everest Disaster

Дон Вайлдман отправляется в солнечную Пасадену, чтобы исследовать загадочную смерть известного ученого, убийство несдержанного наследника и его знаменитой жены, а также подлинную историю смертельной катастрофы на Эвересте.

10. Стокгольмский синдром, совет, спасший мир, и Барбара Роуз / Stockholm Syndrome, Soviet Who Saved the World, Barbara Rose

Дон Вайлдман отправляется на место известного ограбления в Швеции, изучает памятник, напоминающий о войне, едва не закончившейся катастрофой, а также отдает дань уважения активисту, боровшемуся за равенство в области образования.

11. Пороховой заговор, заблудившийся в Йеллоустоуне и полицейские-грабители / Gunpowder Plot, Yellowstone, Cops Are Robbers

Дон Вайлдман изучает заговор 17-го века, угрожавший парламенту, едет в горы Вайоминга, чтобы узнать истинную историю создания первого национального парка Америки, и осматривает ночной депозитный сейф в Массачусетсе.

12. Бедствие, спасшее Лондон, человек в зеленой шляпе, Викинг - почтальон / The Disaster That Saved London, the Man in the Green Hat, the Viking Mailman

Дон Вайлдман изучает высокую лондонскую колонну, увековечивающую трагическое событие, здание Капитолия в Вашингтоне, где удалось изобличить притворщика, а также памятник переселенцу в Генуе, Невада.

13. Леди Годива, мозг епископа и птицы одного полета / Lady Godiva & the Peeping Tom, Bishop's Brain, Birds of a Feather

Ведущий Дон Вайлдман осматривает в Ковентри статую, символизирующую мужество, изучает смерть медиума на кладбище в Бруклине и знакомится в Эверглейдсе с птицами, давшими толчок модной тенденции.

MediaInfo:

Format : Matroska
Format version : Version 2
File size : 1.47 GiB
Duration : 42mn 14s
Overall bit rate mode : Constant
Overall bit rate : 4 968 Kbps
Encoded date : UTC 2016-02-26 07:35:53
Writing application : TMPGEnc Video Mastering Works 5 Version. 5.0.6.38
Writing library : TMPGEnc Video Mastering Works 5 Version. 5.0.6.38
Video
ID : 2
Format : AVC
Format/Info : Advanced Video Codec
Format profile : High@L3.1
Format settings, CABAC : Yes
Format settings, ReFrames : 3 frames
Codec ID : V_MPEG4/ISO/AVC
Duration : 42mn 14s
Bit rate mode : Constant
Bit rate : 4 677 Kbps
Nominal bit rate : 5 000 Kbps / 5 000 Kbps
Width : 1 280 pixels
Height : 720 pixels
Display aspect ratio : 16:9
Frame rate mode : Constant
Frame rate : 25.000 fps
Standard : NTSC
Color space : YUV
Chroma subsampling : 4:2:0
Bit depth : 8 bits
Scan type : Progressive
Bits/(Pixel*Frame) : 0.203
Stream size : 1.38 GiB (94%)
Writing library : x264 core 114
Encoding settings : cabac=1 / ref=3 / deblock=1:0:0 / analyse=0x3:0x113 / me=hex / subme=7 / psy=1 / psy_rd=1.00:0.00 / mixed_ref=1 / me_range=16 / chroma_me=1 / trellis=1 / 8x8dct=1 / cqm=2 / deadzone=21,11 / fast_pskip=1 / chroma_qp_offset=-2 / threads=6 / sliced_threads=0 / slices=1 / nr=0 / decimate=1 / interlaced=0 / constrained_intra=0 / bframes=3 / b_pyramid=0 / b_adapt=1 / b_bias=0 / direct=1 / weightb=1 / open_gop=0 / weightp=2 / keyint=250 / keyint_min=25 / scenecut=40 / intra_refresh=0 / rc_lookahead=40 / rc=cbr / mbtree=1 / bitrate=5000 / ratetol=1.0 / qcomp=0.60 / qpmin=3 / qpmax=69 / qpstep=4 / vbv_maxrate=5000 / vbv_bufsize=4997 / nal_hrd=cbr / ip_ratio=1.40 / aq=1:1.00
Default : Yes
Forced : No
Color primaries : BT.709
Transfer characteristics : BT.709
Matrix coefficients : BT.709
Color range : Limited
Audio
ID : 1
Format : AC-3
Format/Info : Audio Coding 3
Mode extension : CM (complete main)
Format settings, Endianness : Big
Codec ID : A_AC3
Duration : 42mn 14s
Bit rate mode : Constant
Bit rate : 192 Kbps
Channel(s) : 2 channels
Channel positions : Front: L R
Sampling rate : 48.0 KHz
Bit depth : 16 bits
Compression mode : Lossy
Stream size : 58.0 MiB (4%)
Default : Yes
Forced : No

Внимание! Раздача ведётся путём добавления новых выпусков

Внимание! Раздача ведётся путём добавления новых выпусков; при каждом добавлении создаётся новый торрент. Чтобы начать докачку нового выпуска, пользователям необходимо сделать следующее:
(1) остановить скачивание,
(2) удалить старый торрент у себя из клиента (старые серии удалять не надо),
(3) скачать новый торрент и запустить его у себя в клиенте вместо старого, при этом указать клиенту путь в старую папку куда и должно происходить скачивание новых выпусков.
Ваш клиент при этом должен произвести хеширование (проверку) старой папки (если не производит сам - помогите ему сделать это). В результате он будет докачивать только те выпуски, которых у Вас ещё нет. Старые выпуски при этом не удаляются, а продолжают раздаваться!
Eсли Вы уже удалили старые выпуски, то предотвратить их повторную закачку можно, сняв галочки в соответствующих местах при запуске нового торрента. По возможности, желательно не удалять старые выпуски как можно дольше, чтобы релизёр не только продолжал раздавать старые выпуски, но и смог сконцентрироваться на новых.


Последний раз редактировалось: skorpionN (2016-03-05 20:34), всего редактировалось 1 раз
[Профиль] [ЛС]

KiruhaDelMar

Стаж: 1 год 8 месяцев

Сообщений: 246



Награды: Нет

Торрент-статистика

Создавать темы 05-Мар-2016 01:28 (спустя 13 часов)

[Цитировать]

были ж уже секреты bn
[Профиль] [ЛС]
Показать сообщения:    

Текущее время: Сегодня 08:51

Часовой пояс: GMT



Вы не можете начинать темы
Вы не можете отвечать на сообщения
Вы не можете редактировать свои сообщения
Вы не можете удалять свои сообщения
Вы не можете голосовать в опросах
Вы не можете прикреплять файлы к сообщениям
Вы не можете скачивать файлы