(Hard Rock, Melodic Hard Rock, AOR) Toto - XIV (Japanese Edition) - 2015 [FLAC, image+.cue, lossless]

 
Автор Сообщение

sergej644 ®

Пол:

Стаж: 4 года 11 месяцев

Сообщений: 6035

Откуда: Soviet Union



Награды: Нет

Торрент-статистика

Создавать темы 27-Май-2015 11:47

[Цитировать]

-Toto / XIV (Japanese Edition)-- Год издания: 2015
Страна: USA
Жанр: Hard Rock, Melodic Hard Rock, AOR
Продолжительность: 00:58:57-Лейбл издания: King Records
Страна-выпуска диска: Japan
Номер по каталогу: KICP 1724
Формат: FLAC
Битрейт аудио: lossless
Тип рипа: image+.cue
Наличие сканов в содержимом раздачи: да
---

Трэклист

01.Running Out Of Time (04:07)
02.Burn (04:57)
03.Holy War (05:25)
04.21st Century Blues (06:09)
05.Orphan (03:56)
06.Unknown Soldier (For Jeffrey) (05:07)
07.The Little Things (04:35)
08.Chinatown (05:08)
09.All The Tears That Shine (05:10)
10.Fortune (04:47)
11.Great Expectations (06:53)
12.Bend (bonus track) (02:49)
--

Лог создания рипа

Exact Audio Copy V1.0 beta 3 from 29. August 2011
EAC extraction logfile from 17. April 2015, 17:23
Toto / Toto XIV
Used drive  : SlimtypeDVD A  DS8A5SH   Adapter: 0  ID: 0
Read mode               : Secure
Utilize accurate stream : Yes
Defeat audio cache      : Yes
Make use of C2 pointers : No
Read offset correction                      : 6
Overread into Lead-In and Lead-Out          : No
Fill up missing offset samples with silence : Yes
Delete leading and trailing silent blocks   : No
Null samples used in CRC calculations       : Yes
Used interface                              : Installed external ASPI interface
Used output format              : User Defined Encoder
Selected bitrate                : 320 kBit/s
Quality                         : High
Add ID3 tag                     : No
Command line compressor         : C:\Program Files (x86)\Exact Audio Copy\Flac\flac.exe
Additional command line options : -V -8 -T "Date=%year%" -T "Genre=%genre%" %source%
TOC of the extracted CD
     Track |   Start  |  Length  | Start sector | End sector
    ---------------------------------------------------------
        1  |  0:00.00 |  4:06.07 |         0    |    18456
        2  |  4:06.07 |  4:56.23 |     18457    |    40679
        3  |  9:02.30 |  5:24.03 |     40680    |    64982
        4  | 14:26.33 |  6:08.04 |     64983    |    92586
        5  | 20:34.37 |  3:55.59 |     92587    |   110270
        6  | 24:30.21 |  5:06.36 |    110271    |   133256
        7  | 29:36.57 |  4:34.42 |    133257    |   153848
        8  | 34:11.24 |  5:07.74 |    153849    |   176947
        9  | 39:19.23 |  5:09.53 |    176948    |   200175
       10  | 44:29.01 |  4:46.37 |    200176    |   221662
       11  | 49:15.38 |  6:52.47 |    221663    |   252609
       12  | 56:08.10 |  2:48.31 |    252610    |   265240
Range status and errors
Selected range
     Filename D:\My Music\Toto - 2015 Toto XIV (Japanese Edition)\Toto - Toto XIV.wav
     Peak level 97.7 %
     Extraction speed 4.5 X
     Range quality 100.0 %
     Test CRC 6CFB0655
     Copy CRC 6CFB0655
     Copy OK
No errors occurred
AccurateRip summary
Track  1  accurately ripped (confidence 2)  [C3B9D7CA]  (AR v2)
Track  2  accurately ripped (confidence 2)  [852F9049]  (AR v2)
Track  3  accurately ripped (confidence 2)  [140BC336]  (AR v2)
Track  4  accurately ripped (confidence 2)  [0095F084]  (AR v2)
Track  5  accurately ripped (confidence 2)  [489171B7]  (AR v2)
Track  6  accurately ripped (confidence 2)  [6478B43B]  (AR v2)
Track  7  accurately ripped (confidence 2)  [0B2E5607]  (AR v2)
Track  8  accurately ripped (confidence 2)  [AE8ADDE1]  (AR v2)
Track  9  accurately ripped (confidence 2)  [2AFF8908]  (AR v2)
Track 10  accurately ripped (confidence 2)  [DB40B051]  (AR v2)
Track 11  accurately ripped (confidence 2)  [98918033]  (AR v2)
Track 12  accurately ripped (confidence 2)  [8F355124]  (AR v2)
All tracks accurately ripped
End of status report

Индексная карта (non-compilant .cue)

REM GENRE AOR
REM DATE 2015
REM DISCID AE0DD00C
REM COMMENT "ExactAudioCopy v1.0b3"
PERFORMER "Toto"
TITLE "Toto XIV"
FILE "Toto - Toto XIV.flac" WAVE
  TRACK 01 AUDIO
    TITLE "Running Out Of Time"
    PERFORMER "Toto"
    INDEX 01 00:00:00
  TRACK 02 AUDIO
    TITLE "Burn"
    PERFORMER "Toto"
    INDEX 01 04:06:07
  TRACK 03 AUDIO
    TITLE "Holy War"
    PERFORMER "Toto"
    INDEX 01 09:02:30
  TRACK 04 AUDIO
    TITLE "21st Century Blues"
    PERFORMER "Toto"
    INDEX 01 14:26:33
  TRACK 05 AUDIO
    TITLE "Orphan"
    PERFORMER "Toto"
    INDEX 01 20:34:37
  TRACK 06 AUDIO
    TITLE "Unknown Soldier (For Jeffrey)"
    PERFORMER "Toto"
    INDEX 01 24:30:21
  TRACK 07 AUDIO
    TITLE "The Little Things"
    PERFORMER "Toto"
    INDEX 01 29:36:57
  TRACK 08 AUDIO
    TITLE "Chinatown"
    PERFORMER "Toto"
    INDEX 01 34:11:24
  TRACK 09 AUDIO
    TITLE "All The Tears That Shine"
    PERFORMER "Toto"
    INDEX 01 39:19:23
  TRACK 10 AUDIO
    TITLE "Fortune"
    PERFORMER "Toto"
    INDEX 01 44:29:01
  TRACK 11 AUDIO
    TITLE "Great Expectations"
    PERFORMER "Toto"
    INDEX 01 49:15:38
  TRACK 12 AUDIO
    TITLE "Bend (bonus track)"
    PERFORMER "Toto"
    INDEX 00 56:03:43
    INDEX 01 56:08:10

Лог Audiochecker

AUDIOCHECKER v2.0 beta (build 457) - by Dester - opdester@freemail.hu
~~~~~~~~~~~~~~~~~~~~~~~~~~~~~~~~~~
Started at: среда, 27. 05. 2015. - 13:27.21
1 file found
1 -===- D:\Torrent files\Toto - 2015 Toto XIV (Japanese Edition)\Toto - Toto XIV.flac
  Extracted successfully
  Conclusion: this track is CDDA with probability 100%
  Tempfile successfully deleted.
Finished at: среда, 27. 05. 2015. - 13:30.10 (operation time: 0:02.48)

Скриншот спектра частот

--Не забываем говорить
[Профиль] [ЛС]
Показать сообщения:    

Текущее время: Сегодня 20:09

Часовой пояс: GMT



Вы не можете начинать темы
Вы не можете отвечать на сообщения
Вы не можете редактировать свои сообщения
Вы не можете удалять свои сообщения
Вы не можете голосовать в опросах
Вы не можете прикреплять файлы к сообщениям
Вы не можете скачивать файлы