(Hard Rock) Tony Mills - Beyond The Law - 2019 [FLAC, image +.cue, lossless]

 
Author Message

sergej644 ®

Gender:

Longevity: 7 years 10 months

Posts: 7299



: 10 ()

За внесенный вклад в развитие сайта (1) Top Seeder 3 (1) Top Seeder 5 (1)
Торрент-статистика

Post 29-Oct-2019 23:09

[Quote]

-Tony Mills - Beyond The Law--
Год издания: 2019
Страна: Solihull, England
Жанр: Hard Rock
Продолжительность: 00:42:01-Лейбл издания: Battlegod Productions
Страна-выпуска диска: Germany
Номер по каталогу: BP048-Формат: FLAC
Битрейт аудио: Lossless
Тип рипа: image +.cue
Наличие сканов в содержимом раздачи: да
-

Трэклист


01. The Westside (4:12)
02. Beyond The Law (4:05)
03. Running Guns (4:39)
04. F.B.I. (4:17)
05. Black Sedan (4:12)
06. We Sold Your City (4:00)
07. Crackin’ Foxy (3:40)
08. Bonnie’s Farewell (5:21)
09. Code Of Silence (3:44)
10. Gunfire (3:51)
-

Лог создания рипа

Exact Audio Copy V1.3 from 2. September 2016
EAC extraction logfile from 18. October 2019, 20:34
Tony Mills / Beyond The Law
Used drive  : ASUS    DRW-24D5MT   Adapter: 1  ID: 1
Read mode               : Secure
Utilize accurate stream : Yes
Defeat audio cache      : Yes
Make use of C2 pointers : No
Read offset correction                      : 6
Overread into Lead-In and Lead-Out          : No
Fill up missing offset samples with silence : Yes
Delete leading and trailing silent blocks   : No
Null samples used in CRC calculations       : Yes
Used interface                              : Installed external ASPI interface
Used output format              : User Defined Encoder
Selected bitrate                : 128 kBit/s
Quality                         : High
Add ID3 tag                     : No
Command line compressor         : C:\Program Files (x86)\Exact Audio Copy\Flac\flac.exe
Additional command line options :  -8 -V -T "TITLE=%title%" -T "ARTIST=%artist%" -T "ALBUMARTIST=%albumartist%" -T "ALBUM=%albumtitle%" -T "DATE=%year%" -T "TRACKNUMBER=%tracknr%" -T "TRACKTOTAL=%numtracks%" -T "GENRE=%genre%" -T "COMMENT=%comment%" -T "PERFORMER=%albuminterpret%" -T "COMPOSER=%composer%" %source% -o %dest%
TOC of the extracted CD
     Track |   Start  |  Length  | Start sector | End sector
    ---------------------------------------------------------
        1  |  0:00.00 |  4:11.63 |         0    |    18887
        2  |  4:11.63 |  4:04.67 |     18888    |    37254
        3  |  8:16.55 |  4:39.09 |     37255    |    58188
        4  | 12:55.64 |  4:17.33 |     58189    |    77496
        5  | 17:13.22 |  4:12.27 |     77497    |    96423
        6  | 21:25.49 |  4:00.03 |     96424    |   114426
        7  | 25:25.52 |  3:39.54 |    114427    |   130905
        8  | 29:05.31 |  5:20.61 |    130906    |   154966
        9  | 34:26.17 |  3:43.52 |    154967    |   171743
       10  | 38:09.69 |  3:50.51 |    171744    |   189044
Range status and errors
Selected range
     Filename C:\Users\Desktop\2019. Beyond The Law\Tony Mills - Beyond The Law.wav
     Peak level 100.0 %
     Extraction speed 1.8 X
     Range quality 100.0 %
     Test CRC 4B5542A3
     Copy CRC 4B5542A3
     Copy OK
No errors occurred
AccurateRip summary
Track  1  cannot be verified as accurate (confidence 1)  [0BB64E0F], AccurateRip returned [2C6841B5]  (AR v2)
Track  2  cannot be verified as accurate (confidence 1)  [F8C0569D], AccurateRip returned [953AEAA6]  (AR v2)
Track  3  cannot be verified as accurate (confidence 1)  [CD002746], AccurateRip returned [BE741C67]  (AR v2)
Track  4  cannot be verified as accurate (confidence 1)  [494AFF45], AccurateRip returned [AABFBFB6]  (AR v2)
Track  5  cannot be verified as accurate (confidence 1)  [69B47CA0], AccurateRip returned [B428DBFE]  (AR v2)
Track  6  cannot be verified as accurate (confidence 1)  [257B5170], AccurateRip returned [BA7E06E3]  (AR v2)
Track  7  cannot be verified as accurate (confidence 1)  [EB9F185C], AccurateRip returned [5EF11167]  (AR v2)
Track  8  cannot be verified as accurate (confidence 1)  [4C4A9C4D], AccurateRip returned [A205F0E7]  (AR v2)
Track  9  cannot be verified as accurate (confidence 1)  [871E530A], AccurateRip returned [652575CE]  (AR v2)
Track 10  cannot be verified as accurate (confidence 1)  [EE4A8E24], AccurateRip returned [672B6705]  (AR v2)
No tracks could be verified as accurate
You may have a different pressing from the one(s) in the database
End of status report

Индексная карта (non-compilant .cue)

REM GENRE Rock
REM DATE 2019
REM DISCID 9109D80A
REM COMMENT "ExactAudioCopy v1.3"
PERFORMER "Tony Mills"
TITLE "Beyond The Law"
REM COMPOSER ""
FILE "Tony Mills - Beyond The Law.flac" WAVE
  TRACK 01 AUDIO
    TITLE "The Westside "
    PERFORMER "Tony Mills"
    REM COMPOSER ""
    INDEX 01 00:00:00
  TRACK 02 AUDIO
    TITLE "Beyond The Law"
    PERFORMER "Tony Mills"
    REM COMPOSER ""
    INDEX 01 04:11:63
  TRACK 03 AUDIO
    TITLE "Running Guns "
    PERFORMER "Tony Mills"
    REM COMPOSER ""
    INDEX 01 08:16:55
  TRACK 04 AUDIO
    TITLE "F.B.I. "
    PERFORMER "Tony Mills"
    REM COMPOSER ""
    INDEX 01 12:55:64
  TRACK 05 AUDIO
    TITLE "Black Sedan "
    PERFORMER "Tony Mills"
    REM COMPOSER ""
    INDEX 01 17:13:22
  TRACK 06 AUDIO
    TITLE "We Sold Your City "
    PERFORMER "Tony Mills"
    REM COMPOSER ""
    INDEX 01 21:25:49
  TRACK 07 AUDIO
    TITLE "Crackin’ Foxy "
    PERFORMER "Tony Mills"
    REM COMPOSER ""
    INDEX 01 25:25:52
  TRACK 08 AUDIO
    TITLE "Bonnie’s Farewell "
    PERFORMER "Tony Mills"
    REM COMPOSER ""
    INDEX 01 29:05:31
  TRACK 09 AUDIO
    TITLE "Code Of Silence "
    PERFORMER "Tony Mills"
    REM COMPOSER ""
    INDEX 01 34:26:17
  TRACK 10 AUDIO
    TITLE "Gunfire "
    PERFORMER "Tony Mills"
    REM COMPOSER ""
    INDEX 01 38:09:69
-

для ознакомления:

https://www.youtube.com/watch?v=bREIW4AHOJw
--
[Profile] [PM]
Display posts from previous:    

The time now is: Today 06:32

All times are GMT



You cannot post new topics in this forum
You cannot reply to topics in this forum
You cannot edit your posts in this forum
You cannot delete your posts in this forum
You cannot vote in polls in this forum
You cannot attach files in this forum
You cannot download files in this forum