Tony Esposito - Tony Esposito (Best Of) (1997) [FLAC|Lossless]<Disco-Pop>

 
Автор Сообщение

sergej644 ®

Пол:

Стаж: 4 года 11 месяцев

Сообщений: 6040

Откуда: Soviet Union



Награды: Нет

Торрент-статистика

Создавать темы 24-Дек-2014 22:35

[Цитировать]

-Tony Esposito - Tony Esposito (Best Of) (1997)- Год: 1997
Лейбл: LaserLight Digital
Каталог #: 12 992
Жанр: Disco-Pop
Продолжительность: 01:09:30
Кодек: FLAC
Битрейт: Lossless
Тип битрейта: image +.cue
Треклист:
01. Papa Chico [0:03:59.93]
02. Kalimba de Luna [0:05:01.40]
03. Sinue [0:03:52.76]
04. Hands [0:04:22.84]
05. Dateme [0:04:25.93]
06. Simba de Ammon [0:04:59.16]
07. As tu as [0:04:43.73]
08. Crazy conga [0:05:04.10]
09. Ella Xana [0:03:58.76]
10. Giochi non Giochi? [0:04:03.37]
11. Caucciu [0:04:16.86]
12. Alma mi alma [0:04:15.80]
13. Crime [0:03:30.29]
14. Music [0:04:04.90]
15. Monica [0:04:27.20]
16. Novecento Aufwiedersehn [0:04:23.22]

Отчёт ЕАС&#58;

Exact Audio Copy V0.99 prebeta 5 from 4. May 2009
EAC extraction logfile from 16. September 2010, 1:30
Tony Esposito / Tony Esposito
Used drive : PLEXTOR DVDR PX-716A Adapter: 0 ID: 0
Read mode : Secure
Utilize accurate stream : Yes
Defeat audio cache : Yes
Make use of C2 pointers : No
Read offset correction : 30
Overread into Lead-In and Lead-Out : Yes
Fill up missing offset samples with silence : Yes
Delete leading and trailing silent blocks : No
Null samples used in CRC calculations : Yes
Used interface : Native Win32 interface for Win NT & 2000
Used output format : User Defined Encoder
Selected bitrate : 1024 kBit/s
Quality : High
Add ID3 tag : No
Command line compressor : C:\Program Files (x86)\FLAC\flac.exe
Additional command line options : -8 -V -T "ARTIST=%a" -T "TITLE=%t" -T "ALBUM=%g" -T "DATE=%y" -T "TRACKNUMBER=%n" -T "GENRE=%m" -T "COMMENT=EAC FLAC -8" %s
TOC of the extracted CD
Track | Start | Length | Start sector | End sector
---------------------------------------------------------
1 | 0:00.00 | 3:59.70 | 0 | 17994
2 | 3:59.70 | 5:01.30 | 17995 | 40599
3 | 9:01.25 | 3:52.57 | 40600 | 58056
4 | 12:54.07 | 4:22.63 | 58057 | 77769
5 | 17:16.70 | 4:25.70 | 77770 | 97714
6 | 21:42.65 | 4:59.12 | 97715 | 120151
7 | 26:42.02 | 4:43.55 | 120152 | 141431
8 | 31:25.57 | 5:04.08 | 141432 | 164239
9 | 36:29.65 | 3:58.57 | 164240 | 182146
10 | 40:28.47 | 4:03.28 | 182147 | 200399
11 | 44:32.00 | 4:16.65 | 200400 | 219664
12 | 48:48.65 | 4:15.60 | 219665 | 238849
13 | 53:04.50 | 3:30.22 | 238850 | 254621
14 | 56:34.72 | 4:04.68 | 254622 | 272989
15 | 60:39.65 | 4:27.15 | 272990 | 293029
16 | 65:07.05 | 4:23.17 | 293030 | 312771
Range status and errors
Selected range
Filename E:\Tony Esposito - Tony Esposito\Tony Esposito - Tony Esposito.wav
Peak level 98.8 %
Range quality 100.0 %
Test CRC 155B3D5A
Copy CRC 155B3D5A
Copy OK
No errors occurred
AccurateRip summary
Track 1 not present in database
Track 2 not present in database
Track 3 not present in database
Track 4 not present in database
Track 5 not present in database
Track 6 not present in database
Track 7 not present in database
Track 8 not present in database
Track 9 not present in database
Track 10 not present in database
Track 11 not present in database
Track 12 not present in database
Track 13 not present in database
Track 14 not present in database
Track 15 not present in database
Track 16 not present in database
None of the tracks are present in the AccurateRip database
End of status report

Отчёт auCDtect Task manager&#58;

-----------------------
DON'T MODIFY THIS FILE
-----------------------
PERFORMER: auCDtect Task Manager, ver. 1.5.1RC4 build 1.5.1.5
Copyright (c) 2008-2010 y-soft. All rights reserved
http://y-soft.org
ANALYZER: auCDtect: CD records authenticity detector, version 0.8.2
Copyright (c) 2004 Oleg Berngardt. All rights reserved.
Copyright (c) 2004 Alexander Djourik. All rights reserved.
FILE: Tony Esposito - Tony Esposito.flac
  Size: 460461707 Hash: 6FBB68994E82E03A6026F0D93B3CF43F Accuracy: -m0
  Conclusion: CDDA 100%
  Signature: E9D2CC3DC7A1F4B8EBB168534DCC9C49E8510706

Содержание индексной карты (.CUE&#41;&#58;

REM GENRE Folk
REM DATE 1997
REM DISCID E1104A10
REM COMMENT "ExactAudioCopy v0.99pb5"
PERFORMER "Tony Esposito"
TITLE "Tony Esposito"
FILE "Tony Esposito - Tony Esposito.flac" WAVE
  TRACK 01 AUDIO
    TITLE "Papa Chico"
    PERFORMER "Tony Esposito"
    INDEX 01 00:00:00
  TRACK 02 AUDIO
    TITLE "Kalimba de Luna"
    PERFORMER "Tony Esposito"
    INDEX 00 03:58:20
    INDEX 01 03:59:70
  TRACK 03 AUDIO
    TITLE "Sinue"
    PERFORMER "Tony Esposito"
    INDEX 00 08:59:50
    INDEX 01 09:01:25
  TRACK 04 AUDIO
    TITLE "Hands"
    PERFORMER "Tony Esposito"
    INDEX 00 12:52:32
    INDEX 01 12:54:07
  TRACK 05 AUDIO
    TITLE "Dateme"
    PERFORMER "Tony Esposito"
    INDEX 00 17:15:20
    INDEX 01 17:16:70
  TRACK 06 AUDIO
    TITLE "Simba de Ammon"
    PERFORMER "Tony Esposito"
    INDEX 00 21:41:15
    INDEX 01 21:42:65
  TRACK 07 AUDIO
    TITLE "As tu as"
    PERFORMER "Tony Esposito"
    INDEX 00 26:40:27
    INDEX 01 26:42:02
  TRACK 08 AUDIO
    TITLE "Crazy conga"
    PERFORMER "Tony Esposito"
    INDEX 00 31:24:07
    INDEX 01 31:25:57
  TRACK 09 AUDIO
    TITLE "Ella Xana"
    PERFORMER "Tony Esposito"
    INDEX 00 36:28:15
    INDEX 01 36:29:65
  TRACK 10 AUDIO
    TITLE "Giochi non Giochi?"
    PERFORMER "Tony Esposito"
    INDEX 00 40:26:72
    INDEX 01 40:28:47
  TRACK 11 AUDIO
    TITLE "Caucciu"
    PERFORMER "Tony Esposito"
    INDEX 00 44:30:25
    INDEX 01 44:32:00
  TRACK 12 AUDIO
    TITLE "Alma mi alma"
    PERFORMER "Tony Esposito"
    INDEX 00 48:47:15
    INDEX 01 48:48:65
  TRACK 13 AUDIO
    TITLE "Crime"
    PERFORMER "Tony Esposito"
    INDEX 00 53:03:00
    INDEX 01 53:04:50
  TRACK 14 AUDIO
    TITLE "Music"
    PERFORMER "Tony Esposito"
    INDEX 00 56:33:22
    INDEX 01 56:34:72
  TRACK 15 AUDIO
    TITLE "Monica"
    PERFORMER "Tony Esposito"
    INDEX 00 60:38:15
    INDEX 01 60:39:65
  TRACK 16 AUDIO
    TITLE "Novecento Aufwiedersehn"
    PERFORMER "Tony Esposito"
    INDEX 00 65:05:30
    INDEX 01 65:07:05
Время раздачи: 24/7
[Профиль] [ЛС]

Создавать темы 13-Авг-2015 10:44 (спустя 7 месяцев 20 дней)

Топик был перенесен из форума Зарубежная в форум Technopop, Eurodance, Disco
sergej644
 
Кто просматривает тему:

Показать сообщения:    

Текущее время: Сегодня 22:43

Часовой пояс: GMT



Вы не можете начинать темы
Вы не можете отвечать на сообщения
Вы не можете редактировать свои сообщения
Вы не можете удалять свои сообщения
Вы не можете голосовать в опросах
Вы не можете прикреплять файлы к сообщениям
Вы не можете скачивать файлы