(Rock) Tina Turner - Simply The Best [2 CD] - 1992, FLAC (image+.cue), lossless

 
Автор Сообщение

sergej644 ®

Пол:

Стаж: 4 года 11 месяцев

Сообщений: 6045

Откуда: Soviet Union



Награды: Нет

Торрент-статистика

Создавать темы 20-Дек-2014 16:32

[Цитировать]

Tina Turner / Simply The Best [2 CD]
Жанр: Rock
Носитель: CD
Страна-производитель диска: Australia, New Zeland
Год издания: 1992
Издатель (лейбл): Festival Records
Номер по каталогу: TVD 93349 / RMD 53349
Страна: USA, Switzerland
Аудиокодек: FLAC (*.flac)
Тип рипа: image+.cue
Битрейт аудио: lossless
Продолжительность: 1:17:43
Наличие сканов в содержимом раздачи: да
Треклист:

Simply The Best

1. The Best 4:08
2. Better Be Good To Me 3:39
3. I Can’t Stand The Rain 3:42
4. What’s Love Got To Do With It 3:49
5. I Don’t Wanna Lose You 4:19
6. Nutbush City Limits ( 90′s Version ) 3:43
7. What You Get Is What You See 4:27
8. Let’s Stay Together 3:38
9. Addicted To Love (Live) 5:03
10. River Deep Mountain High 3:38
11. Steamy Windows 4:03
12. Typical Male 4:15
13. We Don’t Need Another Hero ( Thunderdome ) 4:14
14. Private Dancer 4:00
15. Look Me In The Heart 3:39
16. It Takes Two 4:11
17. I Want You Near Me 3:52
18. Way Of The World 4:24
19. Love Thing 4:27

Лог создания рипа

Exact Audio Copy V1.0 beta 3 from 29. August 2011
Отчёт EAC об извлечении, выполненном 9. января 2014, 19:50
Tina Turner / Simply The Best
Дисковод: ASUS    DRW-24F1ST   a   Adapter: 2  ID: 0
Режим чтения                 : Достоверность
Использование точного потока : Да
Отключение кэша аудио        : Да
Использование указателей C2  : Нет
Коррекция смещения при чтении                     : 6
Способность читать области Lead-in и Lead-out     : Нет
Заполнение пропущенных сэмплов тишиной            : Да
Удаление блоков с тишиной в начале и конце        : Нет
При вычислениях CRC использовались нулевые сэмплы : Да
Интерфейс                                         : Встроенный Win32-интерфейс для Win NT/2000
Выходной формат          : Пользовательский кодировщик
Выбранный битрейт        : 768 kBit/s
Качество                 : Высокий
Добавление ID3-тега      : Нет
Утилита сжатия           : C:\Program Files\Exact Audio Copy\FLAC\FLAC.EXE
Дополнительные параметры : -6 -V -T "ARTIST=%artist%" -T "TITLE=%title%" -T "ALBUM=%albumtitle%" -T "DATE=%year%" -T "TRACKNUMBER=%tracknr%" -T "GENRE=%genre%" -T "COMMENT=%comment%" -T "BAND=%albuminterpret%" -T "ALBUMARTIST=%albuminterpret%" -T "COMPOSER=%composer%" %haslyrics%--tag-from-file=LYRICS="%lyricsfile%"%haslyrics% -T "DISCNUMBER=%cdnumber%" -T "TOTALDISCS=%totalcds%" -T "TOTALTRACKS=%numtracks%" %hascover%--picture="%coverfile%"%hascover% %source% -o %dest%
TOC извлечённого CD
     Трек |   Старт  | Длительность | Начальный сектор | Конечный сектор
    ---------------------------------------------------------------------
       1  |  0:00.00 |    4:10.25   |           0      |      18774
       2  |  4:10.25 |    3:40.17   |       18775      |      35291
       3  |  7:50.42 |    3:43.25   |       35292      |      52041
       4  | 11:33.67 |    3:50.15   |       52042      |      69306
       5  | 15:24.07 |    4:19.68   |       69307      |      88799
       6  | 19:44.00 |    3:44.10   |       88800      |     105609
       7  | 23:28.10 |    4:28.02   |      105610      |     125711
       8  | 27:56.12 |    3:39.55   |      125712      |     142191
       9  | 31:35.67 |    5:04.50   |      142192      |     165041
      10  | 36:40.42 |    3:40.08   |      165042      |     181549
      11  | 40:20.50 |    4:04.30   |      181550      |     199879
      12  | 44:25.05 |    4:17.62   |      199880      |     219216
      13  | 48:42.67 |    4:14.60   |      219217      |     238326
      14  | 52:57.52 |    4:03.18   |      238327      |     256569
      15  | 57:00.70 |    3:41.72   |      256570      |     273216
      16  | 60:42.67 |    4:13.13   |      273217      |     292204
      17  | 64:56.05 |    3:53.20   |      292205      |     309699
      18  | 68:49.25 |    4:25.40   |      309700      |     329614
      19  | 73:14.65 |    4:28.12   |      329615      |     349726
Характеристики диапазона извлечения и сообщения об ошибках
Выбранный диапазон
     Имя файла F:\www.torrentfilm.net\Tina Turner - Simply The Best (1992)\Tina Turner - Simply The Best (1992).wav
     Пиковый уровень 100.0 %
     Скорость извлечения 8.0 X
     Качество диапазона 100.0 %
     CRC теста D6680E4E
     CRC копии D6680E4E
     Копирование... OK
Ошибок не произошло
AccurateRip: сводка
Трек  1  : извлечено точно (доверие 4)  [42B95766]  (AR v2)
Трек  2  : извлечено точно (доверие 4)  [2143D483]  (AR v2)
Трек  3  : извлечено точно (доверие 4)  [EAFACF16]  (AR v2)
Трек  4  : извлечено точно (доверие 4)  [9A08B375]  (AR v2)
Трек  5  : извлечено точно (доверие 4)  [A4E5D4ED]  (AR v2)
Трек  6  : извлечено точно (доверие 4)  [D8E5F656]  (AR v2)
Трек  7  : извлечено точно (доверие 4)  [8C635A8A]  (AR v2)
Трек  8  : извлечено точно (доверие 4)  [577D81BE]  (AR v2)
Трек  9  : извлечено точно (доверие 4)  [1EBEDDA0]  (AR v2)
Трек 10  : извлечено точно (доверие 4)  [1C49292B]  (AR v2)
Трек 11  : извлечено точно (доверие 4)  [04982453]  (AR v2)
Трек 12  : извлечено точно (доверие 4)  [A16C42EC]  (AR v2)
Трек 13  : извлечено точно (доверие 4)  [CB503BC8]  (AR v2)
Трек 14  : извлечено точно (доверие 4)  [554A434E]  (AR v2)
Трек 15  : извлечено точно (доверие 4)  [0235C882]  (AR v2)
Трек 16  : извлечено точно (доверие 4)  [0DB51775]  (AR v2)
Трек 17  : извлечено точно (доверие 4)  [13473162]  (AR v2)
Трек 18  : извлечено точно (доверие 4)  [4C717B0B]  (AR v2)
Трек 19  : извлечено точно (доверие 3)  [573C5AC7]  (AR v2)
Все треки извлечены точно
Конец отчёта
---- CUETools DB Plugin V2.1.3
[CTDB TOCID: eccbDeeyo_8aoPuP5TJOPptAibk-] found, Submit result: eccbDeeyo_8aoPuP5TJOPptAibk- has been confirmed
[be36afb2] (13/14) Accurately ripped
[f5895491] (01/14) No match
==== Контрольная сумма отчёта C7BAC9E97DFD1EC857DCD56548D4DEDDF09A3A5C0B507446E3EF0F19F6B61609 ====

Bonus CD

1. The Best (performed by Tina Turner, Jimmy Barnes & Diesel)
2. I'm A Lady
3. I Can't Stand The Rain
4. Be Tender With Me Baby
5. Show Some Respect

Лог создания рипа

Exact Audio Copy V1.0 beta 3 from 29. August 2011
Отчёт EAC об извлечении, выполненном 9. января 2014, 21:10
Tina Turner / Simply The Best [Bonus CD]
Дисковод: ASUS    DRW-24F1ST   a   Adapter: 2  ID: 0
Режим чтения                 : Достоверность
Использование точного потока : Да
Отключение кэша аудио        : Да
Использование указателей C2  : Нет
Коррекция смещения при чтении                     : 6
Способность читать области Lead-in и Lead-out     : Нет
Заполнение пропущенных сэмплов тишиной            : Да
Удаление блоков с тишиной в начале и конце        : Нет
При вычислениях CRC использовались нулевые сэмплы : Да
Интерфейс                                         : Встроенный Win32-интерфейс для Win NT/2000
Выходной формат          : Пользовательский кодировщик
Выбранный битрейт        : 768 kBit/s
Качество                 : Высокий
Добавление ID3-тега      : Нет
Утилита сжатия           : C:\Program Files\Exact Audio Copy\FLAC\FLAC.EXE
Дополнительные параметры : -6 -V -T "ARTIST=%artist%" -T "TITLE=%title%" -T "ALBUM=%albumtitle%" -T "DATE=%year%" -T "TRACKNUMBER=%tracknr%" -T "GENRE=%genre%" -T "COMMENT=%comment%" -T "BAND=%albuminterpret%" -T "ALBUMARTIST=%albuminterpret%" -T "COMPOSER=%composer%" %haslyrics%--tag-from-file=LYRICS="%lyricsfile%"%haslyrics% -T "DISCNUMBER=%cdnumber%" -T "TOTALDISCS=%totalcds%" -T "TOTALTRACKS=%numtracks%" %hascover%--picture="%coverfile%"%hascover% %source% -o %dest%
TOC извлечённого CD
     Трек |   Старт  | Длительность | Начальный сектор | Конечный сектор
    ---------------------------------------------------------------------
       1  |  0:00.00 |    4:12.20   |           0      |      18919
       2  |  4:12.20 |    3:24.70   |       18920      |      34289
       3  |  7:37.15 |    3:44.17   |       34290      |      51106
       4  | 11:21.32 |    4:17.40   |       51107      |      70421
       5  | 15:38.72 |    3:19.60   |       70422      |      85406
Характеристики диапазона извлечения и сообщения об ошибках
Выбранный диапазон
     Имя файла F:\www.torrentfilm.net\Tina Turner - Simply The Best (1992)\Tina Turner - Simply The Best [Bonus CD] (1992).wav
     Пиковый уровень 100.0 %
     Скорость извлечения 2.3 X
     Качество диапазона 99.9 %
     CRC теста 48100E6B
     CRC копии 48100E6B
     Копирование... OK
Ошибок не произошло
AccurateRip: сводка
Трек  1  : извлечено точно (доверие 4)  [D71E791E]  (AR v2)
Трек  2  : извлечено точно (доверие 4)  [69A166D6]  (AR v2)
Трек  3  : извлечено точно (доверие 4)  [39B5D7D3]  (AR v2)
Трек  4  : извлечено точно (доверие 4)  [C6CB42C6]  (AR v2)
Трек  5  : извлечено точно (доверие 4)  [1DF247A1]  (AR v2)
Все треки извлечены точно
Конец отчёта
---- CUETools DB Plugin V2.1.3
[CTDB TOCID: JJxgmENI7Cx_958Eif0i0XwQwds-] found, Submit result: JJxgmENI7Cx_958Eif0i0XwQwds- has been confirmed
[24e8e4dc] (5/5) Accurately ripped
==== Контрольная сумма отчёта F30C7E94F652E79A26E7FCA806FAF217547D376FABCAAEA28DF3F043FE8E13C9 ====
[Профиль] [ЛС]
Кто просматривает тему:

Показать сообщения:    

Текущее время: Сегодня 11:55

Часовой пояс: GMT



Вы не можете начинать темы
Вы не можете отвечать на сообщения
Вы не можете редактировать свои сообщения
Вы не можете удалять свои сообщения
Вы не можете голосовать в опросах
Вы не можете прикреплять файлы к сообщениям
Вы не можете скачивать файлы