(Heavy Metal) Tim Ripper Owens - Play My Game - 2009, FLAC (image + .cue), lossless

 
Автор Сообщение

sergej644 ®

Пол:

Стаж: 4 года 11 месяцев

Сообщений: 6046

Откуда: Soviet Union



Награды: Нет

Торрент-статистика

Создавать темы 19-Сен-2015 21:49

[Цитировать]

--Tim Ripper Owens - Play My Game

Год издания: 2009
Страна: USA
Жанр: Heavy Metal
Продолжительность: 00:53:00- Лейбл издания: SPV
Страна-выпуска диска: Germany
Номер по каталогу: spv 306622 CD
Формат: FLAC
Битрейт аудио: lossless
Тип рипа: image+.cue
Наличие сканов в содержимом раздачи: да

Трэклист:

01. Starting Over (03:34)
02. Believe (04:36)
03. The Cover Up (04:31)
04. Pick Yourself Up (04:33)
05. It Is Me (02:54)
06. No More Goodbyes (03:36)
07. The World Is Blind (06:01)
08. To Live Again (04:51)
09. The Light (04:37)
10. Play My Game (04:44)
11. Death Race (03:30)
12. The Shadows Are Alive (05:36)
-

лог создания рипа

Exact Audio Copy V0.99 prebeta 4 from 23. January 2008
Отчёт EAC об извлечении, выполненном 30. мая 2009, 19:20
Tim Ripper Owens / Play My Game
Дисковод: HL-DT-STRW/DVD GCC-4520B   Adapter: 4  ID: 0
Режим чтения                 : Достоверность
Использование точного потока : Да
Отключение кэша аудио        : Да
Использование указателей C2  : Нет
Коррекция смещения при чтении                     : 6
Способность читать области Lead-in и Lead-out     : Нет
Заполнение пропущенных сэмплов тишиной            : Да
Удаление блоков с тишиной в начале и конце        : Нет
При вычислениях CRC использовались нулевые сэмплы : Да
Интерфейс                                         : Установленный внешний ASPI-интерфейс
Выходной формат          : Monkey's Audio (без потерь)
Выбранный битрейт        : Fast Lossless Compression
Качество                 : Высокий
Добавление ID3-тэга      : Нет
Утилита сжатия           : C:\Program Files\Monkey's Audio\MAC.exe
TOC извлечённого CD
     Трек |   Старт  | Длительность | Начальный сектор | Конечный сектор
    ---------------------------------------------------------------------
       1  |  0:00.00 |    3:33.46   |           0      |      16020
       2  |  3:33.46 |    4:35.44   |       16021      |      36689
       3  |  8:09.15 |    4:30.64   |       36690      |      57003
       4  | 12:40.04 |    4:32.41   |       57004      |      77444
       5  | 17:12.45 |    2:53.49   |       77445      |      90468
       6  | 20:06.19 |    3:35.59   |       90469      |     106652
       7  | 23:42.03 |    6:00.14   |      106653      |     133666
       8  | 29:42.17 |    4:50.65   |      133667      |     155481
       9  | 34:33.07 |    4:36.50   |      155482      |     176231
      10  | 39:09.57 |    4:43.63   |      176232      |     197519
      11  | 43:53.45 |    3:29.48   |      197520      |     213242
      12  | 47:23.18 |    5:35.71   |      213243      |     238438
Характеристики диапазона извлечения и сообщения об ошибках
Выбранный диапазон
     Имя файла C:\Documents and Settings\Admin\Рабочий стол\RIPS\Tim Ripper Owens - Play My Game.wav
     Пиковый уровень 95.1 %
     Качество диапазона 99.9 %
     CRC теста 54975AFF
     CRC копии 54975AFF
     Копирование... OK
Ошибок не произошло
Конец отчёта

содержание индексной карты *cue

REM GENRE "Heavy Metal"
REM DATE 2009
REM DISCID 950C6B0C
REM COMMENT "ExactAudioCopy v0.99pb4"
PERFORMER "Tim Ripper Owens"
TITLE "Play My Game"
FILE "Tim Ripper Owens - Play My Game.ape" WAVE
  TRACK 01 AUDIO
    TITLE "Starting Over"
    PERFORMER "Tim Ripper Owens"
    INDEX 01 00:00:00
  TRACK 02 AUDIO
    TITLE "Believe"
    PERFORMER "Tim Ripper Owens"
    INDEX 01 03:33:46
  TRACK 03 AUDIO
    TITLE "The Cover Up"
    PERFORMER "Tim Ripper Owens"
    INDEX 01 08:09:15
  TRACK 04 AUDIO
    TITLE "Pick Yourself Up"
    PERFORMER "Tim Ripper Owens"
    INDEX 01 12:40:04
  TRACK 05 AUDIO
    TITLE "It Is Me"
    PERFORMER "Tim Ripper Owens"
    INDEX 01 17:12:45
  TRACK 06 AUDIO
    TITLE "No More Goodbyes"
    PERFORMER "Tim Ripper Owens"
    INDEX 01 20:06:19
  TRACK 07 AUDIO
    TITLE "The World Is Blind"
    PERFORMER "Tim Ripper Owens"
    INDEX 01 23:42:03
  TRACK 08 AUDIO
    TITLE "To Live Again"
    PERFORMER "Tim Ripper Owens"
    INDEX 01 29:42:17
  TRACK 09 AUDIO
    TITLE "The Light"
    PERFORMER "Tim Ripper Owens"
    INDEX 01 34:33:07
  TRACK 10 AUDIO
    TITLE "Play My Game"
    PERFORMER "Tim Ripper Owens"
    INDEX 01 39:09:57
  TRACK 11 AUDIO
    TITLE "Death Race"
    PERFORMER "Tim Ripper Owens"
    INDEX 01 43:53:45
  TRACK 12 AUDIO
    TITLE "The Shadows Are Alive"
    PERFORMER "Tim Ripper Owens"
    INDEX 01 47:23:18

Лог Audiochecker:

AUDIOCHECKER v2.0 beta (build 457) - by Dester - opdester@freemail.hu
~~~~~~~~~~~~~~~~~~~~~~~~~~~~~~~~~~
-=== DO NOT EDIT THIS FILE! ===-
Path: ...\RIPS
1 -=- Tim Ripper Owens - Play My Game.ape -=- CDDA (100%)
124298324
-

Доп. информация:

Тим Оуэнс / Tim Owens
Тимоти Стивен Оуэнс — известный также под сценическим псевдонимом Ripper — американский рок-музыкант, известен как участник Judas Priest, Iced Earth и сольного проекта Ингви Мальмстина.
Родился: 13 сентября 1967 г. (48 лет), Акрон, Огайо, США
Музыкальные группы: Judas Priest (1996 г. – 2003 г.)
[Профиль] [ЛС]
Показать сообщения:    

Текущее время: Сегодня 19:36

Часовой пояс: GMT



Вы не можете начинать темы
Вы не можете отвечать на сообщения
Вы не можете редактировать свои сообщения
Вы не можете удалять свои сообщения
Вы не можете голосовать в опросах
Вы не можете прикреплять файлы к сообщениям
Вы не можете скачивать файлы