(Hard Rock, Classic Rock)Thin Lizzy - Classic Album Selection 1974-1979 (6CD Box) - 2012) [WavPack, image +.cue, lossless]

 
Автор Сообщение

sergej644 ®

Пол:

Стаж: 4 года 11 месяцев

Сообщений: 6046

Откуда: Soviet Union



Награды: Нет

Торрент-статистика

Создавать темы 03-Авг-2016 16:23

[Цитировать]

-Thin Lizzy - Classic Album Selection 1974-1979 (6CD Box)--
Год издания: 2012
Страна: Dublin, Ireland
Жанр: Hard Rock, Classic Rock
Продолжительность: 03:43:18-Лейбл издания: Mercury Records
Страна-выпуска диска: EU
Номер по каталогу: 0602537035526-Формат: WavPack
Битрейт аудио: Lossless
Тип рипа: image +.cue
Наличие сканов в содержимом раздачи: да
-

Трэклист

1974 - Nightlife (Mercury Records 52943170) | 00:37:41

01. She Knows (5:15)
02. Night Life (3:59)
03. It's Only Money (2:51)
04. Still In Love With You (5:42)
05. Frankie Carroll (2:05)
06. Showdown (4:33)
07. Banshee (1:29)
08. Philomena (3:43)
09. Sha-La-La (3:29)
10. Dear Heart (4:35)

Лог создания рипа

Exact Audio Copy V1.0 beta 3 from 29. August 2011
EAC extraction logfile from 20. September 2012, 22:59
Thin Lizzy / Nightlife
Used drive  : HL-DT-STDVDRAM GH22NS50   Adapter: 1  ID: 1
Read mode               : Secure
Utilize accurate stream : Yes
Defeat audio cache      : Yes
Make use of C2 pointers : No
Read offset correction                      : 667
Overread into Lead-In and Lead-Out          : No
Fill up missing offset samples with silence : Yes
Delete leading and trailing silent blocks   : No
Null samples used in CRC calculations       : Yes
Used interface                              : Native Win32 interface for Win NT & 2000
Used output format : Internal WAV Routines
Sample format      : 44.100 Hz; 16 Bit; Stereo
TOC of the extracted CD
     Track |   Start  |  Length  | Start sector | End sector
    ---------------------------------------------------------
        1  |  0:00.33 |  5:15.00 |        33    |    23657
        2  |  5:15.33 |  3:59.00 |     23658    |    41582
        3  |  9:14.33 |  2:50.50 |     41583    |    54382
        4  | 12:05.08 |  5:42.25 |     54383    |    80057
        5  | 17:47.33 |  2:05.00 |     80058    |    89432
        6  | 19:52.33 |  4:33.00 |     89433    |   109907
        7  | 24:25.33 |  1:29.00 |    109908    |   116582
        8  | 25:54.33 |  3:43.00 |    116583    |   133307
        9  | 29:37.33 |  3:29.00 |    133308    |   148982
       10  | 33:06.33 |  4:35.25 |    148983    |   169632
Range status and errors
Selected range
     Filename C:\Music CD\Thin Lizzy - Nightlife.wav
     Peak level 95.9 %
     Extraction speed 1.6 X
     Range quality 100.0 %
     Test CRC 72A1CECB
     Copy CRC 72A1CECB
     Copy OK
No errors occurred
AccurateRip summary
Track  1  accurately ripped (confidence 2)  [94D5C46B]  (AR v2)
Track  2  accurately ripped (confidence 2)  [482F1AA9]  (AR v2)
Track  3  accurately ripped (confidence 2)  [C7CB20AD]  (AR v2)
Track  4  accurately ripped (confidence 2)  [B175FE28]  (AR v2)
Track  5  accurately ripped (confidence 2)  [CE3C3FE2]  (AR v2)
Track  6  accurately ripped (confidence 2)  [B74C3E29]  (AR v2)
Track  7  accurately ripped (confidence 2)  [EE71AC91]  (AR v2)
Track  8  accurately ripped (confidence 2)  [D4AC6D48]  (AR v2)
Track  9  accurately ripped (confidence 2)  [3645A029]  (AR v2)
Track 10  accurately ripped (confidence 2)  [9DF4BFAA]  (AR v2)
All tracks accurately ripped
End of status report

Индексная карта (non-compilant .cue)

REM GENRE "Rock"
REM DATE 1974
REM DISCID A108D50A
REM COMMENT "ExactAudioCopy v1.0b3"
REM ACCURATERIPID 000ec38b-0073b967-a108d50a
CATALOG 602537035526
REM DISCNUMBER 1
REM TOTALDISCS 1
PERFORMER "Thin Lizzy"
TITLE "Nightlife"
FILE "Thin Lizzy - 1974 - Nightlife.wv" WAVE
  TRACK 01 AUDIO
    TITLE "She Knows"
    PERFORMER "Thin Lizzy"
    INDEX 00 00:00:00
    INDEX 01 00:00:33
  TRACK 02 AUDIO
    TITLE "Night Life"
    PERFORMER "Thin Lizzy"
    INDEX 00 05:14:20
    INDEX 01 05:15:33
  TRACK 03 AUDIO
    TITLE "It's Only Money"
    PERFORMER "Thin Lizzy"
    INDEX 00 09:13:08
    INDEX 01 09:14:33
  TRACK 04 AUDIO
    TITLE "Still In Love With You"
    PERFORMER "Thin Lizzy"
    INDEX 00 12:02:20
    INDEX 01 12:05:08
  TRACK 05 AUDIO
    TITLE "Frankie Carroll"
    PERFORMER "Thin Lizzy"
    INDEX 00 17:45:33
    INDEX 01 17:47:33
  TRACK 06 AUDIO
    TITLE "Showdown"
    PERFORMER "Thin Lizzy"
    INDEX 00 19:50:08
    INDEX 01 19:52:33
  TRACK 07 AUDIO
    TITLE "Banshee"
    PERFORMER "Thin Lizzy"
    INDEX 00 24:24:33
    INDEX 01 24:25:33
  TRACK 08 AUDIO
    TITLE "Philomena"
    PERFORMER "Thin Lizzy"
    INDEX 00 25:52:70
    INDEX 01 25:54:33
  TRACK 09 AUDIO
    TITLE "Sha-La-La"
    PERFORMER "Thin Lizzy"
    INDEX 00 29:35:70
    INDEX 01 29:37:33
  TRACK 10 AUDIO
    TITLE "Dear Heart"
    PERFORMER "Thin Lizzy"
    INDEX 00 33:04:45
    INDEX 01 33:06:33

1975 - Fighting (Mercury Records 52943172) | 00:38:07

01. Rosalie (2:58)
02. For Those Who Love to Live (3:08)
03. Suicide (5:15)
04. Wild One (4:20)
05. Fighting My Way Back (3:15)
06. King's Vengeance (4:09)
07. Spirit Slips Away (4:41)
08. Silver Dollar (3:30)
09. Freedom Song (3:32)
10. Ballad of a Hard Man (3:19)

Лог создания рипа

Exact Audio Copy V1.0 beta 3 from 29. August 2011
EAC extraction logfile from 22. September 2012, 17:49
Thin Lizzy / Fighting
Used drive  : HL-DT-STDVDRAM GH22NS50   Adapter: 1  ID: 1
Read mode               : Secure
Utilize accurate stream : Yes
Defeat audio cache      : Yes
Make use of C2 pointers : No
Read offset correction                      : 667
Overread into Lead-In and Lead-Out          : No
Fill up missing offset samples with silence : Yes
Delete leading and trailing silent blocks   : No
Null samples used in CRC calculations       : Yes
Used interface                              : Native Win32 interface for Win NT & 2000
Used output format : Internal WAV Routines
Sample format      : 44.100 Hz; 16 Bit; Stereo
TOC of the extracted CD
     Track |   Start  |  Length  | Start sector | End sector
    ---------------------------------------------------------
        1  |  0:00.33 |  2:58.00 |        33    |    13382
        2  |  2:58.33 |  3:08.32 |     13383    |    27514
        3  |  6:06.65 |  5:14.43 |     27515    |    51107
        4  | 11:21.33 |  4:20.00 |     51108    |    70607
        5  | 15:41.33 |  3:15.37 |     70608    |    85269
        6  | 18:56.70 |  4:09.00 |     85270    |   103944
        7  | 23:05.70 |  4:41.00 |    103945    |   125019
        8  | 27:46.70 |  3:29.38 |    125020    |   140732
        9  | 31:16.33 |  3:32.00 |    140733    |   156632
       10  | 34:48.33 |  3:18.63 |    156633    |   171545
Range status and errors
Selected range
     Filename C:\Music CD\Thin Lizzy - Fighting.wav
     Peak level 97.5 %
     Extraction speed 1.6 X
     Range quality 100.0 %
     Test CRC 1A563E5D
     Copy CRC 1A563E5D
     Copy OK
No errors occurred
AccurateRip summary
Track  1  accurately ripped (confidence 1)  [90BDE7A6]  (AR v1)
Track  2  accurately ripped (confidence 1)  [A64B0F9F]  (AR v1)
Track  3  accurately ripped (confidence 1)  [36CD5B16]  (AR v1)
Track  4  accurately ripped (confidence 1)  [8E886C71]  (AR v1)
Track  5  accurately ripped (confidence 1)  [27477EF4]  (AR v1)
Track  6  accurately ripped (confidence 1)  [86F7255F]  (AR v1)
Track  7  accurately ripped (confidence 1)  [9D09DBDA]  (AR v1)
Track  8  accurately ripped (confidence 1)  [55326A03]  (AR v1)
Track  9  accurately ripped (confidence 1)  [DF2ED73A]  (AR v1)
Track 10  accurately ripped (confidence 1)  [6E019B7B]  (AR v1)
All tracks accurately ripped
End of status report

Индексная карта (non-compilant .cue)

REM GENRE "Rock"
REM DATE 1975
REM DISCID 9508EF0A
REM COMMENT "ExactAudioCopy v1.0b3"
REM ACCURATERIPID 000e6e82-00745da0-9508ef0a
CATALOG 602537035526
REM DISCNUMBER 1
REM TOTALDISCS 1
PERFORMER "Thin Lizzy"
TITLE "Fighting"
FILE "Thin Lizzy - 1975 - Fighting.wv" WAVE
  TRACK 01 AUDIO
    TITLE "Rosalie"
    PERFORMER "Thin Lizzy"
    INDEX 00 00:00:00
    INDEX 01 00:00:33
  TRACK 02 AUDIO
    TITLE "For Those Who Love to Live"
    PERFORMER "Thin Lizzy"
    INDEX 00 02:57:08
    INDEX 01 02:58:33
  TRACK 03 AUDIO
    TITLE "Suicide"
    PERFORMER "Thin Lizzy"
    INDEX 01 06:06:65
  TRACK 04 AUDIO
    TITLE "Wild One"
    PERFORMER "Thin Lizzy"
    INDEX 00 11:19:70
    INDEX 01 11:21:33
  TRACK 05 AUDIO
    TITLE "Fighting My Way Back"
    PERFORMER "Thin Lizzy"
    INDEX 00 15:40:20
    INDEX 01 15:41:33
  TRACK 06 AUDIO
    TITLE "King's Vengeance"
    PERFORMER "Thin Lizzy"
    INDEX 00 18:54:45
    INDEX 01 18:56:70
  TRACK 07 AUDIO
    TITLE "Spirit Slips Away"
    PERFORMER "Thin Lizzy"
    INDEX 01 23:05:70
  TRACK 08 AUDIO
    TITLE "Silver Dollar"
    PERFORMER "Thin Lizzy"
    INDEX 01 27:46:70
  TRACK 09 AUDIO
    TITLE "Freedom Song"
    PERFORMER "Thin Lizzy"
    INDEX 00 31:14:58
    INDEX 01 31:16:33
  TRACK 10 AUDIO
    TITLE "Ballad of a Hard Man"
    PERFORMER "Thin Lizzy"
    INDEX 00 34:47:33
    INDEX 01 34:48:33

1976 - Jailbreak (Mercury Records 52943178) | 00:36:18

01. Jailbreak (4:04)
02. Angel From The Coast (3:07)
03. Running Back (3:17)
04. Romeo And The Lonely Girl (3:59)
05. Warriors (4:12)
06. The Boys Are Back In Town (4:30)
07. Fight Or Fall (3:48)
08. Cowboy Song (5:18)
09. Emerald (4:04)

Лог создания рипа

Exact Audio Copy V1.0 beta 3 from 29. August 2011
EAC extraction logfile from 24. September 2012, 21:23
Thin Lizzy / Jailbreak
Used drive  : HL-DT-STDVDRAM GH22NS50   Adapter: 1  ID: 1
Read mode               : Secure
Utilize accurate stream : Yes
Defeat audio cache      : Yes
Make use of C2 pointers : No
Read offset correction                      : 667
Overread into Lead-In and Lead-Out          : No
Fill up missing offset samples with silence : Yes
Delete leading and trailing silent blocks   : No
Null samples used in CRC calculations       : Yes
Used interface                              : Native Win32 interface for Win NT & 2000
Used output format : Internal WAV Routines
Sample format      : 44.100 Hz; 16 Bit; Stereo
TOC of the extracted CD
     Track |   Start  |  Length  | Start sector | End sector
    ---------------------------------------------------------
        1  |  0:00.33 |  4:04.00 |        33    |    18332
        2  |  4:04.33 |  3:06.50 |     18333    |    32332
        3  |  7:11.08 |  3:16.62 |     32333    |    47094
        4  | 10:27.70 |  3:58.38 |     47095    |    64982
        5  | 14:26.33 |  4:12.00 |     64983    |    83882
        6  | 18:38.33 |  4:30.00 |     83883    |   104132
        7  | 23:08.33 |  3:48.00 |    104133    |   121232
        8  | 26:56.33 |  5:18.00 |    121233    |   145082
        9  | 32:14.33 |  4:04.25 |    145083    |   163407
Range status and errors
Selected range
     Filename C:\Music CD\Thin Lizzy - Jailbreak.wav
     Peak level 94.5 %
     Extraction speed 1.6 X
     Range quality 100.0 %
     Test CRC 378A9D84
     Copy CRC 378A9D84
     Copy OK
No errors occurred
AccurateRip summary
Track  1  cannot be verified as accurate (confidence 23)  [F91DB405], AccurateRip returned [C6DC49E1]  (AR v2)
Track  2  cannot be verified as accurate (confidence 23)  [69C6E903], AccurateRip returned [07D20E2C]  (AR v2)
Track  3  cannot be verified as accurate (confidence 23)  [0B4B8F6B], AccurateRip returned [E9716CB5]  (AR v2)
Track  4  cannot be verified as accurate (confidence 23)  [CDDB11B2], AccurateRip returned [A496DF69]  (AR v2)
Track  5  cannot be verified as accurate (confidence 23)  [69905814], AccurateRip returned [E2B4FF3C]  (AR v2)
Track  6  cannot be verified as accurate (confidence 23)  [4E6F4EE0], AccurateRip returned [65759A57]  (AR v2)
Track  7  cannot be verified as accurate (confidence 23)  [1F9D329A], AccurateRip returned [2378E515]  (AR v2)
Track  8  cannot be verified as accurate (confidence 23)  [E8766C33], AccurateRip returned [C4AA4757]  (AR v2)
Track  9  cannot be verified as accurate (confidence 23)  [2133B9F2], AccurateRip returned [DC556E68]  (AR v2)
No tracks could be verified as accurate
You may have a different pressing from the one(s) in the database
End of status report

Индексная карта (non-compilant .cue)

REM GENRE "Rock"
REM DATE 1976
REM DISCID 73088209
REM COMMENT "ExactAudioCopy v1.0b3"
REM ACCURATERIPID 000be8e5-005854f1-73088209
CATALOG 602537035526
REM DISCNUMBER 1
REM TOTALDISCS 1
PERFORMER "Thin Lizzy"
TITLE "Jailbreak"
FILE "Thin Lizzy - 1976 - Jailbreak.wv" WAVE
  TRACK 01 AUDIO
    TITLE "Jailbreak"
    PERFORMER "Thin Lizzy"
    INDEX 00 00:00:00
    INDEX 01 00:00:33
  TRACK 02 AUDIO
    TITLE "Angel From The Coast"
    PERFORMER "Thin Lizzy"
    INDEX 00 04:03:08
    INDEX 01 04:04:33
  TRACK 03 AUDIO
    TITLE "Running Back"
    PERFORMER "Thin Lizzy"
    INDEX 00 07:09:20
    INDEX 01 07:11:08
  TRACK 04 AUDIO
    TITLE "Romeo And The Lonely Girl"
    PERFORMER "Thin Lizzy"
    INDEX 00 10:25:45
    INDEX 01 10:27:70
  TRACK 05 AUDIO
    TITLE "Warriors"
    PERFORMER "Thin Lizzy"
    INDEX 00 14:25:20
    INDEX 01 14:26:33
  TRACK 06 AUDIO
    TITLE "The Boys Are Back In Town"
    PERFORMER "Thin Lizzy"
    INDEX 00 18:36:33
    INDEX 01 18:38:33
  TRACK 07 AUDIO
    TITLE "Fight Or Fall"
    PERFORMER "Thin Lizzy"
    INDEX 00 23:06:45
    INDEX 01 23:08:33
  TRACK 08 AUDIO
    TITLE "Cowboy Song"
    PERFORMER "Thin Lizzy"
    INDEX 00 26:55:33
    INDEX 01 26:56:33
  TRACK 09 AUDIO
    TITLE "Emerald"
    PERFORMER "Thin Lizzy"
    INDEX 00 32:13:33
    INDEX 01 32:14:33

1976 - Johnny The Fox (Mercury Records 52943176) | 00:36:07

01. Johnny (4:27)
02. Rocky (3:44)
03. Borderline (4:36)
04. Don't Believe A Word (2:21)
05. Fools Gold (3:53)
06. Johnny The Fox Meets Jimmy The Weed (3:44)
07. Old Flame (3:12)
08. Massacre (3:03)
09. Sweet Marie (3:59)
10. Boogie Woogie Dance (3:08)

Лог создания рипа

Exact Audio Copy V1.0 beta 3 from 29. August 2011
EAC extraction logfile from 25. September 2012, 18:46
Thin Lizzy / Johnny The Fox
Used drive  : HL-DT-STDVDRAM GH22NS50   Adapter: 1  ID: 1
Read mode               : Secure
Utilize accurate stream : Yes
Defeat audio cache      : Yes
Make use of C2 pointers : No
Read offset correction                      : 667
Overread into Lead-In and Lead-Out          : No
Fill up missing offset samples with silence : Yes
Delete leading and trailing silent blocks   : No
Null samples used in CRC calculations       : Yes
Used interface                              : Native Win32 interface for Win NT & 2000
Used output format : Internal WAV Routines
Sample format      : 44.100 Hz; 16 Bit; Stereo
TOC of the extracted CD
     Track |   Start  |  Length  | Start sector | End sector
    ---------------------------------------------------------
        1  |  0:00.33 |  4:27.00 |        33    |    20057
        2  |  4:27.33 |  3:44.00 |     20058    |    36857
        3  |  8:11.33 |  4:36.00 |     36858    |    57557
        4  | 12:47.33 |  2:21.00 |     57558    |    68132
        5  | 15:08.33 |  3:53.00 |     68133    |    85607
        6  | 19:01.33 |  3:44.00 |     85608    |   102407
        7  | 22:45.33 |  3:12.00 |    102408    |   116807
        8  | 25:57.33 |  3:03.00 |    116808    |   130532
        9  | 29:00.33 |  3:59.00 |    130533    |   148457
       10  | 32:59.33 |  3:07.62 |    148458    |   162544
Range status and errors
Selected range
     Filename C:\Music CD\Thin Lizzy - Johnny The Fox.wav
     Peak level 87.3 %
     Extraction speed 1.6 X
     Range quality 100.0 %
     Test CRC 81C3C12D
     Copy CRC 81C3C12D
     Copy OK
No errors occurred
AccurateRip summary
Track  1  cannot be verified as accurate (confidence 18)  [47E59BE9], AccurateRip returned [A9F19DC7]  (AR v2)
Track  2  cannot be verified as accurate (confidence 18)  [E41EEBC4], AccurateRip returned [5159632D]  (AR v2)
Track  3  cannot be verified as accurate (confidence 18)  [65E8CAA7], AccurateRip returned [095EB4CD]  (AR v2)
Track  4  cannot be verified as accurate (confidence 18)  [1A6923E3], AccurateRip returned [D7D2D7D7]  (AR v2)
Track  5  cannot be verified as accurate (confidence 18)  [0CF4AE35], AccurateRip returned [25C63D98]  (AR v2)
Track  6  cannot be verified as accurate (confidence 18)  [96EA25F2], AccurateRip returned [EBD151FB]  (AR v2)
Track  7  cannot be verified as accurate (confidence 18)  [83499B87], AccurateRip returned [C88D74E6]  (AR v2)
Track  8  cannot be verified as accurate (confidence 18)  [3E10F50A], AccurateRip returned [E34B22B6]  (AR v2)
Track  9  cannot be verified as accurate (confidence 18)  [FA4C1244], AccurateRip returned [6F58D1FC]  (AR v2)
Track 10  cannot be verified as accurate (confidence 17)  [CD1E3024], AccurateRip returned [B1A090DA]  (AR v2)
No tracks could be verified as accurate
You may have a different pressing from the one(s) in the database
End of status report

Индексная карта (non-compilant .cue)

REM GENRE "Rock"
REM DATE 1976
REM DISCID 9208770A
REM COMMENT "ExactAudioCopy v1.0b3"
REM ACCURATERIPID 000e2ce8-006fe848-9208770a
CATALOG 602537035526
REM DISCNUMBER 1
REM TOTALDISCS 1
PERFORMER "Thin Lizzy"
TITLE "Johnny The Fox"
FILE "Thin Lizzy - 1976 - Johnny The Fox.wv" WAVE
  TRACK 01 AUDIO
    TITLE "Johnny"
    PERFORMER "Thin Lizzy"
    INDEX 00 00:00:00
    INDEX 01 00:00:33
  TRACK 02 AUDIO
    TITLE "Rocky"
    PERFORMER "Thin Lizzy"
    INDEX 00 04:26:45
    INDEX 01 04:27:33
  TRACK 03 AUDIO
    TITLE "Borderline"
    PERFORMER "Thin Lizzy"
    INDEX 00 08:09:70
    INDEX 01 08:11:33
  TRACK 04 AUDIO
    TITLE "Don't Believe A Word"
    PERFORMER "Thin Lizzy"
    INDEX 00 12:46:70
    INDEX 01 12:47:33
  TRACK 05 AUDIO
    TITLE "Fools Gold"
    PERFORMER "Thin Lizzy"
    INDEX 00 15:05:58
    INDEX 01 15:08:33
  TRACK 06 AUDIO
    TITLE "Johnny The Fox Meets Jimmy The Weed"
    PERFORMER "Thin Lizzy"
    INDEX 00 19:00:08
    INDEX 01 19:01:33
  TRACK 07 AUDIO
    TITLE "Old Flame"
    PERFORMER "Thin Lizzy"
    INDEX 00 22:44:45
    INDEX 01 22:45:33
  TRACK 08 AUDIO
    TITLE "Massacre"
    PERFORMER "Thin Lizzy"
    INDEX 00 25:55:70
    INDEX 01 25:57:33
  TRACK 09 AUDIO
    TITLE "Sweet Marie"
    PERFORMER "Thin Lizzy"
    INDEX 00 28:58:70
    INDEX 01 29:00:33
  TRACK 10 AUDIO
    TITLE "Boogie Woogie Dance"
    PERFORMER "Thin Lizzy"
    INDEX 00 32:58:45
    INDEX 01 32:59:33

1977 - Bad Reputation (Mercury Records 52943174) | 00:36:05

01. Soldier Of Fortune (5:19)
02. Bad Reputation (3:12)
03. Opium Trail (4:00)
04. South Bound (4:29)
05. Dancing In The Moonlight (It's Caught Me In Its Spotlight) (3:28)
06. Killer Without A Cause (3:35)
07. Downtown Sundown (4:10)
08. That Woman's Gonna Break Your Heart (3:26)
09. Dear Lord (4:26)

Лог создания рипа

Exact Audio Copy V1.0 beta 3 from 29. August 2011
EAC extraction logfile from 22. September 2012, 12:12
Thin Lizzy / Bad Reputation
Used drive  : HL-DT-STDVDRAM GH22NS50   Adapter: 1  ID: 1
Read mode               : Secure
Utilize accurate stream : Yes
Defeat audio cache      : Yes
Make use of C2 pointers : No
Read offset correction                      : 667
Overread into Lead-In and Lead-Out          : No
Fill up missing offset samples with silence : Yes
Delete leading and trailing silent blocks   : No
Null samples used in CRC calculations       : Yes
Used interface                              : Native Win32 interface for Win NT & 2000
Used output format : Internal WAV Routines
Sample format      : 44.100 Hz; 16 Bit; Stereo
TOC of the extracted CD
     Track |   Start  |  Length  | Start sector | End sector
    ---------------------------------------------------------
        1  |  0:00.33 |  5:19.00 |        33    |    23957
        2  |  5:19.33 |  3:12.00 |     23958    |    38357
        3  |  8:31.33 |  4:00.00 |     38358    |    56357
        4  | 12:31.33 |  4:29.00 |     56358    |    76532
        5  | 17:00.33 |  3:28.00 |     76533    |    92132
        6  | 20:28.33 |  3:35.00 |     92133    |   108257
        7  | 24:03.33 |  4:10.00 |    108258    |   127007
        8  | 28:13.33 |  3:25.55 |    127008    |   142437
        9  | 31:39.13 |  4:26.08 |    142438    |   162395
Range status and errors
Selected range
     Filename C:\Music CD\Thin Lizzy - Bad Reputation.wav
     Peak level 96.8 %
     Extraction speed 1.6 X
     Range quality 99.9 %
     Test CRC 5144A59D
     Copy CRC 5144A59D
     Copy OK
No errors occurred
AccurateRip summary
Track  1  accurately ripped (confidence 1)  [23CB96F3]  (AR v1)
Track  2  accurately ripped (confidence 1)  [71D0B57C]  (AR v1)
Track  3  accurately ripped (confidence 1)  [6D010D40]  (AR v1)
Track  4  accurately ripped (confidence 1)  [FFCE1445]  (AR v1)
Track  5  accurately ripped (confidence 1)  [B69DCAD9]  (AR v1)
Track  6  accurately ripped (confidence 1)  [874B8DB3]  (AR v1)
Track  7  accurately ripped (confidence 1)  [907F6804]  (AR v1)
Track  8  accurately ripped (confidence 1)  [6683363D]  (AR v1)
Track  9  accurately ripped (confidence 1)  [73BCF1B9]  (AR v1)
All tracks accurately ripped
End of status report

Индексная карта (non-compilant .cue)

REM GENRE "Rock"
REM DATE 1977
REM DISCID 59087509
REM COMMENT "ExactAudioCopy v1.0b3"
REM ACCURATERIPID 000ca051-005b9bea-59087509
CATALOG 602537035526
REM DISCNUMBER 1
REM TOTALDISCS 1
PERFORMER "Thin Lizzy"
TITLE "Bad Reputation"
FILE "Thin Lizzy - 1977 - Bad Reputation.wv" WAVE
  TRACK 01 AUDIO
    TITLE "Soldier Of Fortune"
    PERFORMER "Thin Lizzy"
    INDEX 00 00:00:00
    INDEX 01 00:00:33
  TRACK 02 AUDIO
    TITLE "Bad Reputation"
    PERFORMER "Thin Lizzy"
    INDEX 00 05:18:58
    INDEX 01 05:19:33
  TRACK 03 AUDIO
    TITLE "Opium Trail"
    PERFORMER "Thin Lizzy"
    INDEX 00 08:29:20
    INDEX 01 08:31:33
  TRACK 04 AUDIO
    TITLE "South Bound"
    PERFORMER "Thin Lizzy"
    INDEX 00 12:29:70
    INDEX 01 12:31:33
  TRACK 05 AUDIO
    TITLE "Dancing In The Moonlight (It's Caught Me In Its Spotlight)"
    PERFORMER "Thin Lizzy"
    INDEX 00 16:58:58
    INDEX 01 17:00:33
  TRACK 06 AUDIO
    TITLE "Killer Without A Cause"
    PERFORMER "Thin Lizzy"
    INDEX 00 20:27:20
    INDEX 01 20:28:33
  TRACK 07 AUDIO
    TITLE "Downtown Sundown"
    PERFORMER "Thin Lizzy"
    INDEX 00 24:01:45
    INDEX 01 24:03:33
  TRACK 08 AUDIO
    TITLE "That Woman's Gonna Break Your Heart"
    PERFORMER "Thin Lizzy"
    INDEX 00 28:11:70
    INDEX 01 28:13:33
  TRACK 09 AUDIO
    TITLE "Dear Lord"
    PERFORMER "Thin Lizzy"
    INDEX 01 31:39:13

1979 - Black Rose (Mercury Records 52943531) | 00:38:55

01. Do Anything You Want To (3:53)
02. Toughest Street In Town (4:02)
03. S & M (4:08)
04. Waiting For An Alibi (3:30)
05. Sarah (3:34)
06. Got To Give It Up (4:26)
07. Get Out Of Here (3:38)
08. With Love (4:40)
09. Roisin Dubh (Black Rose) A Rock Legend (7:04)

Лог создания рипа

Exact Audio Copy V1.0 beta 3 from 29. August 2011
EAC extraction logfile from 23. September 2012, 20:26
Thin Lizzy / Black Rose
Used drive  : HL-DT-STDVDRAM GH22NS50   Adapter: 1  ID: 1
Read mode               : Secure
Utilize accurate stream : Yes
Defeat audio cache      : Yes
Make use of C2 pointers : No
Read offset correction                      : 667
Overread into Lead-In and Lead-Out          : No
Fill up missing offset samples with silence : Yes
Delete leading and trailing silent blocks   : No
Null samples used in CRC calculations       : Yes
Used interface                              : Native Win32 interface for Win NT & 2000
Used output format : Internal WAV Routines
Sample format      : 44.100 Hz; 16 Bit; Stereo
TOC of the extracted CD
     Track |   Start  |  Length  | Start sector | End sector
    ---------------------------------------------------------
        1  |  0:00.33 |  3:53.37 |        33    |    17544
        2  |  3:53.70 |  4:02.00 |     17545    |    35694
        3  |  7:55.70 |  4:08.00 |     35695    |    54294
        4  | 12:03.70 |  3:30.00 |     54295    |    70044
        5  | 15:33.70 |  3:33.38 |     70045    |    86057
        6  | 19:07.33 |  4:26.00 |     86058    |   106007
        7  | 23:33.33 |  3:38.00 |    106008    |   122357
        8  | 27:11.33 |  4:40.00 |    122358    |   143357
        9  | 31:51.33 |  7:04.25 |    143358    |   175182
Range status and errors
Selected range
     Filename C:\Music CD\Thin Lizzy - Black Rose.wav
     Peak level 96.3 %
     Extraction speed 1.6 X
     Range quality 100.0 %
     Test CRC D3AE2174
     Copy CRC D3AE2174
     Copy OK
No errors occurred
AccurateRip summary
Track  1  cannot be verified as accurate (confidence 40)  [9E59F0D1], AccurateRip returned [8EFFD77C]  (AR v2)
Track  2  cannot be verified as accurate (confidence 40)  [D02996B4], AccurateRip returned [4B3A141D]  (AR v2)
Track  3  cannot be verified as accurate (confidence 39)  [12E3436D], AccurateRip returned [9CB48124]  (AR v2)
Track  4  cannot be verified as accurate (confidence 40)  [A5B8DD92], AccurateRip returned [0207F24D]  (AR v2)
Track  5  cannot be verified as accurate (confidence 39)  [A2F5042B], AccurateRip returned [31D90A97]  (AR v2)
Track  6  cannot be verified as accurate (confidence 38)  [A7419183], AccurateRip returned [A9E73F94]  (AR v2)
Track  7  cannot be verified as accurate (confidence 40)  [9BA074A4], AccurateRip returned [2CE3CE96]  (AR v2)
Track  8  cannot be verified as accurate (confidence 40)  [F6C74652], AccurateRip returned [7B520A55]  (AR v2)
Track  9  cannot be verified as accurate (confidence 39)  [B3616CA3], AccurateRip returned [5C98FFBC]  (AR v2)
No tracks could be verified as accurate
You may have a different pressing from the one(s) in the database
End of status report

Индексная карта (non-compilant .cue)

REM GENRE "Rock"
REM DATE 1979
REM DISCID 72091F09
REM COMMENT "ExactAudioCopy v1.0b3"
REM ACCURATERIPID 000c5e52-005b6245-72091f09
CATALOG 602537035526
REM DISCNUMBER 1
REM TOTALDISCS 1
PERFORMER "Thin Lizzy"
TITLE "Black Rose"
FILE "Thin Lizzy - 1979 - Black Rose.wv" WAVE
  TRACK 01 AUDIO
    TITLE "Do Anything You Want To"
    PERFORMER "Thin Lizzy"
    INDEX 00 00:00:00
    INDEX 01 00:00:33
  TRACK 02 AUDIO
    TITLE "Toughest Street In Town"
    PERFORMER "Thin Lizzy"
    INDEX 00 03:52:32
    INDEX 01 03:53:70
  TRACK 03 AUDIO
    TITLE "S & M"
    PERFORMER "Thin Lizzy"
    INDEX 00 07:54:45
    INDEX 01 07:55:70
  TRACK 04 AUDIO
    TITLE "Waiting For An Alibi"
    PERFORMER "Thin Lizzy"
    INDEX 00 12:01:32
    INDEX 01 12:03:70
  TRACK 05 AUDIO
    TITLE "Sarah"
    PERFORMER "Thin Lizzy"
    INDEX 01 15:33:70
  TRACK 06 AUDIO
    TITLE "Got To Give It Up"
    PERFORMER "Thin Lizzy"
    INDEX 00 19:06:33
    INDEX 01 19:07:33
  TRACK 07 AUDIO
    TITLE "Get Out Of Here"
    PERFORMER "Thin Lizzy"
    INDEX 00 23:32:33
    INDEX 01 23:33:33
  TRACK 08 AUDIO
    TITLE "With Love"
    PERFORMER "Thin Lizzy"
    INDEX 00 27:08:70
    INDEX 01 27:11:33
  TRACK 09 AUDIO
    TITLE "Roisin Dubh (Black Rose) A Rock Legend"
    PERFORMER "Thin Lizzy"
    INDEX 00 31:50:33
    INDEX 01 31:51:33
-

Инфо:

Оф сайт: http://thinlizzyband.com
--
[Профиль] [ЛС]
Показать сообщения:    

Текущее время: Сегодня 09:09

Часовой пояс: GMT



Вы не можете начинать темы
Вы не можете отвечать на сообщения
Вы не можете редактировать свои сообщения
Вы не можете удалять свои сообщения
Вы не можете голосовать в опросах
Вы не можете прикреплять файлы к сообщениям
Вы не можете скачивать файлы