(Soft-Rock) The Eagles - The Very Best Of The Eagles - 2001 [APE, image +.cue, lossless]

 
Автор Сообщение

sergej644 ®

Пол:

Стаж: 4 года 11 месяцев

Сообщений: 6038

Откуда: Soviet Union



Награды: Нет

Торрент-статистика

Создавать темы 29-Фев-2016 17:12

[Цитировать]

-The Eagles - The Very Best Of The Eagles--
Год издания: 2001
Страна: USA
Жанр: Soft-Rock
Продолжительность: 01:15:41-Лейбл издания: Elektra Records
Страна-выпуска диска: Germany
Номер по каталогу: 7559626802-Формат: APE
Битрейт аудио: Lossless
Тип рипа: image +.cue
Наличие сканов в содержимом раздачи: да
-
Eagles — американская рок-группа, исполняющая мелодичный гитарный кантри-рок и софт-рок. В течение десяти лет своего существования пять раз возглавляла американские поп-чарты синглов и четырежды — хит-парад альбомов.

Трэклист


01. One Of These Nights (04:52)
02. Take It Easy (03:33)
03. Hotel California (06:30)
04. New Kid In Town (05:04)
05. Heartache Tonight (04:27)
06. Tequila Sunrise (02:55)
07. Desperado (03:38)
08. Best Of My Love (04:35)
09. Lyin Eyes (06:22)
10. Take It To The Limit (04:47)
11. I Can't Tell You Why (04:56)
12. Peaceful Easy Feeling (04:18)
13. James Dean (03:39)
14. Doolin-Dalton (03:30)
15. Witchy Woman (04:12)
16. The Long Run (03:43)
17. Life In The Fast Lane (04:46)
-

Лог создания рипа

Exact Audio Copy V0.99 prebeta 5 from 4. May 2009
Отчёт EAC об извлечении, выполненном 21. октября 2010, 19:41
The Eagles / The Very Best Of The Eagles
Дисковод: _NEC    DVD_RW ND-4550A   Adapter: 0  ID: 0
Режим чтения                 : Достоверность
Использование точного потока : Да
Отключение кэша аудио        : Да
Использование указателей C2  : Нет
Коррекция смещения при чтении                     : 48
Способность читать области Lead-in и Lead-out     : Нет
Заполнение пропущенных сэмплов тишиной            : Да
Удаление блоков с тишиной в начале и конце        : Нет
При вычислениях CRC использовались нулевые сэмплы : Да
Интерфейс                                         : Установленный внешний ASPI-интерфейс
Выходной формат : Внутренние WAV-операции
Формат сэмплов  : 44.100 Гц; 16 бит; стерео
TOC извлечённого CD
     Трек |   Старт  | Длительность | Начальный сектор | Конечный сектор
    ---------------------------------------------------------------------
       1  |  0:00.00 |    4:51.67   |           0      |      21891
       2  |  4:51.67 |    3:32.23   |       21892      |      37814
       3  |  8:24.15 |    6:29.72   |       37815      |      67061
       4  | 14:54.12 |    5:03.73   |       67062      |      89859
       5  | 19:58.10 |    4:26.60   |       89860      |     109869
       6  | 24:24.70 |    2:54.12   |      109870      |     122931
       7  | 27:19.07 |    3:37.05   |      122932      |     139211
       8  | 30:56.12 |    4:34.30   |      139212      |     159791
       9  | 35:30.42 |    6:21.65   |      159792      |     188431
      10  | 41:52.32 |    4:46.70   |      188432      |     209951
      11  | 46:39.27 |    4:55.68   |      209952      |     232144
      12  | 51:35.20 |    4:17.65   |      232145      |     251484
      13  | 55:53.10 |    3:38.17   |      251485      |     267851
      14  | 59:31.27 |    3:29.23   |      267852      |     283549
      15  | 63:00.50 |    4:11.32   |      283550      |     302406
      16  | 67:12.07 |    3:42.65   |      302407      |     319121
      17  | 70:54.72 |    4:45.22   |      319122      |     340518
Характеристики диапазона извлечения и сообщения об ошибках
Выбранный диапазон
     Имя файла C:\Temp\The Eagles - The Very Best Of The Eagles.wav
     Пиковый уровень 99.8 %
     Качество диапазона 100.0 %
     CRC копии C4D8F85D
     Копирование... OK
Ошибок не произошло
Конец отчёта

Индексная карта (non-compilant .cue)

REM GENRE Rock
REM DATE 2001
REM DISCID DA962E78
REM COMMENT "ExactAudioCopy v0.99pb5"
PERFORMER "The Eagles"
TITLE "The Very Best Of The Eagles"
FILE "The Eagles - The Very Best Of The Eagles.ape" WAVE
  TRACK 01 AUDIO
    TITLE "One Of These Nights"
    PERFORMER "The Eagles"
    INDEX 01 00:00:00
  TRACK 02 AUDIO
    TITLE "Take It Easy"
    PERFORMER "The Eagles"
    INDEX 01 04:51:67
  TRACK 03 AUDIO
    TITLE "Hotel California"
    PERFORMER "The Eagles"
    INDEX 01 08:24:15
  TRACK 04 AUDIO
    TITLE "New Kid In Town"
    PERFORMER "The Eagles"
    INDEX 01 14:54:12
  TRACK 05 AUDIO
    TITLE "Heartache Tonight"
    PERFORMER "The Eagles"
    INDEX 01 19:58:10
  TRACK 06 AUDIO
    TITLE "Tequila Sunrise"
    PERFORMER "The Eagles"
    INDEX 01 24:24:70
  TRACK 07 AUDIO
    TITLE "Desperado"
    PERFORMER "The Eagles"
    INDEX 01 27:19:07
  TRACK 08 AUDIO
    TITLE "Best Of My Love"
    PERFORMER "The Eagles"
    INDEX 01 30:56:12
  TRACK 09 AUDIO
    TITLE "Lyin Eyes"
    PERFORMER "The Eagles"
    INDEX 01 35:30:42
  TRACK 10 AUDIO
    TITLE "Take It To The Limit"
    PERFORMER "The Eagles"
    INDEX 01 41:52:32
  TRACK 11 AUDIO
    TITLE "I Can't Tell You Why"
    PERFORMER "The Eagles"
    INDEX 01 46:39:27
  TRACK 12 AUDIO
    TITLE "Peaceful Easy Feeling"
    PERFORMER "The Eagles"
    INDEX 01 51:35:20
  TRACK 13 AUDIO
    TITLE "James Dean"
    PERFORMER "The Eagles"
    INDEX 01 55:53:10
  TRACK 14 AUDIO
    TITLE "Doolin-Dalton"
    PERFORMER "The Eagles"
    INDEX 01 59:31:27
  TRACK 15 AUDIO
    TITLE "Witchy Woman"
    PERFORMER "The Eagles"
    INDEX 01 63:00:50
  TRACK 16 AUDIO
    TITLE "The Long Run"
    PERFORMER "The Eagles"
    INDEX 01 67:12:07
  TRACK 17 AUDIO
    TITLE "Life In The Fast Lane"
    PERFORMER "The Eagles"
    INDEX 01 70:54:72
--
[Профиль] [ЛС]
Кто просматривает тему:

Показать сообщения:    

Текущее время: Сегодня 04:12

Часовой пояс: GMT



Вы не можете начинать темы
Вы не можете отвечать на сообщения
Вы не можете редактировать свои сообщения
Вы не можете удалять свои сообщения
Вы не можете голосовать в опросах
Вы не можете прикреплять файлы к сообщениям
Вы не можете скачивать файлы