(Hard Rock, Alternative Rock) The Cult - Hidden City - 2016 [FLAC, image +.cue, lossless]

 
Автор Сообщение

sergej644 ®

Пол:

Стаж: 4 года 11 месяцев

Сообщений: 6046

Откуда: Soviet Union



Награды: Нет

Торрент-статистика

Создавать темы 13-Фев-2016 21:44

[Цитировать]

-The Cult - Hidden City--
Год издания: 2016
Страна: UK
Жанр: Hard Rock, Alternative Rock
Продолжительность: 00:52:33-Лейбл издания: Cooking Vinyl
Страна-выпуска диска: EU
Номер по каталогу: COOKCD621-Формат: FLAC
Битрейт аудио: Lossless
Тип рипа: image +.cue
Наличие сканов в содержимом раздачи: да
-

Трэклист


01. Dark Energy (04:28)
02. No Love Lost (03:14)
03. Dance The Night (04:16)
04. In Blood (04:49)
05. Birds Of Paradise (06:27)
06. Hinterland (05:07)
07. Goat (03:19)
08. Deeply Ordered Chaos (04:33)
09. Avalanche Of Light (04:32)
10. Lilies (04:17)
11. Heathens (03:40)
12. Sound And Fury (03:55)
-

Лог создания рипа

Exact Audio Copy V1.1 from 23. June 2015
EAC extraction logfile from 5. February 2016, 20:40
The Cult / Hidden City
Used drive  : HL-DT-STDVDRAM GH24NSD1   Adapter: 0  ID: 0
Read mode               : Secure
Utilize accurate stream : Yes
Defeat audio cache      : Yes
Make use of C2 pointers : No
Read offset correction                      : 6
Overread into Lead-In and Lead-Out          : No
Fill up missing offset samples with silence : Yes
Delete leading and trailing silent blocks   : No
Null samples used in CRC calculations       : Yes
Used interface                              : Installed external ASPI interface
Used output format : Internal WAV Routines
Sample format      : 44.100 Hz; 16 Bit; Stereo
TOC of the extracted CD
     Track |   Start  |  Length  | Start sector | End sector
    ---------------------------------------------------------
        1  |  0:00.00 |  4:28.00 |         0    |    20099
        2  |  4:28.00 |  3:13.65 |     20100    |    34639
        3  |  7:41.65 |  4:15.48 |     34640    |    53812
        4  | 11:57.38 |  4:48.50 |     53813    |    75462
        5  | 16:46.13 |  6:26.53 |     75463    |   104465
        6  | 23:12.66 |  5:06.25 |    104466    |   127440
        7  | 28:19.16 |  3:18.55 |    127441    |   142345
        8  | 31:37.71 |  4:32.31 |    142346    |   162776
        9  | 36:10.27 |  4:31.36 |    162777    |   183137
       10  | 40:41.63 |  4:16.65 |    183138    |   202402
       11  | 44:58.53 |  3:39.54 |    202403    |   218881
       12  | 48:38.32 |  3:54.42 |    218882    |   236473
Range status and errors
Selected range
     Filename E:\SPOT NIEUW\The Cult - Hidden City (EAC)\The Cult - Hidden City.wav
     Peak level 100.0 %
     Extraction speed 6.8 X
     Range quality 99.9 %
     Test CRC 770F59CE
     Copy CRC 770F59CE
     Copy OK
No errors occurred
AccurateRip summary
Track  1  not present in database
Track  2  not present in database
Track  3  not present in database
Track  4  not present in database
Track  5  not present in database
Track  6  not present in database
Track  7  not present in database
Track  8  not present in database
Track  9  not present in database
Track 10  not present in database
Track 11  not present in database
Track 12  not present in database
None of the tracks are present in the AccurateRip database
End of status report

Индексная карта (non-compilant .cue)

REM GENRE Rock
REM DATE 2016
REM DISCID 960C500C
REM COMMENT "ExactAudioCopy v1.1"
PERFORMER "The Cult"
TITLE "Hidden City"
FILE "The Cult - Hidden City.wav" WAVE
  TRACK 01 AUDIO
    TITLE "Dark Energy"
    PERFORMER "The Cult"
    INDEX 01 00:00:00
  TRACK 02 AUDIO
    TITLE "No Love Lost"
    PERFORMER "The Cult"
    INDEX 01 04:28:00
  TRACK 03 AUDIO
    TITLE "Dance The Night"
    PERFORMER "The Cult"
    INDEX 01 07:41:65
  TRACK 04 AUDIO
    TITLE "In Blood"
    PERFORMER "The Cult"
    INDEX 01 11:57:38
  TRACK 05 AUDIO
    TITLE "Birds Of Paradise"
    PERFORMER "The Cult"
    INDEX 01 16:46:13
  TRACK 06 AUDIO
    TITLE "Hinterland"
    PERFORMER "The Cult"
    INDEX 01 23:12:66
  TRACK 07 AUDIO
    TITLE "Goat"
    PERFORMER "The Cult"
    INDEX 01 28:19:16
  TRACK 08 AUDIO
    TITLE "Deeply Ordered Chaos"
    PERFORMER "The Cult"
    INDEX 01 31:37:71
  TRACK 09 AUDIO
    TITLE "Avalanche Of Light"
    PERFORMER "The Cult"
    INDEX 01 36:10:27
  TRACK 10 AUDIO
    TITLE "Lilies"
    PERFORMER "The Cult"
    INDEX 01 40:41:63
  TRACK 11 AUDIO
    TITLE "Heathens"
    PERFORMER "The Cult"
    INDEX 01 44:58:53
  TRACK 12 AUDIO
    TITLE "Sound And Fury"
    PERFORMER "The Cult"
    INDEX 01 48:38:32
--
[Профиль] [ЛС]
Показать сообщения:    

Текущее время: Сегодня 22:41

Часовой пояс: GMT



Вы не можете начинать темы
Вы не можете отвечать на сообщения
Вы не можете редактировать свои сообщения
Вы не можете удалять свои сообщения
Вы не можете голосовать в опросах
Вы не можете прикреплять файлы к сообщениям
Вы не можете скачивать файлы