The Brian Jonestown Massacre • Album De La Semaine [2014, Rock, Neo-Psychedelia, HDTV 1080i]

 
Автор Сообщение

reversefile ®

Пол:

Стаж: 4 года 5 месяцев

Сообщений: 842

Откуда: ReverseFile.org



Награды: Нет

Торрент-статистика

Создавать темы 11-Авг-2014 18:53

[Цитировать]

The Brian Jonestown Massacre
Album De La Semaine


Жанр: Rock, Neo-Psychedelia
Продолжительность: 00:22:39
Год выпуска: 2014
Качество: HDTV 1080i
Контейнер: TS
Видео кодек: H.264
Аудио кодек: AC3
Видео: MPEG4 Video (H264) 1920x1080 25fps 9822Kbps
Аудио: Dolby AC3 48000Hz stereo 192kbps

The Brian Jonestown Massacre

Группа The Brian Jonestown Massacre основана в Сан-Франциско в 1990 году Антоном Альфредом Ньюкомбом (с некоторых пор он известнен также под именем Антон Фьордсен), Мэттом Холливудом и Джоэлом Гионом . Название группы представляет собой «склейку» имени покойного гитариста The Rolling Stones Брайана Джонса и города Джонстаун в Гаяне, где в 1976 году 918 человек погибли в результате массового суицида.
Группа испытала на себе влияние психоделических групп 1960-х годов, шугейза, пауэр-попа и гаражного рока. Непростая обстановка, в которой создаются песни BJM, и в целом образ жизни участников коллектива показаны в документальном фильме DiG! режиссера Онди Тимонер, наблюдавшей за жизнью BJM в течение семи лет.
Основатель группы Антон Ньюкомб знаменит своим сложным характером – известны случаи, когда он затевал драки с публикой или товарищами по команде прямо во время концертов. Регулярная ротация членов группы также во многом объясняется вздорными повадками ее лидера. За двадцать лет существования в ее составе играло более 40 музыкантов, а единственным неизменным участником BJM остается сам Ньюкомб. В разное время в BJM играли: Мэтт Холливуд , основавший впоследствии группу The Out Crowd; Питер Хейс , который сейчас играет в Black Rebel Motorcycle Club; Джоэл Гион , создавший в 2008 году коллектив The Dilettantes; лос-анджелесский продюсер и инженер Роб Кампанелла , который работал с The Tyde, Beachwood Sparks, Dead Meadow, Mia Doi Todd, Frausdots, Scarling, а также играет в собственной группе The Quarter After; основатель The Warlocks Бобби Хекшер ; основатель австралийской группы The Lovetones Мэтт Тоу ; выступающая сольно артистка Миранда Ли Ричардс

Треклист

01. Introduce
02. Interview
03. What You Isn't
04. Food Four Clouds
05. Goodbye (Butterfly)
06. Nevertheless

Отчёт MediaInfo / BDInfo

GeneralID : 1 (0x1)Complete name : L:\The Brian Jonestown Massacra - Album De La Semaine 2014.tsFormat : MPEG-TSFile size : 1.67 GiBDuration : 22mn 38sOverall bit rate mode : VariableOverall bit rate : 10.5 Mbps
VideoID : 160 (0xA0)Menu ID : 1 (0x1)Format : AVCFormat/Info : Advanced Video CodecFormat profile : High@L4.0Format settings, CABAC : YesFormat settings, ReFrames : 4 framesCodec ID : 27Duration : 22mn 38sBit rate : 9 822 KbpsWidth : 1 920 pixelsHeight : 1 080 pixelsDisplay aspect ratio : 16:9Frame rate : 25.000 fpsColor space : YUVChroma subsampling : 4:2:0Bit depth : 8 bitsScan type : MBAFFBits/(Pixel*Frame) : 0.189Stream size : 1.55 GiB (93%)Color primaries : BT.709Transfer characteristics : BT.709Matrix coefficients : BT.709
AudioID : 82 (0x52)Menu ID : 1 (0x1)Format : AC-3Format/Info : Audio Coding 3Mode extension : CM (complete main)Format settings, Endianness : BigCodec ID : 6Duration : 22mn 38sBit rate mode : ConstantBit rate : 192 KbpsChannel(s) : 2 channelsChannel positions : Front: L RSampling rate : 48.0 KHzBit depth : 16 bitsCompression mode : LossyStream size : 31.1 MiB (2%)Language : French
[Профиль] [ЛС]
Кто просматривает тему:

Показать сообщения:    

Текущее время: Сегодня 10:51

Часовой пояс: GMT



Вы не можете начинать темы
Вы не можете отвечать на сообщения
Вы не можете редактировать свои сообщения
Вы не можете удалять свои сообщения
Вы не можете голосовать в опросах
Вы не можете прикреплять файлы к сообщениям
Вы не можете скачивать файлы