(Rock,Classic Rock) The Beatles - Meet The Beatles! (5CD Box Set Universal Music Japan) - 2014, FLAC (image + .cue), lossless

 
Автор Сообщение

sergej644 ®

Пол:

Стаж: 4 года 11 месяцев

Сообщений: 6035

Откуда: Soviet Union



Награды: Нет

Торрент-статистика

Создавать темы 19-Июл-2014 10:43

[Цитировать]

-The Beatles - Meet The Beatles! (5CD Box Set Universal Music Japan)
Страна: UK
Страна производитель дисков: Japan
Жанр: Rock
Год издания: 2014
Год выпуска: 1964 - 1965
Издатель (лейбл): Odeon Records / Apple Records / Universal Music Japan
Номер по каталогу: UICY-76429/33
Формат: FLAC
Тип рипа: (Image + *cue)
Битрейт аудио: Lossless
Продолжительность: 02:44:40
- -

1964 - A Hard Day's Night | 00:30:11


01. A Hard Day's Night (02:34)
02. I Should Have Known Better (02:43)
03. If I Fell (02:19)
04. I'm Happy Just To Dance With You (01:56)
05. And I Love Her (02:29)
06. Tell Me Why (02:08)
07. Can't Buy Me Love (02:11)
08. Any Time At All (02:11)
09. I'll Cry Instead (01:45)
10. Things We Said Today (02:35)
11. When I Get Home (02:16)
12. You Can't Do That (02:34)
13. I'll Be Back (02:24)

лог создания рипа

Exact Audio Copy V1.0 beta 3 from 29. August 2011
EAC extraction logfile from 1. July 2014, 18:59
The Beatles / A Hard Day's Night JP Box
Used drive  : PLEXTOR BD-R  PX-B950SA   Adapter: 6  ID: 0
Read mode               : Secure
Utilize accurate stream : Yes
Defeat audio cache      : Yes
Make use of C2 pointers : No
Read offset correction                      : 6
Overread into Lead-In and Lead-Out          : No
Fill up missing offset samples with silence : Yes
Delete leading and trailing silent blocks   : No
Null samples used in CRC calculations       : Yes
Used interface                              : Native Win32 interface for Win NT & 2000
Used output format : Internal WAV Routines
Sample format      : 44.100 Hz; 16 Bit; Stereo
TOC of the extracted CD
     Track |   Start  |  Length  | Start sector | End sector
    ---------------------------------------------------------
        1  |  0:00.00 |  2:34.15 |         0    |    11564
        2  |  2:34.15 |  2:43.06 |     11565    |    23795
        3  |  5:17.21 |  2:19.35 |     23796    |    34255
        4  |  7:36.56 |  1:56.28 |     34256    |    42983
        5  |  9:33.09 |  2:29.52 |     42984    |    54210
        6  | 12:02.61 |  2:08.52 |     54211    |    63862
        7  | 14:11.38 |  2:11.65 |     63863    |    73752
        8  | 16:23.28 |  2:11.21 |     73753    |    83598
        9  | 18:34.49 |  1:45.74 |     83599    |    91547
       10  | 20:20.48 |  2:35.25 |     91548    |   103197
       11  | 22:55.73 |  2:16.48 |    103198    |   113445
       12  | 25:12.46 |  2:34.67 |    113446    |   125062
       13  | 27:47.38 |  2:24.14 |    125063    |   135876
Range status and errors
Selected range
     Filename C:\Users\Meijin\Desktop\Lossless Galaxy ALLexxess\The Beatles\2014 Meet The Beatles! (5CD Japanese Box Set Universal Music)\1964 A Hard Day's Night\The Beatles - A Hard Day's Night JP Box.wav
     Peak level 96.5 %
     Extraction speed 6.3 X
     Range quality 100.0 %
     Test CRC B7445D33
     Copy CRC B7445D33
     Copy OK
No errors occurred
AccurateRip summary
Track  1  accurately ripped (confidence 30)  [4E240617]  (AR v2)
Track  2  accurately ripped (confidence 31)  [DB9ED6E9]  (AR v2)
Track  3  accurately ripped (confidence 31)  [D143759B]  (AR v2)
Track  4  accurately ripped (confidence 31)  [3D987D9B]  (AR v2)
Track  5  accurately ripped (confidence 31)  [8149D5B8]  (AR v2)
Track  6  accurately ripped (confidence 30)  [3EA3AAA6]  (AR v2)
Track  7  accurately ripped (confidence 31)  [4972CD58]  (AR v2)
Track  8  accurately ripped (confidence 31)  [45D74B02]  (AR v2)
Track  9  accurately ripped (confidence 31)  [F9B30125]  (AR v2)
Track 10  accurately ripped (confidence 31)  [D80E3AAD]  (AR v2)
Track 11  accurately ripped (confidence 31)  [DF61934B]  (AR v2)
Track 12  accurately ripped (confidence 31)  [659A292D]  (AR v2)
Track 13  accurately ripped (confidence 31)  [A841A3A9]  (AR v2)
All tracks accurately ripped
End of status report

содержание индексной карты *cue

REM GENRE Rock
REM DATE 1964
REM DISCID B307130D
REM COMMENT "ExactAudioCopy v1.0b3"
PERFORMER "The Beatles"
TITLE "A Hard Day's Night JP Box"
FILE "The Beatles - A Hard Day's Night JP Box.flac" WAVE
  TRACK 01 AUDIO
    TITLE "A Hard Day's Night"
    PERFORMER "The Beatles"
    INDEX 01 00:00:00
  TRACK 02 AUDIO
    TITLE "I Should Have Known Better"
    PERFORMER "The Beatles"
    INDEX 00 02:32:36
    INDEX 01 02:34:15
  TRACK 03 AUDIO
    TITLE "If I Fell"
    PERFORMER "The Beatles"
    INDEX 00 05:16:21
    INDEX 01 05:17:21
  TRACK 04 AUDIO
    TITLE "I'm Happy Just To Dance With You"
    PERFORMER "The Beatles"
    INDEX 00 07:35:14
    INDEX 01 07:36:56
  TRACK 05 AUDIO
    TITLE "And I Love Her"
    PERFORMER "The Beatles"
    INDEX 00 09:32:05
    INDEX 01 09:33:09
  TRACK 06 AUDIO
    TITLE "Tell Me Why"
    PERFORMER "The Beatles"
    INDEX 00 12:02:24
    INDEX 01 12:02:61
  TRACK 07 AUDIO
    TITLE "Can't Buy Me Love"
    PERFORMER "The Beatles"
    INDEX 00 14:10:32
    INDEX 01 14:11:38
  TRACK 08 AUDIO
    TITLE "Any Time At All"
    PERFORMER "The Beatles"
    INDEX 00 16:21:64
    INDEX 01 16:23:28
  TRACK 09 AUDIO
    TITLE "I'll Cry Instead"
    PERFORMER "The Beatles"
    INDEX 00 18:33:68
    INDEX 01 18:34:49
  TRACK 10 AUDIO
    TITLE "Things We Said Today"
    PERFORMER "The Beatles"
    INDEX 00 20:19:49
    INDEX 01 20:20:48
  TRACK 11 AUDIO
    TITLE "When I Get Home"
    PERFORMER "The Beatles"
    INDEX 00 22:55:53
    INDEX 01 22:55:73
  TRACK 12 AUDIO
    TITLE "You Can't Do That"
    PERFORMER "The Beatles"
    INDEX 00 25:11:67
    INDEX 01 25:12:46
  TRACK 13 AUDIO
    TITLE "I'll Be Back"
    PERFORMER "The Beatles"
    INDEX 00 27:46:42
    INDEX 01 27:47:38

1964 - Meet The Beatles | 00:33:21


01. I Want To Hold Your Hand (02:27)
02. She Loves You (02:21)
03. From Me To You (01:57)
04. Twist And Shout (02:34)
05. Love Me Do (02:19)
06. Baby It's You (02:42)
07. Don't Bother Me (02:31)
08. Please Please Me (02:05)
09. I Saw Her Standing There (02:57)
10. P.S. I Love You (02:07)
11. Little Child (01:49)
12. All My Loving (02:12)
13. Hold Me Tight (02:34)
14. Please Mister Postman (02:41)

лог создания рипа

Exact Audio Copy V1.0 beta 3 from 29. August 2011
EAC extraction logfile from 1. July 2014, 20:00
The Beatles / Meet The Beatles JP Box
Used drive  : PLEXTOR BD-R  PX-B950SA   Adapter: 6  ID: 0
Read mode               : Secure
Utilize accurate stream : Yes
Defeat audio cache      : Yes
Make use of C2 pointers : No
Read offset correction                      : 6
Overread into Lead-In and Lead-Out          : No
Fill up missing offset samples with silence : Yes
Delete leading and trailing silent blocks   : No
Null samples used in CRC calculations       : Yes
Used interface                              : Native Win32 interface for Win NT & 2000
Used output format : Internal WAV Routines
Sample format      : 44.100 Hz; 16 Bit; Stereo
TOC of the extracted CD
     Track |   Start  |  Length  | Start sector | End sector
    ---------------------------------------------------------
        1  |  0:00.00 |  2:27.13 |         0    |    11037
        2  |  2:27.13 |  2:21.32 |     11038    |    21644
        3  |  4:48.45 |  1:57.01 |     21645    |    30420
        4  |  6:45.46 |  2:34.03 |     30421    |    41973
        5  |  9:19.49 |  2:19.56 |     41974    |    52454
        6  | 11:39.30 |  2:42.29 |     52455    |    64633
        7  | 14:21.59 |  2:31.26 |     64634    |    75984
        8  | 16:53.10 |  2:05.54 |     75985    |    85413
        9  | 18:58.64 |  2:57.01 |     85414    |    98689
       10  | 21:55.65 |  2:07.62 |     98690    |   108276
       11  | 24:03.52 |  1:49.46 |    108277    |   116497
       12  | 25:53.23 |  2:12.41 |    116498    |   126438
       13  | 28:05.64 |  2:34.42 |    126439    |   138030
       14  | 30:40.31 |  2:41.06 |    138031    |   150111
Range status and errors
Selected range
     Filename C:\Users\Meijin\Desktop\Lossless Galaxy ALLexxess\The Beatles\2014 Meet The Beatles! (5CD Japanese Box Set Universal Music)\1964 Meet The Beatles\The Beatles - Meet The Beatles JP Box.wav
     Peak level 99.8 %
     Extraction speed 6.5 X
     Range quality 100.0 %
     Test CRC 7DF0FF0F
     Copy CRC 7DF0FF0F
     Copy OK
No errors occurred
AccurateRip summary
Track  1  not present in database
Track  2  not present in database
Track  3  not present in database
Track  4  not present in database
Track  5  not present in database
Track  6  not present in database
Track  7  not present in database
Track  8  not present in database
Track  9  not present in database
Track 10  not present in database
Track 11  not present in database
Track 12  not present in database
Track 13  not present in database
Track 14  not present in database
None of the tracks are present in the AccurateRip database
End of status report

содержание индексной карты *cue

REM GENRE Rock
REM DATE 1964
REM DISCID A707D10E
REM COMMENT "ExactAudioCopy v1.0b3"
PERFORMER "The Beatles"
TITLE "Meet The Beatles JP Box"
FILE "The Beatles - Meet The Beatles JP Box.flac" WAVE
  TRACK 01 AUDIO
    TITLE "I Want To Hold Your Hand"
    PERFORMER "The Beatles"
    INDEX 01 00:00:00
  TRACK 02 AUDIO
    TITLE "She Loves You"
    PERFORMER "The Beatles"
    INDEX 01 02:27:13
  TRACK 03 AUDIO
    TITLE "From Me To You"
    PERFORMER "The Beatles"
    INDEX 01 04:48:45
  TRACK 04 AUDIO
    TITLE "Twist And Shout"
    PERFORMER "The Beatles"
    INDEX 01 06:45:46
  TRACK 05 AUDIO
    TITLE "Love Me Do"
    PERFORMER "The Beatles"
    INDEX 01 09:19:49
  TRACK 06 AUDIO
    TITLE "Baby It's You"
    PERFORMER "The Beatles"
    INDEX 01 11:39:30
  TRACK 07 AUDIO
    TITLE "Don't Bother Me"
    PERFORMER "The Beatles"
    INDEX 01 14:21:59
  TRACK 08 AUDIO
    TITLE "Please Please Me"
    PERFORMER "The Beatles"
    INDEX 01 16:53:10
  TRACK 09 AUDIO
    TITLE "I Saw Her Standing There"
    PERFORMER "The Beatles"
    INDEX 01 18:58:64
  TRACK 10 AUDIO
    TITLE "P.S. I Love You"
    PERFORMER "The Beatles"
    INDEX 01 21:55:65
  TRACK 11 AUDIO
    TITLE "Little Child"
    PERFORMER "The Beatles"
    INDEX 01 24:03:52
  TRACK 12 AUDIO
    TITLE "All My Loving"
    PERFORMER "The Beatles"
    INDEX 01 25:53:23
  TRACK 13 AUDIO
    TITLE "Hold Me Tight"
    PERFORMER "The Beatles"
    INDEX 01 28:05:64
  TRACK 14 AUDIO
    TITLE "Please Mister Postman"
    PERFORMER "The Beatles"
    INDEX 01 30:40:31

1964 - The Beatles' Second Album | 00:31:40


01. Can't Buy Me Love (02:17)
02. Do You Want To Know A Secret (02:01)
03. Thank You Girl (02:03)
04. A Taste Of Honey (02:06)
05. It Won't Be Long (02:14)
06. I Wanna Be Your Man (02:00)
07. There's A Place (01:54)
08. Roll Over Beethoven (02:49)
09. Misery (01:52)
10. Boys (02:29)
11. Devil In Her Heart (02:29)
12. Not A Second Time (02:12)
13. Money (02:46)
14. Till There Was You (02:21)

лог создания рипа

Exact Audio Copy V1.0 beta 3 from 29. August 2011
EAC extraction logfile from 1. July 2014, 19:27
The Beatles / The Beatles' Second Album JP Box
Used drive  : PLEXTOR BD-R  PX-B950SA   Adapter: 6  ID: 0
Read mode               : Secure
Utilize accurate stream : Yes
Defeat audio cache      : Yes
Make use of C2 pointers : No
Read offset correction                      : 6
Overread into Lead-In and Lead-Out          : No
Fill up missing offset samples with silence : Yes
Delete leading and trailing silent blocks   : No
Null samples used in CRC calculations       : Yes
Used interface                              : Native Win32 interface for Win NT & 2000
Used output format : Internal WAV Routines
Sample format      : 44.100 Hz; 16 Bit; Stereo
TOC of the extracted CD
     Track |   Start  |  Length  | Start sector | End sector
    ---------------------------------------------------------
        1  |  0:00.00 |  2:17.60 |         0    |    10334
        2  |  2:17.60 |  2:01.17 |     10335    |    19426
        3  |  4:19.02 |  2:03.54 |     19427    |    28705
        4  |  6:22.56 |  2:06.27 |     28706    |    38182
        5  |  8:29.08 |  2:14.68 |     38183    |    48300
        6  | 10:44.01 |  2:00.40 |     48301    |    57340
        7  | 12:44.41 |  1:54.03 |     57341    |    65893
        8  | 14:38.44 |  2:49.09 |     65894    |    78577
        9  | 17:27.53 |  1:52.54 |     78578    |    87031
       10  | 19:20.32 |  2:29.30 |     87032    |    98236
       11  | 21:49.62 |  2:29.71 |     98237    |   109482
       12  | 24:19.58 |  2:12.27 |    109483    |   119409
       13  | 26:32.10 |  2:46.73 |    119410    |   131932
       14  | 29:19.08 |  2:21.22 |    131933    |   142529
Range status and errors
Selected range
     Filename C:\Users\Meijin\Desktop\Lossless Galaxy ALLexxess\The Beatles\2014 Meet The Beatles! (5CD Japanese Box Set Universal Music)\1964 The Beatles' Second Album\The Beatles - The Beatles' Second Album JP Box.wav
     Peak level 98.8 %
     Extraction speed 6.4 X
     Range quality 100.0 %
     Test CRC E3919E95
     Copy CRC E3919E95
     Copy OK
No errors occurred
AccurateRip summary
Track  1  not present in database
Track  2  not present in database
Track  3  not present in database
Track  4  not present in database
Track  5  not present in database
Track  6  not present in database
Track  7  not present in database
Track  8  not present in database
Track  9  not present in database
Track 10  not present in database
Track 11  not present in database
Track 12  not present in database
Track 13  not present in database
Track 14  not present in database
None of the tracks are present in the AccurateRip database
End of status report

содержание индексной карты *cue

REM GENRE Rock
REM DATE 1964
REM DISCID AD076C0E
REM COMMENT "ExactAudioCopy v1.0b3"
PERFORMER "The Beatles"
TITLE "The Beatles' Second Album JP Box"
FILE "The Beatles - The Beatles' Second Album JP Box.flac" WAVE
  TRACK 01 AUDIO
    TITLE "Can't Buy Me Love"
    PERFORMER "The Beatles"
    INDEX 01 00:00:00
  TRACK 02 AUDIO
    TITLE "Do You Want To Know A Secret"
    PERFORMER "The Beatles"
    INDEX 01 02:17:60
  TRACK 03 AUDIO
    TITLE "Thank You Girl"
    PERFORMER "The Beatles"
    INDEX 01 04:19:02
  TRACK 04 AUDIO
    TITLE "A Taste Of Honey"
    PERFORMER "The Beatles"
    INDEX 01 06:22:56
  TRACK 05 AUDIO
    TITLE "It Won't Be Long"
    PERFORMER "The Beatles"
    INDEX 01 08:29:08
  TRACK 06 AUDIO
    TITLE "I Wanna Be Your Man"
    PERFORMER "The Beatles"
    INDEX 01 10:44:01
  TRACK 07 AUDIO
    TITLE "There's A Place"
    PERFORMER "The Beatles"
    INDEX 01 12:44:41
  TRACK 08 AUDIO
    TITLE "Roll Over Beethoven"
    PERFORMER "The Beatles"
    INDEX 01 14:38:44
  TRACK 09 AUDIO
    TITLE "Misery"
    PERFORMER "The Beatles"
    INDEX 01 17:27:53
  TRACK 10 AUDIO
    TITLE "Boys"
    PERFORMER "The Beatles"
    INDEX 01 19:20:32
  TRACK 11 AUDIO
    TITLE "Devil In Her Heart"
    PERFORMER "The Beatles"
    INDEX 01 21:49:62
  TRACK 12 AUDIO
    TITLE "Not A Second Time"
    PERFORMER "The Beatles"
    INDEX 01 24:19:58
  TRACK 13 AUDIO
    TITLE "Money"
    PERFORMER "The Beatles"
    INDEX 01 26:32:10
  TRACK 14 AUDIO
    TITLE "Till There Was You"
    PERFORMER "The Beatles"
    INDEX 01 29:19:08

1965 - Beatles No.5 | 00:34:50


01. Long Tall Sally (02:03)
02. Sie Liebt Dich (02:19)
03. Anna (Go To Him) (03:00)
04. Matchbox (01:58)
05. You Really Got A Hold On Me (03:04)
06. She's A Woman (03:03)
07. Ask Me Why (02:29)
08. I Feel Fine (02:23)
09. Komm, Gib Mir Deine Hand (02:25)
10. Chains (02:28)
11. Slow Down (02:57)
12. All I've Got To Do (02:06)
13. I Call Your Name (02:11)
14. This Boy (02:18)

лог создания рипа

Exact Audio Copy V1.0 beta 3 from 29. August 2011
EAC extraction logfile from 30. June 2014, 20:19
The Beatles / Beatles No.5 JP Box
Used drive  : PLEXTOR BD-R  PX-B950SA   Adapter: 6  ID: 0
Read mode               : Secure
Utilize accurate stream : Yes
Defeat audio cache      : Yes
Make use of C2 pointers : No
Read offset correction                      : 6
Overread into Lead-In and Lead-Out          : No
Fill up missing offset samples with silence : Yes
Delete leading and trailing silent blocks   : No
Null samples used in CRC calculations       : Yes
Used interface                              : Native Win32 interface for Win NT & 2000
Used output format : Internal WAV Routines
Sample format      : 44.100 Hz; 16 Bit; Stereo
TOC of the extracted CD
     Track |   Start  |  Length  | Start sector | End sector
    ---------------------------------------------------------
        1  |  0:00.00 |  2:03.46 |         0    |     9270
        2  |  2:03.46 |  2:19.33 |      9271    |    19728
        3  |  4:23.04 |  3:00.34 |     19729    |    33262
        4  |  7:23.38 |  1:58.49 |     33263    |    42161
        5  |  9:22.12 |  3:04.30 |     42162    |    55991
        6  | 12:26.42 |  3:03.63 |     55992    |    69779
        7  | 15:30.30 |  2:29.56 |     69780    |    81010
        8  | 18:00.11 |  2:23.06 |     81011    |    91741
        9  | 20:23.17 |  2:25.56 |     91742    |   102672
       10  | 22:48.73 |  2:28.55 |    102673    |   113827
       11  | 25:17.53 |  2:57.15 |    113828    |   127117
       12  | 28:14.68 |  2:06.04 |    127118    |   136571
       13  | 30:20.72 |  2:11.15 |    136572    |   146411
       14  | 32:32.12 |  2:18.33 |    146412    |   156794
Range status and errors
Selected range
     Filename C:\Users\Meijin\Desktop\Lossless Galaxy ALLexxess\The Beatles\2014 Meet The Beatles! (5CD Japanese Box Set Universal Music)\1965 Beatles No.5\The Beatles - Beatles No.5 JP Box.wav
     Peak level 99.8 %
     Extraction speed 6.4 X
     Range quality 99.9 %
     Test CRC 6C9C3393
     Copy CRC 6C9C3393
     Copy OK
No errors occurred
AccurateRip summary
Track  1  not present in database
Track  2  not present in database
Track  3  not present in database
Track  4  not present in database
Track  5  not present in database
Track  6  not present in database
Track  7  not present in database
Track  8  not present in database
Track  9  not present in database
Track 10  not present in database
Track 11  not present in database
Track 12  not present in database
Track 13  not present in database
Track 14  not present in database
None of the tracks are present in the AccurateRip database
End of status report

содержание индексной карты *cue

REM GENRE Rock
REM DATE 1965
REM DISCID BA082A0E
REM COMMENT "ExactAudioCopy v1.0b3"
PERFORMER "The Beatles"
TITLE "Beatles No.5 JP Box"
FILE "The Beatles - Beatles No.5 JP Box.flac" WAVE
  TRACK 01 AUDIO
    TITLE "Long Tall Sally"
    PERFORMER "The Beatles"
    INDEX 01 00:00:00
  TRACK 02 AUDIO
    TITLE "Sie Liebt Dich"
    PERFORMER "The Beatles"
    INDEX 01 02:03:46
  TRACK 03 AUDIO
    TITLE "Anna (Go To Him)"
    PERFORMER "The Beatles"
    INDEX 01 04:23:04
  TRACK 04 AUDIO
    TITLE "Matchbox"
    PERFORMER "The Beatles"
    INDEX 01 07:23:38
  TRACK 05 AUDIO
    TITLE "You Really Got A Hold On Me"
    PERFORMER "The Beatles"
    INDEX 01 09:22:12
  TRACK 06 AUDIO
    TITLE "She's A Woman"
    PERFORMER "The Beatles"
    INDEX 01 12:26:42
  TRACK 07 AUDIO
    TITLE "Ask Me Why"
    PERFORMER "The Beatles"
    INDEX 01 15:30:30
  TRACK 08 AUDIO
    TITLE "I Feel Fine"
    PERFORMER "The Beatles"
    INDEX 01 18:00:11
  TRACK 09 AUDIO
    TITLE "Komm, Gib Mir Deine Hand"
    PERFORMER "The Beatles"
    INDEX 01 20:23:17
  TRACK 10 AUDIO
    TITLE "Chains"
    PERFORMER "The Beatles"
    INDEX 01 22:48:73
  TRACK 11 AUDIO
    TITLE "Slow Down"
    PERFORMER "The Beatles"
    INDEX 01 25:17:53
  TRACK 12 AUDIO
    TITLE "All I've Got To Do"
    PERFORMER "The Beatles"
    INDEX 01 28:14:68
  TRACK 13 AUDIO
    TITLE "I Call Your Name"
    PERFORMER "The Beatles"
    INDEX 01 30:20:72
  TRACK 14 AUDIO
    TITLE "This Boy"
    PERFORMER "The Beatles"
    INDEX 01 32:32:12

1965 - Help! | 00:34:35


01. Help! (02:23)
02. The Night Before (02:37)
03. You've Got To Hide Your Love Away (02:12)
04. I Need You (02:32)
05. Another Girl (02:09)
06. You're Going To Lose That Girl (02:21)
07. Ticket To Ride (03:11)
08. Act Naturally (02:33)
09. It's Only Love (01:59)
10. You Like Me Too Much (02:39)
11. Tell Me What You See (02:40)
12. I've Just Seen A Face (02:08)
13. Yesterday (02:09)
14. Dizzy Miss Lizzie (02:55)

лог создания рипа

Exact Audio Copy V1.0 beta 3 from 29. August 2011
EAC extraction logfile from 30. June 2014, 19:50
The Beatles / Help! JP Box
Used drive  : PLEXTOR BD-R  PX-B950SA   Adapter: 6  ID: 0
Read mode               : Secure
Utilize accurate stream : Yes
Defeat audio cache      : Yes
Make use of C2 pointers : No
Read offset correction                      : 6
Overread into Lead-In and Lead-Out          : No
Fill up missing offset samples with silence : Yes
Delete leading and trailing silent blocks   : No
Null samples used in CRC calculations       : Yes
Used interface                              : Native Win32 interface for Win NT & 2000
Used output format : Internal WAV Routines
Sample format      : 44.100 Hz; 16 Bit; Stereo
TOC of the extracted CD
     Track |   Start  |  Length  | Start sector | End sector
    ---------------------------------------------------------
        1  |  0:00.00 |  2:23.74 |         0    |    10798
        2  |  2:23.74 |  2:37.45 |     10799    |    22618
        3  |  5:01.44 |  2:12.04 |     22619    |    32522
        4  |  7:13.48 |  2:32.24 |     32523    |    43946
        5  |  9:45.72 |  2:09.29 |     43947    |    53650
        6  | 11:55.26 |  2:21.36 |     53651    |    64261
        7  | 14:16.62 |  3:11.74 |     64262    |    78660
        8  | 17:28.61 |  2:33.36 |     78661    |    90171
        9  | 20:02.22 |  1:59.42 |     90172    |    99138
       10  | 22:01.64 |  2:39.69 |     99139    |   111132
       11  | 24:41.58 |  2:40.57 |    111133    |   123189
       12  | 27:22.40 |  2:08.30 |    123190    |   132819
       13  | 29:30.70 |  2:09.10 |    132820    |   142504
       14  | 31:40.05 |  2:55.62 |    142505    |   155691
Range status and errors
Selected range
     Filename C:\Users\Meijin\Desktop\Lossless Galaxy ALLexxess\The Beatles\2014 Meet The Beatles! (5CD Japanese Box Set Universal Music)\1965 Help!\The Beatles - Help! JP Box.wav
     Peak level 88.1 %
     Extraction speed 6.6 X
     Range quality 100.0 %
     Test CRC 88B7AF5D
     Copy CRC 88B7AF5D
     Copy OK
No errors occurred
AccurateRip summary
Track  1  not present in database
Track  2  not present in database
Track  3  not present in database
Track  4  not present in database
Track  5  not present in database
Track  6  not present in database
Track  7  not present in database
Track  8  not present in database
Track  9  not present in database
Track 10  not present in database
Track 11  not present in database
Track 12  not present in database
Track 13  not present in database
Track 14  not present in database
None of the tracks are present in the AccurateRip database
End of status report

содержание индексной карты *cue

REM GENRE Rock
REM DATE 1965
REM DISCID A8081B0E
REM COMMENT "ExactAudioCopy v1.0b3"
PERFORMER "The Beatles"
TITLE "Help! JP Box"
FILE "The Beatles - Help! JP Box.flac" WAVE
  TRACK 01 AUDIO
    TITLE "Help!"
    PERFORMER "The Beatles"
    INDEX 01 00:00:00
  TRACK 02 AUDIO
    TITLE "The Night Before"
    PERFORMER "The Beatles"
    INDEX 01 02:23:74
  TRACK 03 AUDIO
    TITLE "You've Got To Hide Your Love Away"
    PERFORMER "The Beatles"
    INDEX 01 05:01:44
  TRACK 04 AUDIO
    TITLE "I Need You"
    PERFORMER "The Beatles"
    INDEX 01 07:13:48
  TRACK 05 AUDIO
    TITLE "Another Girl"
    PERFORMER "The Beatles"
    INDEX 01 09:45:72
  TRACK 06 AUDIO
    TITLE "You're Going To Lose That Girl"
    PERFORMER "The Beatles"
    INDEX 01 11:55:26
  TRACK 07 AUDIO
    TITLE "Ticket To Ride"
    PERFORMER "The Beatles"
    INDEX 01 14:16:62
  TRACK 08 AUDIO
    TITLE "Act Naturally"
    PERFORMER "The Beatles"
    INDEX 01 17:28:61
  TRACK 09 AUDIO
    TITLE "It's Only Love"
    PERFORMER "The Beatles"
    INDEX 01 20:02:22
  TRACK 10 AUDIO
    TITLE "You Like Me Too Much"
    PERFORMER "The Beatles"
    INDEX 01 22:01:64
  TRACK 11 AUDIO
    TITLE "Tell Me What You See"
    PERFORMER "The Beatles"
    INDEX 01 24:41:58
  TRACK 12 AUDIO
    TITLE "I've Just Seen A Face"
    PERFORMER "The Beatles"
    INDEX 01 27:22:40
  TRACK 13 AUDIO
    TITLE "Yesterday"
    PERFORMER "The Beatles"
    INDEX 01 29:30:70
  TRACK 14 AUDIO
    TITLE "Dizzy Miss Lizzie"
    PERFORMER "The Beatles"
    INDEX 01 31:40:05
[Профиль] [ЛС]
Показать сообщения:    

Текущее время: Сегодня 02:43

Часовой пояс: GMT



Вы не можете начинать темы
Вы не можете отвечать на сообщения
Вы не можете редактировать свои сообщения
Вы не можете удалять свои сообщения
Вы не можете голосовать в опросах
Вы не можете прикреплять файлы к сообщениям
Вы не можете скачивать файлы