(Classic Rock) The Beatles - 21 - 2015 [FLAC, tracks+.cue, lossless]

 
Автор Сообщение

sergej644 ®

Пол:

Стаж: 4 года 11 месяцев

Сообщений: 6043

Откуда: Soviet Union



Награды: Нет

Торрент-статистика

Создавать темы 16-Июл-2015 13:51

[Цитировать]

-The Beatles / 21-- Год издания: 2015
Страна: UK
Жанр: Classic Rock
Продолжительность: 00:51:33-Тип альбома: Compilation
Формат: FLAC
Битрейт аудио: lossless
Тип рипа: tracks+.cue
Наличие сканов в содержимом раздачи: front
-

Трэклист

01.Love Me Do (02:20)
02.P.S. I Love You (02:04)
03.Do You Want To Know A Secret (01:55)
04.I Should Have Known Better (02:43)
05.If I Fell (02:21)
06.And I Love Her (02:32)
07.I'll Be Back (02:20)
08.I'll Follow The Sun (01:49)
09.I Need You (02:30)
10.It's Only Love (01:56)
11.Yesterday (02:06)
12.Michelle (02:46)
13.Girl (02:31)
14.In My Life (02:26)
15.Here, There And Everywhere (02:25)
16.For No One (02:00)
17.Blackbird (02:19)
18.I Will (01:46)
19.Something (03:03)
20.The Long And Winding Road (03:40)
21.Let It Be (04:06)

Лог создания рипа

Exact Audio Copy V0.99 prebeta 5 from 4. May 2009
EAC extraction logfile from 22. March 2015, 18:02
The Beatles / 21
Used drive  : HL-DT-STDVDRAM GT10N   Adapter: 1  ID: 0
Read mode               : Secure
Utilize accurate stream : Yes
Defeat audio cache      : Yes
Make use of C2 pointers : No
Read offset correction                      : 102
Overread into Lead-In and Lead-Out          : No
Fill up missing offset samples with silence : Yes
Delete leading and trailing silent blocks   : No
Null samples used in CRC calculations       : Yes
Used interface                              : Native Win32 interface for Win NT & 2000
Gap handling                                : Appended to previous track
Used output format : Internal WAV Routines
Sample format      : 44.100 Hz; 16 Bit; Stereo
TOC of the extracted CD
     Track |   Start  |  Length  | Start sector | End sector
    ---------------------------------------------------------
        1  |  0:00.00 |  2:20.00 |         0    |    10499
        2  |  2:20.00 |  2:04.00 |     10500    |    19799
        3  |  4:24.00 |  1:55.00 |     19800    |    28424
        4  |  6:19.00 |  2:43.00 |     28425    |    40649
        5  |  9:02.00 |  2:20.37 |     40650    |    51186
        6  | 11:22.37 |  2:32.00 |     51187    |    62586
        7  | 13:54.37 |  2:19.23 |     62587    |    73034
        8  | 16:13.60 |  1:48.38 |     73035    |    81172
        9  | 18:02.23 |  2:29.36 |     81173    |    92383
       10  | 20:31.59 |  1:55.60 |     92384    |   101068
       11  | 22:27.44 |  2:05.60 |    101069    |   110503
       12  | 24:33.29 |  2:46.00 |    110504    |   122953
       13  | 27:19.29 |  2:31.00 |    122954    |   134278
       14  | 29:50.29 |  2:26.00 |    134279    |   145228
       15  | 32:16.29 |  2:24.37 |    145229    |   156065
       16  | 34:40.66 |  2:00.00 |    156066    |   165065
       17  | 36:40.66 |  2:18.43 |    165066    |   175458
       18  | 38:59.34 |  1:46.00 |    175459    |   183408
       19  | 40:45.34 |  3:02.63 |    183409    |   197121
       20  | 43:48.22 |  3:39.21 |    197122    |   213567
       21  | 47:27.43 |  4:05.03 |    213568    |   231945
Track  1
     Filename C:\REL\The Beatles - 2015 - 21\01 - Love Me Do.wav
     Pre-gap length  0:00:02.00
     Peak level 96.4 %
     Track quality 100.0 %
     Test CRC F4B899FD
     Copy CRC F4B899FD
     Copy OK
Track  2
     Filename C:\REL\The Beatles - 2015 - 21\02 - P.S. I Love You.wav
     Peak level 96.0 %
     Track quality 100.0 %
     Test CRC 5E62F378
     Copy CRC 5E62F378
     Copy OK
Track  3
     Filename C:\REL\The Beatles - 2015 - 21\03 - Do You Want To Know A Secret.wav
     Peak level 98.0 %
     Track quality 100.0 %
     Test CRC 0A459CFB
     Copy CRC 0A459CFB
     Copy OK
Track  4
     Filename C:\REL\The Beatles - 2015 - 21\04 - I Should Have Known Better.wav
     Peak level 84.9 %
     Track quality 100.0 %
     Test CRC 69FC5038
     Copy CRC 69FC5038
     Copy OK
Track  5
     Filename C:\REL\The Beatles - 2015 - 21\05 - If I Fell.wav
     Peak level 97.0 %
     Track quality 100.0 %
     Test CRC B77149B3
     Copy CRC B77149B3
     Copy OK
Track  6
     Filename C:\REL\The Beatles - 2015 - 21\06 - And I Love Her.wav
     Peak level 94.8 %
     Track quality 100.0 %
     Test CRC 805C9FCB
     Copy CRC 805C9FCB
     Copy OK
Track  7
     Filename C:\REL\The Beatles - 2015 - 21\07 - I'll Be Back.wav
     Peak level 87.8 %
     Track quality 100.0 %
     Test CRC E3FE8434
     Copy CRC E3FE8434
     Copy OK
Track  8
     Filename C:\REL\The Beatles - 2015 - 21\08 - I'll Follow The Sun.wav
     Peak level 89.0 %
     Track quality 100.0 %
     Test CRC C284CE03
     Copy CRC C284CE03
     Copy OK
Track  9
     Filename C:\REL\The Beatles - 2015 - 21\09 - I Need You.wav
     Peak level 92.7 %
     Track quality 100.0 %
     Test CRC EA0ED22C
     Copy CRC EA0ED22C
     Copy OK
Track 10
     Filename C:\REL\The Beatles - 2015 - 21\10 - It's Only Love.wav
     Peak level 98.6 %
     Track quality 100.0 %
     Test CRC 854FEEAF
     Copy CRC 854FEEAF
     Copy OK
Track 11
     Filename C:\REL\The Beatles - 2015 - 21\11 - Yesterday.wav
     Peak level 91.2 %
     Track quality 100.0 %
     Test CRC DEF37212
     Copy CRC DEF37212
     Copy OK
Track 12
     Filename C:\REL\The Beatles - 2015 - 21\12 - Michelle.wav
     Peak level 93.1 %
     Track quality 100.0 %
     Test CRC FE590898
     Copy CRC FE590898
     Copy OK
Track 13
     Filename C:\REL\The Beatles - 2015 - 21\13 - Girl.wav
     Peak level 96.5 %
     Track quality 100.0 %
     Test CRC 130C5A88
     Copy CRC 130C5A88
     Copy OK
Track 14
     Filename C:\REL\The Beatles - 2015 - 21\14 - In My Life.wav
     Peak level 95.5 %
     Track quality 100.0 %
     Test CRC 40CAD239
     Copy CRC 40CAD239
     Copy OK
Track 15
     Filename C:\REL\The Beatles - 2015 - 21\15 - Here, There And Everywhere.wav
     Peak level 88.9 %
     Track quality 100.0 %
     Test CRC A6E1FBB8
     Copy CRC A6E1FBB8
     Copy OK
Track 16
     Filename C:\REL\The Beatles - 2015 - 21\16 - For No One.wav
     Peak level 79.9 %
     Track quality 100.0 %
     Test CRC 41A5C4C6
     Copy CRC 41A5C4C6
     Copy OK
Track 17
     Filename C:\REL\The Beatles - 2015 - 21\17 - Blackbird.wav
     Peak level 94.3 %
     Track quality 100.0 %
     Test CRC B199E72F
     Copy CRC B199E72F
     Copy OK
Track 18
     Filename C:\REL\The Beatles - 2015 - 21\18 - I Will.wav
     Peak level 95.6 %
     Track quality 100.0 %
     Test CRC D067F1F5
     Copy CRC D067F1F5
     Copy OK
Track 19
     Filename C:\REL\The Beatles - 2015 - 21\19 - Something.wav
     Peak level 91.1 %
     Track quality 100.0 %
     Test CRC 1B8850DF
     Copy CRC 1B8850DF
     Copy OK
Track 20
     Filename C:\REL\The Beatles - 2015 - 21\20 - The Long And Winding Road.wav
     Peak level 97.9 %
     Track quality 100.0 %
     Test CRC 031620B7
     Copy CRC 031620B7
     Copy OK
Track 21
     Filename C:\REL\The Beatles - 2015 - 21\21 - Let It Be.wav
     Peak level 88.0 %
     Track quality 100.0 %
     Test CRC C69A8358
     Copy CRC C69A8358
     Copy OK
No errors occurred
End of status report

Индексная карта (non-compilant .cue)

REM GENRE Rock
REM DATE 2015
REM DISCID 240C1415
REM COMMENT "ExactAudioCopy v0.99pb5"
PERFORMER "The Beatles"
TITLE "21"
FILE "01 - Love Me Do.wav" WAVE
  TRACK 01 AUDIO
    TITLE "Love Me Do"
    PERFORMER "The Beatles"
    INDEX 01 00:00:00
FILE "02 - P.S. I Love You.wav" WAVE
  TRACK 02 AUDIO
    TITLE "P.S. I Love You"
    PERFORMER "The Beatles"
    INDEX 01 00:00:00
FILE "03 - Do You Want To Know A Secret.wav" WAVE
  TRACK 03 AUDIO
    TITLE "Do You Want To Know A Secret"
    PERFORMER "The Beatles"
    INDEX 01 00:00:00
FILE "04 - I Should Have Known Better.wav" WAVE
  TRACK 04 AUDIO
    TITLE "I Should Have Known Better"
    PERFORMER "The Beatles"
    INDEX 01 00:00:00
FILE "05 - If I Fell.wav" WAVE
  TRACK 05 AUDIO
    TITLE "If I Fell"
    PERFORMER "The Beatles"
    INDEX 01 00:00:00
FILE "06 - And I Love Her.wav" WAVE
  TRACK 06 AUDIO
    TITLE "And I Love Her"
    PERFORMER "The Beatles"
    INDEX 01 00:00:00
FILE "07 - I'll Be Back.wav" WAVE
  TRACK 07 AUDIO
    TITLE "I'll Be Back"
    PERFORMER "The Beatles"
    INDEX 01 00:00:00
FILE "08 - I'll Follow The Sun.wav" WAVE
  TRACK 08 AUDIO
    TITLE "I'll Follow The Sun"
    PERFORMER "The Beatles"
    INDEX 01 00:00:00
FILE "09 - I Need You.wav" WAVE
  TRACK 09 AUDIO
    TITLE "I Need You"
    PERFORMER "The Beatles"
    INDEX 01 00:00:00
FILE "10 - It's Only Love.wav" WAVE
  TRACK 10 AUDIO
    TITLE "It's Only Love"
    PERFORMER "The Beatles"
    INDEX 01 00:00:00
FILE "11 - Yesterday.wav" WAVE
  TRACK 11 AUDIO
    TITLE "Yesterday"
    PERFORMER "The Beatles"
    INDEX 01 00:00:00
FILE "12 - Michelle.wav" WAVE
  TRACK 12 AUDIO
    TITLE "Michelle"
    PERFORMER "The Beatles"
    INDEX 01 00:00:00
FILE "13 - Girl.wav" WAVE
  TRACK 13 AUDIO
    TITLE "Girl"
    PERFORMER "The Beatles"
    INDEX 01 00:00:00
FILE "14 - In My Life.wav" WAVE
  TRACK 14 AUDIO
    TITLE "In My Life"
    PERFORMER "The Beatles"
    INDEX 01 00:00:00
FILE "15 - Here, There And Everywhere.wav" WAVE
  TRACK 15 AUDIO
    TITLE "Here, There And Everywhere"
    PERFORMER "The Beatles"
    INDEX 01 00:00:00
FILE "16 - For No One.wav" WAVE
  TRACK 16 AUDIO
    TITLE "For No One"
    PERFORMER "The Beatles"
    INDEX 01 00:00:00
FILE "17 - Blackbird.wav" WAVE
  TRACK 17 AUDIO
    TITLE "Blackbird"
    PERFORMER "The Beatles"
    INDEX 01 00:00:00
FILE "18 - I Will.wav" WAVE
  TRACK 18 AUDIO
    TITLE "I Will"
    PERFORMER "The Beatles"
    INDEX 01 00:00:00
FILE "19 - Something.wav" WAVE
  TRACK 19 AUDIO
    TITLE "Something"
    PERFORMER "The Beatles"
    INDEX 01 00:00:00
FILE "20 - The Long And Winding Road.wav" WAVE
  TRACK 20 AUDIO
    TITLE "The Long And Winding Road"
    PERFORMER "The Beatles"
    INDEX 01 00:00:00
FILE "21 - Let It Be.wav" WAVE
  TRACK 21 AUDIO
    TITLE "Let It Be"
    PERFORMER "The Beatles"
    INDEX 01 00:00:00

Лог Audiochecker

AUDIOCHECKER v2.0 beta (build 457) - by Dester - opdester@freemail.hu
~~~~~~~~~~~~~~~~~~~~~~~~~~~~~~~~~~
Started at: четверг, 16. 07. 2015. - 15:49.55
21 files found
01 -===- D:\Torrent files\The Beatles - 2015 - 21\01 - Love Me Do.flac
  Extracted successfully
  Conclusion: this track is CDDA with probability 100%
  Tempfile successfully deleted.
02 -===- D:\Torrent files\The Beatles - 2015 - 21\02 - P.S. I Love You.flac
  Extracted successfully
  Conclusion: this track is CDDA with probability 100%
  Tempfile successfully deleted.
03 -===- D:\Torrent files\The Beatles - 2015 - 21\03 - Do You Want To Know A Secret.flac
  Extracted successfully
  Conclusion: this track is CDDA with probability 100%
  Tempfile successfully deleted.
04 -===- D:\Torrent files\The Beatles - 2015 - 21\04 - I Should Have Known Better.flac
  Extracted successfully
  Conclusion: this track is CDDA with probability 99%
  Tempfile successfully deleted.
05 -===- D:\Torrent files\The Beatles - 2015 - 21\05 - If I Fell.flac
  Extracted successfully
  Conclusion: this track is CDDA with probability 100%
  Tempfile successfully deleted.
06 -===- D:\Torrent files\The Beatles - 2015 - 21\06 - And I Love Her.flac
  Extracted successfully
  Conclusion: this track is CDDA with probability 100%
  Tempfile successfully deleted.
07 -===- D:\Torrent files\The Beatles - 2015 - 21\07 - I'll Be Back.flac
  Extracted successfully
  Conclusion: this track is CDDA with probability 100%
  Tempfile successfully deleted.
08 -===- D:\Torrent files\The Beatles - 2015 - 21\08 - I'll Follow The Sun.flac
  Extracted successfully
  Conclusion: this track is CDDA with probability 100%
  Tempfile successfully deleted.
09 -===- D:\Torrent files\The Beatles - 2015 - 21\09 - I Need You.flac
  Extracted successfully
  Conclusion: this track is CDDA with probability 100%
  Tempfile successfully deleted.
10 -===- D:\Torrent files\The Beatles - 2015 - 21\10 - It's Only Love.flac
  Extracted successfully
  Conclusion: this track is CDDA with probability 99%
  Tempfile successfully deleted.
11 -===- D:\Torrent files\The Beatles - 2015 - 21\11 - Yesterday.flac
  Extracted successfully
  Conclusion: this track is CDDA with probability 100%
  Tempfile successfully deleted.
12 -===- D:\Torrent files\The Beatles - 2015 - 21\12 - Michelle.flac
  Extracted successfully
  Conclusion: this track is CDDA with probability 100%
  Tempfile successfully deleted.
13 -===- D:\Torrent files\The Beatles - 2015 - 21\13 - Girl.flac
  Extracted successfully
  Conclusion: this track is CDDA with probability 100%
  Tempfile successfully deleted.
14 -===- D:\Torrent files\The Beatles - 2015 - 21\14 - In My Life.flac
  Extracted successfully
  Conclusion: this track is CDDA with probability 100%
  Tempfile successfully deleted.
15 -===- D:\Torrent files\The Beatles - 2015 - 21\15 - Here, There And Everywhere.flac
  Extracted successfully
  Conclusion: this track is CDDA with probability 100%
  Tempfile successfully deleted.
16 -===- D:\Torrent files\The Beatles - 2015 - 21\16 - For No One.flac
  Extracted successfully
  Conclusion: this track is CDDA with probability 99%
  Tempfile successfully deleted.
17 -===- D:\Torrent files\The Beatles - 2015 - 21\17 - Blackbird.flac
  Extracted successfully
  Conclusion: this track is CDDA with probability 100%
  Tempfile successfully deleted.
18 -===- D:\Torrent files\The Beatles - 2015 - 21\18 - I Will.flac
  Extracted successfully
  Conclusion: this track is CDDA with probability 99%
  Tempfile successfully deleted.
19 -===- D:\Torrent files\The Beatles - 2015 - 21\19 - Something.flac
  Extracted successfully
  Conclusion: this track is CDDA with probability 100%
  Tempfile successfully deleted.
20 -===- D:\Torrent files\The Beatles - 2015 - 21\20 - The Long And Winding Road.flac
  Extracted successfully
  Conclusion: this track is CDDA with probability 100%
  Tempfile successfully deleted.
21 -===- D:\Torrent files\The Beatles - 2015 - 21\21 - Let It Be.flac
  Extracted successfully
  Conclusion: this track is CDDA with probability 100%
  Tempfile successfully deleted.
Finished at: четверг, 16. 07. 2015. - 15:52.30 (operation time: 0:02.34)

Скриншот спектра частот

--Не забываем говорить
[Профиль] [ЛС]
Показать сообщения:    

Текущее время: Сегодня 14:38

Часовой пояс: GMT



Вы не можете начинать темы
Вы не можете отвечать на сообщения
Вы не можете редактировать свои сообщения
Вы не можете удалять свои сообщения
Вы не можете голосовать в опросах
Вы не можете прикреплять файлы к сообщениям
Вы не можете скачивать файлы