The Australian Pink Floyd Show Eclipsed by the Moon – Live in Germany [2013 г., Rock, Progressive Rock, Blu-ray]

 
Автор Сообщение

sergej644 ®

Пол:

Стаж: 4 года 11 месяцев

Сообщений: 6046

Откуда: Soviet Union



Награды: Нет

Торрент-статистика

Создавать темы 14-Ноя-2014 19:01

[Цитировать]

--The Australian Pink Floyd Show Eclipsed by the Moon – Live in Germany
Год выпуска: 2013
Страна: Germany
Жанр: Rock, Progressive Rock
Продолжительность: 00:44:18 + 01:46:57
Описание: "Австралийский Pink Floyd Show: был снят в Трир и Оберхаузен Аренас в Германии 12 апреля и 13 в 2013 году В концерт входят песни из всего репертуара Pink Floyd. Грандиозное лазер - шоу.....

"The Australian Pink Floyd Show: Eclipsed By The Moon," was filmed at Trier & Oberhausen Arenas in Germany on April 12th and 13th in 2013. The set includes songs from across the works of Pink Floyd. All the inflatables, all the lasers, all the hits. Australian Pink Floyd, the worldwide-touring tribute band, recreates the musical and visual concert experience of one of rock music’s most iconic groups. This one-hour concert features everything a true “AFP” fan expects: an astonishing note-for-note rendering of Pink Floyd’s music, evocative atmosphere, lasers and even Skippy the Kangaroo (the band’s mascot). Featuring founding members Steve Mac and Jason Sawford, the band has been performing the Pink Floyd catalogue for more than 20 years and has played to more than three million fans worldwide. Lovingly curated, the band’s live sets are packed with the fans’ favorite Floyd classics from across the years that otherwise would simply not be heard together in a concert setting.
“Eclipsed by the Moon”, Das einzigartige Konzerterlebnis der Australian Pink Floyd Show wurde in den Trierer und Oberhausener Arenas im April 2013 aufgezeichnet. Die weltweit Begeisterungssturme hervorrufende Pink Floyd Tribute Band ,rekonstruiert das musikalische und visuelle Vermachtnis der britischen Rock-Ikonen bis ins Detail. Ihre originalgetreue Reproduktion von “Dark Side of the Moon” bleibt unerreicht; ebenso die Interpretationen der meistgeliebten Songs von Alben wie “The Wall”, “Wish You Were Here” und “The Division Bell”. Das ganze Ausma? und die Professionalitat der Prasentation bis hin zur Authentizitat der Light Show ist und bleibt atemberaubend. Mit Liebe und Enthusiasmus prasentieren The Australian Pink Floyd Show ein Live-Erlebnis, welches die beliebtesten Floyd-Klassiker aller Epochen zusammenbringt, die so noch nie zusammenhangend auf der Konzertbuhne gespielt und gehort wurden.
-amazonvideoКачество: Blu-ray
Контейнер: BDMV
Формат: m2ts
Видео кодек: AVC
Аудио кодек: AC3
Disc 1
Видео: MPEG-4 AVC Video / 30005 kbps / 1080i / 29,970 fps / 16:9 / High Profile 4.1
Аудио 1: German Dolby Digital Audio / 2.0 / 48 kHz / 192 kbps
Аудио 2: German Dolby Digital Audio / 5.1 / 48 kHz / 448 kbps
Disc 2
Видео: MPEG-4 AVC Video / 27998 kbps / 1080i / 29,970 fps / 16:9 / High Profile 4.1
Аудио 1: German Dolby Digital Audio/ 2.0 / 48 kHz / 192 kbps
Аудио 2: English Dolby Digital Audio / 5.1 / 48 kHz / 448 kbps

Скриншоты

CD 1 скриншоты

CD 2 скриншоты

Информация по видео:

MediaInfo CD 1

Общее
Идентификатор                            : 0 (0x0)
Полное имя                               : E:\torrent files\The Australian Pink Floyd Show\Disc 1\BDMV\STREAM\00002.m2ts
Формат                                   : BDAV
Формат/Информация                        : Blu-ray Video
Размер файла                             : 9,94 Гбайт
Продолжительность                        : 44 м.
Режим общего битрейта                    : Переменный
Общий поток                              : 32,1 Мбит/сек
Максимальный общий битрейт               : 48,0 Мбит/сек
Видео
Идентификатор                            : 4113 (0x1011)
Идентификатор меню                       : 1 (0x1)
Формат                                   : AVC
Формат/Информация                        : Advanced Video Codec
Профиль формата                          : Main@L4.1
Параметр CABAC формата                   : Да
Параметр ReFrames формата                : 3 кадра
Идентификатор кодека                     : 27
Продолжительность                        : 44 м.
Вид битрейта                             : Переменный
Битрейт                                  : 30,2 Мбит/сек
Максимальный битрейт                     : 35,0 Мбит/сек
Ширина                                   : 1920 пикселей
Высота                                   : 1080 пикселей
Соотношение сторон                       : 16:9
Частота кадров                           : 29,970 кадров/сек
Стандарт вещания                         : NTSC
Цветовое пространство                    : YUV
Субдискретизация насыщенности            : 4:2:0
Битовая глубина                          : 8 бит
Тип развёртки                            : Чересстрочная
Порядок развёртки                        : Верхнее поле первое
Бит/(Пиксели*Кадры)                      : 0.486
Размер потока                            : 9,35 Гбайт (94%)
Аудио #1
Идентификатор                            : 4352 (0x1100)
Идентификатор меню                       : 1 (0x1)
Формат                                   : AC-3
Формат/Информация                        : Audio Coding 3
Расширение режима                        : CM (complete main)
Параметр Endianness формата              : Big
Идентификатор кодека                     : 129
Продолжительность                        : 44 м.
Вид битрейта                             : Постоянный
Битрейт                                  : 192 Кбит/сек
Каналы                                   : 2 канала
Расположение каналов                     : Front: L R
Частота                                  : 48,0 КГц
Битовая глубина                          : 16 бит
Метод сжатия                             : С потерями
Размер потока                            : 60,9 Мбайт (1%)
Аудио #2
Идентификатор                            : 4353 (0x1101)
Идентификатор меню                       : 1 (0x1)
Формат                                   : AC-3
Формат/Информация                        : Audio Coding 3
Расширение режима                        : CM (complete main)
Параметр Endianness формата              : Big
Идентификатор кодека                     : 129
Продолжительность                        : 44 м.
Вид битрейта                             : Постоянный
Битрейт                                  : 448 Кбит/сек
Каналы                                   : 6 каналов
Расположение каналов                     : Front: L C R, Side: L R, LFE
Частота                                  : 48,0 КГц
Битовая глубина                          : 16 бит
Метод сжатия                             : С потерями
Размер потока                            : 142 Мбайт (1%)

MediaInfo CD 2

Общее
Идентификатор                            : 0 (0x0)
Полное имя                               : E:\torrent files\The Australian Pink Floyd Show\Disc 2\BDMV\STREAM\00002.m2ts
Формат                                   : BDAV
Формат/Информация                        : Blu-ray Video
Размер файла                             : 22,4 Гбайт
Продолжительность                        : 1 ч. 46 м.
Режим общего битрейта                    : Переменный
Общий поток                              : 30,0 Мбит/сек
Максимальный общий битрейт               : 48,0 Мбит/сек
Видео
Идентификатор                            : 4113 (0x1011)
Идентификатор меню                       : 1 (0x1)
Формат                                   : AVC
Формат/Информация                        : Advanced Video Codec
Профиль формата                          : Main@L4.1
Параметр CABAC формата                   : Да
Параметр ReFrames формата                : 3 кадра
Параметр GOP формата                     : M=4, N=29
Идентификатор кодека                     : 27
Продолжительность                        : 1 ч. 46 м.
Вид битрейта                             : Переменный
Битрейт                                  : 28,2 Мбит/сек
Максимальный битрейт                     : 35,0 Мбит/сек
Ширина                                   : 1920 пикселей
Высота                                   : 1080 пикселей
Соотношение сторон                       : 16:9
Частота кадров                           : 29,970 кадров/сек
Стандарт вещания                         : NTSC
Цветовое пространство                    : YUV
Субдискретизация насыщенности            : 4:2:0
Битовая глубина                          : 8 бит
Тип развёртки                            : Чересстрочная
Порядок развёртки                        : Верхнее поле первое
Бит/(Пиксели*Кадры)                      : 0.454
Размер потока                            : 21,1 Гбайт (94%)
Аудио #1
Идентификатор                            : 4352 (0x1100)
Идентификатор меню                       : 1 (0x1)
Формат                                   : AC-3
Формат/Информация                        : Audio Coding 3
Расширение режима                        : CM (complete main)
Параметр Endianness формата              : Big
Идентификатор кодека                     : 129
Продолжительность                        : 1 ч. 46 м.
Вид битрейта                             : Постоянный
Битрейт                                  : 192 Кбит/сек
Каналы                                   : 2 канала
Расположение каналов                     : Front: L R
Частота                                  : 48,0 КГц
Битовая глубина                          : 16 бит
Метод сжатия                             : С потерями
Размер потока                            : 147 Мбайт (1%)
Аудио #2
Идентификатор                            : 4353 (0x1101)
Идентификатор меню                       : 1 (0x1)
Формат                                   : AC-3
Формат/Информация                        : Audio Coding 3
Расширение режима                        : CM (complete main)
Параметр Endianness формата              : Big
Идентификатор кодека                     : 129
Продолжительность                        : 1 ч. 46 м.
Вид битрейта                             : Постоянный
Битрейт                                  : 448 Кбит/сек
Каналы                                   : 6 каналов
Расположение каналов                     : Front: L C R, Side: L R, LFE
Частота                                  : 48,0 КГц
Битовая глубина                          : 16 бит
Метод сжатия                             : С потерями
Размер потока                            : 343 Мбайт (1%)
-

BDInfo CD1

Disc Title: Disc 1
Disc Size: 15 960 967 786 bytes
Protection: AACS
BD-Java: No
Extras: 50Hz Content
BDInfo: 0.5.8
Notes:
BDINFO HOME:
Cinema Squid
http://www.cinemasquid.com/blu-ray/tools/bdinfo
INCLUDES FORUMS REPORT FOR:
AVS Forum Blu-ray Audio and Video Specifications Thread
http://www.avsforum.com/avs-vb/showthread.php?t=1155731
********************
PLAYLIST: 01001.MPLS
********************
<--- BEGIN FORUMS PASTE --->
Total   Video
Title                                                           Codec   Length  Movie Size      Disc Size       Bitrate Bitrate Main Audio Track                          Secondary Audio Track
-----                                                           ------  ------- --------------  --------------  ------- ------- ------------------                        ---------------------
01001.MPLS                                                      AVC     0:44:19 10 676 305 920  15 960 967 786  32,11   29,99   DD AC3 2.0 192Kbps                        DD AC3 5.1 448Kbps
DISC INFO:
Disc Title:     Disc 1
Disc Size:      15 960 967 786 bytes
Protection:     AACS
BD-Java:        No
Extras:         50Hz Content
BDInfo:         0.5.8
PLAYLIST REPORT:
Name:                   01001.MPLS
Length:                 0:44:19.696 (h:m:s.ms)
Size:                   10 676 305 920 bytes
Total Bitrate:          32,11 Mbps
VIDEO:
Codec                   Bitrate             Description
-----                   -------             -----------
MPEG-4 AVC Video        29993 kbps          1080i / 29,970 fps / 16:9 / Main Profile 4.1
AUDIO:
Codec                           Language        Bitrate         Description
-----                           --------        -------         -----------
Dolby Digital Audio             German          192 kbps        2.0 / 48 kHz / 192 kbps
Dolby Digital Audio             German          448 kbps        5.1 / 48 kHz / 448 kbps
FILES:
Name            Time In         Length          Size            Total Bitrate
----            -------         ------          ----            -------------
00002.M2TS      0:00:00.000     0:44:18.656     10 676 023 296  32 125
00003.M2TS      0:44:18.656     0:00:01.040     282 624         2 174
CHAPTERS:
Number          Time In         Length          Avg Video Rate  Max 1-Sec Rate  Max 1-Sec Time  Max 5-Sec Rate  Max 5-Sec Time  Max 10Sec Rate  Max 10Sec Time  Avg Frame Size  Max Frame Size  Max Frame Time
------          -------         ------          --------------  --------------  --------------  --------------  --------------  --------------  --------------  --------------  --------------  --------------
1               0:00:00.000     0:02:16.202     19 080 kbps     45 547 kbps     00:00:26.926    37 750 kbps     00:00:20.153    36 555 kbps     00:00:19.953    79 561 bytes    352 030 bytes   00:00:21.287
2               0:02:16.202     0:02:54.774     35 023 kbps     50 638 kbps     00:02:17.237    38 173 kbps     00:02:17.237    36 599 kbps     00:02:16.569    146 075 bytes   472 529 bytes   00:03:04.984
3               0:05:10.977     0:03:26.973     32 738 kbps     49 868 kbps     00:07:32.685    37 888 kbps     00:06:02.462    36 528 kbps     00:07:04.424    136 544 bytes   398 330 bytes   00:05:37.337
4               0:08:37.950     0:07:03.055     30 110 kbps     50 619 kbps     00:09:25.665    37 771 kbps     00:08:58.638    36 064 kbps     00:09:45.751    125 583 bytes   487 530 bytes   00:14:56.562
5               0:15:41.006     0:04:52.025     30 112 kbps     47 004 kbps     00:17:37.856    37 128 kbps     00:15:49.214    35 828 kbps     00:15:49.048    125 592 bytes   471 144 bytes   00:16:59.651
6               0:20:33.031     0:06:54.947     29 910 kbps     46 194 kbps     00:26:26.985    36 994 kbps     00:23:43.855    33 593 kbps     00:22:02.287    124 749 bytes   445 206 bytes   00:27:15.700
7               0:27:27.979     0:07:31.350     29 979 kbps     46 196 kbps     00:31:35.226    37 451 kbps     00:29:53.091    35 650 kbps     00:27:50.168    125 039 bytes   479 574 bytes   00:32:39.290
8               0:34:59.330     0:03:38.651     30 116 kbps     45 494 kbps     00:38:35.479    36 646 kbps     00:37:24.041    33 277 kbps     00:37:19.003    125 607 bytes   517 376 bytes   00:38:36.347
9               0:38:37.982     0:03:36.683     29 945 kbps     47 689 kbps     00:39:14.618    36 816 kbps     00:41:02.726    33 223 kbps     00:40:11.609    124 894 bytes   533 959 bytes   00:40:55.019
10              0:42:14.665     0:02:03.990     30 084 kbps     49 613 kbps     00:43:31.976    37 698 kbps     00:43:37.815    35 803 kbps     00:43:37.615    125 473 bytes   398 700 bytes   00:43:58.002
11              0:44:18.656     0:00:01.039     54 kbps         56 kbps         00:44:18.656    0 kbps          00:00:00.000    0 kbps          00:00:00.000    279 bytes       782 bytes       00:44:19.256
STREAM DIAGNOSTICS:
File            PID             Type            Codec           Language                Seconds                 Bitrate                 Bytes           Packets
----            ---             ----            -----           --------                --------------          --------------          -------------   -----
00002.M2TS      4113 (0x1011)   0x1B            AVC                                     2658,589                30 006                  9 971 613 320   54 239 910
00002.M2TS      4352 (0x1100)   0x81            AC3             deu (German)            2658,589                192                     63 806 208      415 405
00002.M2TS      4353 (0x1101)   0x81            AC3             deu (German)            2658,589                448                     148 881 152     830 810
00003.M2TS      4113 (0x1011)   0x1B            AVC                                     0,960                   65                      7 752           50
00003.M2TS      4352 (0x1100)   0x86            DTS-HD MA       deu (German)            0,960                   870                     104 448         672
00003.M2TS      4353 (0x1101)   0x86            DTS-HD MA       deu (German)            0,960                   870                     104 448         672
<---- END FORUMS PASTE ---->
QUICK SUMMARY:
Disc Title: Disc 1
Disc Size: 15 960 967 786 bytes
Protection: AACS
BD-Java: No
Playlist: 01001.MPLS
Size: 10 676 305 920 bytes
Length: 0:44:19.696
Total Bitrate: 32,11 Mbps
Video: MPEG-4 AVC Video / 29993 kbps / 1080i / 29,970 fps / 16:9 / Main Profile 4.1
Audio: German / Dolby Digital Audio / 2.0 / 48 kHz / 192 kbps
Audio: German / Dolby Digital Audio / 5.1 / 48 kHz / 448 kbps
********************
PLAYLIST: 00002.MPLS
********************
<--- BEGIN FORUMS PASTE --->
Total   Video
Title                                                           Codec   Length  Movie Size      Disc Size       Bitrate Bitrate Main Audio Track                          Secondary Audio Track
-----                                                           ------  ------- --------------  --------------  ------- ------- ------------------                        ---------------------
00002.MPLS                                                      AVC     0:44:18 10 676 023 296  15 960 967 786  32,12   30,00   DD AC3 2.0 192Kbps                        DD AC3 5.1 448Kbps
DISC INFO:
Disc Title:     Disc 1
Disc Size:      15 960 967 786 bytes
Protection:     AACS
BD-Java:        No
Extras:         50Hz Content
BDInfo:         0.5.8
PLAYLIST REPORT:
Name:                   00002.MPLS
Length:                 0:44:18.656 (h:m:s.ms)
Size:                   10 676 023 296 bytes
Total Bitrate:          32,12 Mbps
VIDEO:
Codec                   Bitrate             Description
-----                   -------             -----------
MPEG-4 AVC Video        30005 kbps          1080i / 29,970 fps / 16:9 / Main Profile 4.1
AUDIO:
Codec                           Language        Bitrate         Description
-----                           --------        -------         -----------
Dolby Digital Audio             German          192 kbps        2.0 / 48 kHz / 192 kbps
Dolby Digital Audio             German          448 kbps        5.1 / 48 kHz / 448 kbps
FILES:
Name            Time In         Length          Size            Total Bitrate
----            -------         ------          ----            -------------
00002.M2TS      0:00:00.000     0:44:18.656     10 676 023 296  32 125
CHAPTERS:
Number          Time In         Length          Avg Video Rate  Max 1-Sec Rate  Max 1-Sec Time  Max 5-Sec Rate  Max 5-Sec Time  Max 10Sec Rate  Max 10Sec Time  Avg Frame Size  Max Frame Size  Max Frame Time
------          -------         ------          --------------  --------------  --------------  --------------  --------------  --------------  --------------  --------------  --------------  --------------
1               0:00:00.000     0:44:18.656     30 005 kbps     50 638 kbps     00:02:17.237    38 173 kbps     00:02:17.237    36 599 kbps     00:02:16.569    125 146 bytes   533 959 bytes   00:40:55.019
STREAM DIAGNOSTICS:
File            PID             Type            Codec           Language                Seconds                 Bitrate                 Bytes           Packets
----            ---             ----            -----           --------                --------------          --------------          -------------   -----
00002.M2TS      4113 (0x1011)   0x1B            AVC                                     2658,589                30 006                  9 971 613 320   54 239 910
00002.M2TS      4352 (0x1100)   0x81            AC3             deu (German)            2658,589                192                     63 806 208      415 405
00002.M2TS      4353 (0x1101)   0x81            AC3             deu (German)            2658,589                448                     148 881 152     830 810
<---- END FORUMS PASTE ---->
QUICK SUMMARY:
Disc Title: Disc 1
Disc Size: 15 960 967 786 bytes
Protection: AACS
BD-Java: No
Playlist: 00002.MPLS
Size: 10 676 023 296 bytes
Length: 0:44:18.656
Total Bitrate: 32,12 Mbps
Video: MPEG-4 AVC Video / 30005 kbps / 1080i / 29,970 fps / 16:9 / Main Profile 4.1
Audio: German / Dolby Digital Audio / 2.0 / 48 kHz / 192 kbps
Audio: German / Dolby Digital Audio / 5.1 / 48 kHz / 448 kbps
********************
PLAYLIST: 01003.MPLS
********************
<--- BEGIN FORUMS PASTE --->
Total   Video
Title                                                           Codec   Length  Movie Size      Disc Size       Bitrate Bitrate Main Audio Track                          Secondary Audio Track
-----                                                           ------  ------- --------------  --------------  ------- ------- ------------------                        ---------------------
01003.MPLS                                                      AVC     0:39:28 4 745 816 064   15 960 967 786  16,03   15,00   DD AC3 2.0 128Kbps
DISC INFO:
Disc Title:     Disc 1
Disc Size:      15 960 967 786 bytes
Protection:     AACS
BD-Java:        No
Extras:         50Hz Content
BDInfo:         0.5.8
PLAYLIST REPORT:
Name:                   01003.MPLS
Length:                 0:39:28.104 (h:m:s.ms)
Size:                   4 745 816 064 bytes
Total Bitrate:          16,03 Mbps
VIDEO:
Codec                   Bitrate             Description
-----                   -------             -----------
MPEG-4 AVC Video        14997 kbps          1080i / 29,970 fps / 16:9 / High Profile 4.1
AUDIO:
Codec                           Language        Bitrate         Description
-----                           --------        -------         -----------
Dolby Digital Audio             English         128 kbps        2.0 / 48 kHz / 128 kbps
Dolby Digital Audio             English         128 kbps        2.0 / 48 kHz / 128 kbps
FILES:
Name            Time In         Length          Size            Total Bitrate
----            -------         ------          ----            -------------
00005.M2TS      0:00:00.000     0:39:27.064     4 745 533 440   16 039
00003.M2TS      0:39:27.064     0:00:01.040     282 624         2 174
CHAPTERS:
Number          Time In         Length          Avg Video Rate  Max 1-Sec Rate  Max 1-Sec Time  Max 5-Sec Rate  Max 5-Sec Time  Max 10Sec Rate  Max 10Sec Time  Avg Frame Size  Max Frame Size  Max Frame Time
------          -------         ------          --------------  --------------  --------------  --------------  --------------  --------------  --------------  --------------  --------------  --------------
1               0:00:00.000     0:05:25.825     14 999 kbps     22 975 kbps     00:02:59.345    18 185 kbps     00:02:58.378    16 977 kbps     00:00:28.928    62 553 bytes    214 237 bytes   00:03:51.097
2               0:05:25.825     0:05:59.192     15 826 kbps     38 350 kbps     00:05:26.225    28 220 kbps     00:05:38.671    26 496 kbps     00:05:38.538    66 006 bytes    524 954 bytes   00:06:07.433
3               0:11:25.017     0:04:33.006     27 024 kbps     40 782 kbps     00:12:33.786    33 666 kbps     00:11:27.987    31 728 kbps     00:11:27.586    112 712 bytes   434 350 bytes   00:11:28.020
4               0:15:58.023     0:06:19.979     10 530 kbps     33 274 kbps     00:15:58.524    30 378 kbps     00:15:58.924    21 973 kbps     00:15:58.023    43 920 bytes    388 002 bytes   00:18:51.964
5               0:22:18.003     0:04:14.988     10 384 kbps     35 010 kbps     00:22:18.770    20 460 kbps     00:22:18.770    15 594 kbps     00:22:18.770    43 309 bytes    389 857 bytes   00:22:19.705
6               0:26:32.991     0:04:41.014     12 036 kbps     26 011 kbps     00:30:28.793    23 435 kbps     00:30:26.324    19 420 kbps     00:30:25.824    50 201 bytes    237 236 bytes   00:28:48.660
7               0:31:14.005     0:02:05.992     16 025 kbps     35 374 kbps     00:31:15.573    26 525 kbps     00:31:15.440    25 824 kbps     00:31:15.807    66 837 bytes    269 674 bytes   00:31:16.040
8               0:33:19.998     0:02:25.011     15 016 kbps     25 805 kbps     00:33:20.999    18 370 kbps     00:34:27.799    17 126 kbps     00:34:27.498    62 631 bytes    364 647 bytes   00:33:21.399
9               0:35:45.009     0:03:42.055     15 024 kbps     27 654 kbps     00:39:14.752    23 148 kbps     00:39:11.315    19 859 kbps     00:39:06.744    62 664 bytes    284 197 bytes   00:39:13.818
10              0:39:27.064     0:00:01.039     54 kbps         56 kbps         00:39:27.064    0 kbps          00:00:00.000    0 kbps          00:00:00.000    279 bytes       782 bytes       00:39:27.664
STREAM DIAGNOSTICS:
File            PID             Type            Codec           Language                Seconds                 Bitrate                 Bytes           Packets
----            ---             ----            -----           --------                --------------          --------------          -------------   -----
00005.M2TS      4113 (0x1011)   0x1B            AVC                                     2366,965                15 004                  4 439 178 023   24 167 291
00005.M2TS      4352 (0x1100)   0x81            AC3             eng (English)           2366,965                128                     37 872 128      221 911
00005.M2TS      4353 (0x1101)   0x81            AC3             eng (English)           2366,965                128                     37 873 152      221 913
00003.M2TS      4113 (0x1011)   0x1B            AVC                                     0,960                   65                      7 752           50
00003.M2TS      4352 (0x1100)   0x86            DTS-HD MA       eng (English)           0,960                   870                     104 448         672
00003.M2TS      4353 (0x1101)   0x86            DTS-HD MA       eng (English)           0,960                   870                     104 448         672
<---- END FORUMS PASTE ---->
QUICK SUMMARY:
Disc Title: Disc 1
Disc Size: 15 960 967 786 bytes
Protection: AACS
BD-Java: No
Playlist: 01003.MPLS
Size: 4 745 816 064 bytes
Length: 0:39:28.104
Total Bitrate: 16,03 Mbps
Video: MPEG-4 AVC Video / 14997 kbps / 1080i / 29,970 fps / 16:9 / High Profile 4.1
Audio: English / Dolby Digital Audio / 2.0 / 48 kHz / 128 kbps
Audio: English / Dolby Digital Audio / 2.0 / 48 kHz / 128 kbps
********************
PLAYLIST: 00005.MPLS
********************
<--- BEGIN FORUMS PASTE --->
Total   Video
Title                                                           Codec   Length  Movie Size      Disc Size       Bitrate Bitrate Main Audio Track                          Secondary Audio Track
-----                                                           ------  ------- --------------  --------------  ------- ------- ------------------                        ---------------------
00005.MPLS                                                      AVC     0:39:27 4 745 533 440   15 960 967 786  16,04   15,00   DD AC3 2.0 128Kbps
DISC INFO:
Disc Title:     Disc 1
Disc Size:      15 960 967 786 bytes
Protection:     AACS
BD-Java:        No
Extras:         50Hz Content
BDInfo:         0.5.8
PLAYLIST REPORT:
Name:                   00005.MPLS
Length:                 0:39:27.064 (h:m:s.ms)
Size:                   4 745 533 440 bytes
Total Bitrate:          16,04 Mbps
VIDEO:
Codec                   Bitrate             Description
-----                   -------             -----------
MPEG-4 AVC Video        15003 kbps          1080i / 29,970 fps / 16:9 / High Profile 4.1
AUDIO:
Codec                           Language        Bitrate         Description
-----                           --------        -------         -----------
Dolby Digital Audio             English         128 kbps        2.0 / 48 kHz / 128 kbps
Dolby Digital Audio             English         128 kbps        2.0 / 48 kHz / 128 kbps
FILES:
Name            Time In         Length          Size            Total Bitrate
----            -------         ------          ----            -------------
00005.M2TS      0:00:00.000     0:39:27.064     4 745 533 440   16 039
CHAPTERS:
Number          Time In         Length          Avg Video Rate  Max 1-Sec Rate  Max 1-Sec Time  Max 5-Sec Rate  Max 5-Sec Time  Max 10Sec Rate  Max 10Sec Time  Avg Frame Size  Max Frame Size  Max Frame Time
------          -------         ------          --------------  --------------  --------------  --------------  --------------  --------------  --------------  --------------  --------------  --------------
1               0:00:00.000     0:39:27.064     15 003 kbps     40 782 kbps     00:12:33.786    33 666 kbps     00:11:27.987    31 728 kbps     00:11:27.586    62 576 bytes    524 954 bytes   00:06:07.433
STREAM DIAGNOSTICS:
File            PID             Type            Codec           Language                Seconds                 Bitrate                 Bytes           Packets
----            ---             ----            -----           --------                --------------          --------------          -------------   -----
00005.M2TS      4113 (0x1011)   0x1B            AVC                                     2366,965                15 004                  4 439 178 023   24 167 291
00005.M2TS      4352 (0x1100)   0x81            AC3             eng (English)           2366,965                128                     37 872 128      221 911
00005.M2TS      4353 (0x1101)   0x81            AC3             eng (English)           2366,965                128                     37 873 152      221 913
<---- END FORUMS PASTE ---->
QUICK SUMMARY:
Disc Title: Disc 1
Disc Size: 15 960 967 786 bytes
Protection: AACS
BD-Java: No
Playlist: 00005.MPLS
Size: 4 745 533 440 bytes
Length: 0:39:27.064
Total Bitrate: 16,04 Mbps
Video: MPEG-4 AVC Video / 15003 kbps / 1080i / 29,970 fps / 16:9 / High Profile 4.1
Audio: English / Dolby Digital Audio / 2.0 / 48 kHz / 128 kbps
Audio: English / Dolby Digital Audio / 2.0 / 48 kHz / 128 kbps
********************
PLAYLIST: 00001.MPLS
********************
<--- BEGIN FORUMS PASTE --->
Total   Video
Title                                                           Codec   Length  Movie Size      Disc Size       Bitrate Bitrate Main Audio Track                          Secondary Audio Track
-----                                                           ------  ------- --------------  --------------  ------- ------- ------------------                        ---------------------
00001.MPLS                                                      MPEG-2  0:01:42 382 499 904     15 960 967 786  29,72   24,85   LPCM 2.0 1536Kbps (48kHz/16-bit)
DISC INFO:
Disc Title:     Disc 1
Disc Size:      15 960 967 786 bytes
Protection:     AACS
BD-Java:        No
Extras:         50Hz Content
BDInfo:         0.5.8
PLAYLIST REPORT:
Name:                   00001.MPLS
Length:                 0:01:42.969 (h:m:s.ms)
Size:                   382 499 904 bytes
Total Bitrate:          29,72 Mbps
VIDEO:
Codec                   Bitrate             Description
-----                   -------             -----------
MPEG-2 Video            24852 kbps          1080i / 29,970 fps / 16:9
AUDIO:
Codec                           Language        Bitrate         Description
-----                           --------        -------         -----------
LPCM Audio                      German          1536 kbps       2.0 / 48 kHz / 1536 kbps / 16-bit
LPCM Audio                      English         1536 kbps       2.0 / 48 kHz / 1536 kbps / 16-bit
FILES:
Name            Time In         Length          Size            Total Bitrate
----            -------         ------          ----            -------------
00001.M2TS      0:00:00.000     0:01:42.969     382 499 904     29 718
CHAPTERS:
Number          Time In         Length          Avg Video Rate  Max 1-Sec Rate  Max 1-Sec Time  Max 5-Sec Rate  Max 5-Sec Time  Max 10Sec Rate  Max 10Sec Time  Avg Frame Size  Max Frame Size  Max Frame Time
------          -------         ------          --------------  --------------  --------------  --------------  --------------  --------------  --------------  --------------  --------------  --------------
1               0:00:00.000     0:01:42.969     24 852 kbps     31 827 kbps     00:01:17.477    28 144 kbps     00:00:27.694    27 168 kbps     00:00:25.759    103 654 bytes   686 146 bytes   00:00:19.452
STREAM DIAGNOSTICS:
File            PID             Type            Codec           Language                Seconds                 Bitrate                 Bytes           Packets
----            ---             ----            -----           --------                --------------          --------------          -------------   -----
00001.M2TS      4113 (0x1011)   0x02            MPEG-2                                  103,003                 24 849                  319 935 237     1 740 594
00001.M2TS      4352 (0x1100)   0x80            LPCM            deu (German)            103,003                 1 543                   19 866 112      123 648
00001.M2TS      4353 (0x1101)   0x80            LPCM            eng (English)           103,003                 1 543                   19 866 112      123 648
<---- END FORUMS PASTE ---->
QUICK SUMMARY:
Disc Title: Disc 1
Disc Size: 15 960 967 786 bytes
Protection: AACS
BD-Java: No
Playlist: 00001.MPLS
Size: 382 499 904 bytes
Length: 0:01:42.969
Total Bitrate: 29,72 Mbps
Video: MPEG-2 Video / 24852 kbps / 1080i / 29,970 fps / 16:9
Audio: German / LPCM Audio / 2.0 / 48 kHz / 1536 kbps / 16-bit
Audio: English / LPCM Audio / 2.0 / 48 kHz / 1536 kbps / 16-bit
********************
PLAYLIST: 01002.MPLS
********************
<--- BEGIN FORUMS PASTE --->
Total   Video
Title                                                           Codec   Length  Movie Size      Disc Size       Bitrate Bitrate Main Audio Track                          Secondary Audio Track
-----                                                           ------  ------- --------------  --------------  ------- ------- ------------------                        ---------------------
01002.MPLS                                                      MPEG-2  0:01:42 382 499 904     15 960 967 786  29,72   24,85   LPCM 2.0 1536Kbps (48kHz/16-bit)
DISC INFO:
Disc Title:     Disc 1
Disc Size:      15 960 967 786 bytes
Protection:     AACS
BD-Java:        No
Extras:         50Hz Content
BDInfo:         0.5.8
PLAYLIST REPORT:
Name:                   01002.MPLS
Length:                 0:01:42.969 (h:m:s.ms)
Size:                   382 499 904 bytes
Total Bitrate:          29,72 Mbps
VIDEO:
Codec                   Bitrate             Description
-----                   -------             -----------
MPEG-2 Video            24852 kbps          1080i / 29,970 fps / 16:9
AUDIO:
Codec                           Language        Bitrate         Description
-----                           --------        -------         -----------
LPCM Audio                      German          1536 kbps       2.0 / 48 kHz / 1536 kbps / 16-bit
LPCM Audio                      English         1536 kbps       2.0 / 48 kHz / 1536 kbps / 16-bit
FILES:
Name            Time In         Length          Size            Total Bitrate
----            -------         ------          ----            -------------
00001.M2TS      0:00:00.000     0:01:42.969     382 499 904     29 718
CHAPTERS:
Number          Time In         Length          Avg Video Rate  Max 1-Sec Rate  Max 1-Sec Time  Max 5-Sec Rate  Max 5-Sec Time  Max 10Sec Rate  Max 10Sec Time  Avg Frame Size  Max Frame Size  Max Frame Time
------          -------         ------          --------------  --------------  --------------  --------------  --------------  --------------  --------------  --------------  --------------  --------------
1               0:00:00.000     0:01:42.969     24 852 kbps     31 827 kbps     00:01:17.477    28 144 kbps     00:00:27.694    27 168 kbps     00:00:25.759    103 654 bytes   686 146 bytes   00:00:19.452
STREAM DIAGNOSTICS:
File            PID             Type            Codec           Language                Seconds                 Bitrate                 Bytes           Packets
----            ---             ----            -----           --------                --------------          --------------          -------------   -----
00001.M2TS      4113 (0x1011)   0x02            MPEG-2                                  103,003                 24 849                  319 935 237     1 740 594
00001.M2TS      4352 (0x1100)   0x80            LPCM            deu (German)            103,003                 1 543                   19 866 112      123 648
00001.M2TS      4353 (0x1101)   0x80            LPCM            eng (English)           103,003                 1 543                   19 866 112      123 648
<---- END FORUMS PASTE ---->
QUICK SUMMARY:
Disc Title: Disc 1
Disc Size: 15 960 967 786 bytes
Protection: AACS
BD-Java: No
Playlist: 01002.MPLS
Size: 382 499 904 bytes
Length: 0:01:42.969
Total Bitrate: 29,72 Mbps
Video: MPEG-2 Video / 24852 kbps / 1080i / 29,970 fps / 16:9
Audio: German / LPCM Audio / 2.0 / 48 kHz / 1536 kbps / 16-bit
Audio: English / LPCM Audio / 2.0 / 48 kHz / 1536 kbps / 16-bit
********************
PLAYLIST: 00004.MPLS
********************
<--- BEGIN FORUMS PASTE --->
Total   Video
Title                                                           Codec   Length  Movie Size      Disc Size       Bitrate Bitrate Main Audio Track                          Secondary Audio Track
-----                                                           ------  ------- --------------  --------------  ------- ------- ------------------                        ---------------------
00004.MPLS                                                      MPEG-2  0:00:29 82 862 016      15 960 967 786  22,14   21,13
DISC INFO:
Disc Title:     Disc 1
Disc Size:      15 960 967 786 bytes
Protection:     AACS
BD-Java:        No
Extras:         50Hz Content
BDInfo:         0.5.8
PLAYLIST REPORT:
Name:                   00004.MPLS
Length:                 0:00:29.946 (h:m:s.ms)
Size:                   82 862 016 bytes
Total Bitrate:          22,14 Mbps
VIDEO:
Codec                   Bitrate             Description
-----                   -------             -----------
MPEG-2 Video            21130 kbps          1080p / 23,976 fps / 16:9
FILES:
Name            Time In         Length          Size            Total Bitrate
----            -------         ------          ----            -------------
00004.M2TS      0:00:00.000     0:00:29.946     82 862 016      22 136
CHAPTERS:
Number          Time In         Length          Avg Video Rate  Max 1-Sec Rate  Max 1-Sec Time  Max 5-Sec Rate  Max 5-Sec Time  Max 10Sec Rate  Max 10Sec Time  Avg Frame Size  Max Frame Size  Max Frame Time
------          -------         ------          --------------  --------------  --------------  --------------  --------------  --------------  --------------  --------------  --------------  --------------
1               0:00:00.000     0:00:29.946     21 130 kbps     23 763 kbps     00:00:10.802    22 010 kbps     00:00:10.719    22 010 kbps     00:00:10.719    110 162 bytes   603 217 bytes   00:00:01.167
STREAM DIAGNOSTICS:
File            PID             Type            Codec           Language                Seconds                 Bitrate                 Bytes           Packets
----            ---             ----            -----           --------                --------------          --------------          -------------   -----
00004.M2TS      4113 (0x1011)   0x02            MPEG-2                                  29,905                  21 294                  79 597 729      432 965
<---- END FORUMS PASTE ---->
QUICK SUMMARY:
Disc Title: Disc 1
Disc Size: 15 960 967 786 bytes
Protection: AACS
BD-Java: No
Playlist: 00004.MPLS
Size: 82 862 016 bytes
Length: 0:00:29.946
Total Bitrate: 22,14 Mbps
Video: MPEG-2 Video / 21130 kbps / 1080p / 23,976 fps / 16:9
********************
PLAYLIST: 01007.MPLS
********************
<--- BEGIN FORUMS PASTE --->
Total   Video
Title                                                           Codec   Length  Movie Size      Disc Size       Bitrate Bitrate Main Audio Track                          Secondary Audio Track
-----                                                           ------  ------- --------------  --------------  ------- ------- ------------------                        ---------------------
01007.MPLS                                                      MPEG-2  0:00:29 82 862 016      15 960 967 786  22,14   21,13
DISC INFO:
Disc Title:     Disc 1
Disc Size:      15 960 967 786 bytes
Protection:     AACS
BD-Java:        No
Extras:         50Hz Content
BDInfo:         0.5.8
PLAYLIST REPORT:
Name:                   01007.MPLS
Length:                 0:00:29.946 (h:m:s.ms)
Size:                   82 862 016 bytes
Total Bitrate:          22,14 Mbps
VIDEO:
Codec                   Bitrate             Description
-----                   -------             -----------
MPEG-2 Video            21130 kbps          1080p / 23,976 fps / 16:9
FILES:
Name            Time In         Length          Size            Total Bitrate
----            -------         ------          ----            -------------
00004.M2TS      0:00:00.000     0:00:29.946     82 862 016      22 136
CHAPTERS:
Number          Time In         Length          Avg Video Rate  Max 1-Sec Rate  Max 1-Sec Time  Max 5-Sec Rate  Max 5-Sec Time  Max 10Sec Rate  Max 10Sec Time  Avg Frame Size  Max Frame Size  Max Frame Time
------          -------         ------          --------------  --------------  --------------  --------------  --------------  --------------  --------------  --------------  --------------  --------------
1               0:00:00.000     0:00:29.946     21 130 kbps     23 763 kbps     00:00:10.802    22 010 kbps     00:00:10.719    22 010 kbps     00:00:10.719    110 162 bytes   603 217 bytes   00:00:01.167
STREAM DIAGNOSTICS:
File            PID             Type            Codec           Language                Seconds                 Bitrate                 Bytes           Packets
----            ---             ----            -----           --------                --------------          --------------          -------------   -----
00004.M2TS      4113 (0x1011)   0x02            MPEG-2                                  29,905                  21 294                  79 597 729      432 965
<---- END FORUMS PASTE ---->
QUICK SUMMARY:
Disc Title: Disc 1
Disc Size: 15 960 967 786 bytes
Protection: AACS
BD-Java: No
Playlist: 01007.MPLS
Size: 82 862 016 bytes
Length: 0:00:29.946
Total Bitrate: 22,14 Mbps
Video: MPEG-2 Video / 21130 kbps / 1080p / 23,976 fps / 16:9
********************
PLAYLIST: 00000.MPLS
********************
<--- BEGIN FORUMS PASTE --->
Total   Video
Title                                                           Codec   Length  Movie Size      Disc Size       Bitrate Bitrate Main Audio Track                          Secondary Audio Track
-----                                                           ------  ------- --------------  --------------  ------- ------- ------------------                        ---------------------
00000.MPLS                                                      MPEG-2  0:00:20 57 079 104      15 960 967 786  22,34   21,05   LPCM 2.0 1536Kbps (48kHz/16-bit)
DISC INFO:
Disc Title:     Disc 1
Disc Size:      15 960 967 786 bytes
Protection:     AACS
BD-Java:        No
Extras:         50Hz Content
BDInfo:         0.5.8
PLAYLIST REPORT:
Name:                   00000.MPLS
Length:                 0:00:20.439 (h:m:s.ms)
Size:                   57 079 104 bytes
Total Bitrate:          22,34 Mbps
VIDEO:
Codec                   Bitrate             Description
-----                   -------             -----------
MPEG-2 Video            21045 kbps          1080i / 25 fps / 16:9
AUDIO:
Codec                           Language        Bitrate         Description
-----                           --------        -------         -----------
LPCM Audio                      Undetermined    1536 kbps       2.0 / 48 kHz / 1536 kbps / 16-bit
FILES:
Name            Time In         Length          Size            Total Bitrate
----            -------         ------          ----            -------------
00000.M2TS      0:00:00.000     0:00:20.439     57 079 104      22 340
CHAPTERS:
Number          Time In         Length          Avg Video Rate  Max 1-Sec Rate  Max 1-Sec Time  Max 5-Sec Rate  Max 5-Sec Time  Max 10Sec Rate  Max 10Sec Time  Avg Frame Size  Max Frame Size  Max Frame Time
------          -------         ------          --------------  --------------  --------------  --------------  --------------  --------------  --------------  --------------  --------------  --------------
1               0:00:00.000     0:00:20.439     21 045 kbps     26 923 kbps     00:00:10.080    23 551 kbps     00:00:14.839    22 179 kbps     00:00:09.920    105 226 bytes   704 748 bytes   00:00:02.920
STREAM DIAGNOSTICS:
File            PID             Type            Codec           Language                Seconds                 Bitrate                 Bytes           Packets
----            ---             ----            -----           --------                --------------          --------------          -------------   -----
00000.M2TS      4113 (0x1011)   0x02            MPEG-2                                  20,400                  21 109                  53 826 816      292 837
00000.M2TS      4352 (0x1100)   0x80            LPCM            und (Undetermined)      20,400                  242                     616 960         3 840
<---- END FORUMS PASTE ---->
QUICK SUMMARY:
Disc Title: Disc 1
Disc Size: 15 960 967 786 bytes
Protection: AACS
BD-Java: No
Playlist: 00000.MPLS
Size: 57 079 104 bytes
Length: 0:00:20.439
Total Bitrate: 22,34 Mbps
Video: MPEG-2 Video / 21045 kbps / 1080i / 25 fps / 16:9
Audio: Undetermined / LPCM Audio / 2.0 / 48 kHz / 1536 kbps / 16-bit
********************
PLAYLIST: 01000.MPLS
********************
<--- BEGIN FORUMS PASTE --->
Total   Video
Title                                                           Codec   Length  Movie Size      Disc Size       Bitrate Bitrate Main Audio Track                          Secondary Audio Track
-----                                                           ------  ------- --------------  --------------  ------- ------- ------------------                        ---------------------
01000.MPLS                                                      MPEG-2  0:00:20 57 079 104      15 960 967 786  22,34   21,05   LPCM 2.0 1536Kbps (48kHz/16-bit)
DISC INFO:
Disc Title:     Disc 1
Disc Size:      15 960 967 786 bytes
Protection:     AACS
BD-Java:        No
Extras:         50Hz Content
BDInfo:         0.5.8
PLAYLIST REPORT:
Name:                   01000.MPLS
Length:                 0:00:20.439 (h:m:s.ms)
Size:                   57 079 104 bytes
Total Bitrate:          22,34 Mbps
VIDEO:
Codec                   Bitrate             Description
-----                   -------             -----------
MPEG-2 Video            21045 kbps          1080i / 25 fps / 16:9
AUDIO:
Codec                           Language        Bitrate         Description
-----                           --------        -------         -----------
LPCM Audio                      Undetermined    1536 kbps       2.0 / 48 kHz / 1536 kbps / 16-bit
FILES:
Name            Time In         Length          Size            Total Bitrate
----            -------         ------          ----            -------------
00000.M2TS      0:00:00.000     0:00:20.439     57 079 104      22 340
CHAPTERS:
Number          Time In         Length          Avg Video Rate  Max 1-Sec Rate  Max 1-Sec Time  Max 5-Sec Rate  Max 5-Sec Time  Max 10Sec Rate  Max 10Sec Time  Avg Frame Size  Max Frame Size  Max Frame Time
------          -------         ------          --------------  --------------  --------------  --------------  --------------  --------------  --------------  --------------  --------------  --------------
1               0:00:00.000     0:00:20.439     21 045 kbps     26 923 kbps     00:00:10.080    23 551 kbps     00:00:14.839    22 179 kbps     00:00:09.920    105 226 bytes   704 748 bytes   00:00:02.920
STREAM DIAGNOSTICS:
File            PID             Type            Codec           Language                Seconds                 Bitrate                 Bytes           Packets
----            ---             ----            -----           --------                --------------          --------------          -------------   -----
00000.M2TS      4113 (0x1011)   0x02            MPEG-2                                  20,400                  21 109                  53 826 816      292 837
00000.M2TS      4352 (0x1100)   0x80            LPCM            und (Undetermined)      20,400                  242                     616 960         3 840
<---- END FORUMS PASTE ---->
QUICK SUMMARY:
Disc Title: Disc 1
Disc Size: 15 960 967 786 bytes
Protection: AACS
BD-Java: No
Playlist: 01000.MPLS
Size: 57 079 104 bytes
Length: 0:00:20.439
Total Bitrate: 22,34 Mbps
Video: MPEG-2 Video / 21045 kbps / 1080i / 25 fps / 16:9
Audio: Undetermined / LPCM Audio / 2.0 / 48 kHz / 1536 kbps / 16-bit

BDInfo CD 2

Disc Title: Disc 2
Disc Size: 24 629 257 217 bytes
Protection: AACS
BD-Java: No
Extras: 50Hz Content
BDInfo: 0.5.8
Notes:
BDINFO HOME:
Cinema Squid
http://www.cinemasquid.com/blu-ray/tools/bdinfo
INCLUDES FORUMS REPORT FOR:
AVS Forum Blu-ray Audio and Video Specifications Thread
http://www.avsforum.com/avs-vb/showthread.php?t=1155731
********************
PLAYLIST: 01001.MPLS
********************
<--- BEGIN FORUMS PASTE --->
Total   Video
Title                                                           Codec   Length  Movie Size      Disc Size       Bitrate Bitrate Main Audio Track                          Secondary Audio Track
-----                                                           ------  ------- --------------  --------------  ------- ------- ------------------                        ---------------------
01001.MPLS                                                      AVC     1:46:58 24 090 605 568  24 629 257 217  30,03   27,99   DD AC3 2.0 192Kbps
DISC INFO:
Disc Title:     Disc 2
Disc Size:      24 629 257 217 bytes
Protection:     AACS
BD-Java:        No
Extras:         50Hz Content
BDInfo:         0.5.8
PLAYLIST REPORT:
Name:                   01001.MPLS
Length:                 1:46:58.551 (h:m:s.ms)
Size:                   24 090 605 568 bytes
Total Bitrate:          30,03 Mbps
VIDEO:
Codec                   Bitrate             Description
-----                   -------             -----------
MPEG-4 AVC Video        27994 kbps          1080i / 29,970 fps / 16:9 / Main Profile 4.1
AUDIO:
Codec                           Language        Bitrate         Description
-----                           --------        -------         -----------
Dolby Digital Audio             German          192 kbps        2.0 / 48 kHz / 192 kbps
Dolby Digital Audio             English         448 kbps        5.1 / 48 kHz / 448 kbps
FILES:
Name            Time In         Length          Size            Total Bitrate
----            -------         ------          ----            -------------
00002.M2TS      0:00:00.000     1:46:57.511     24 090 322 944  30 031
00003.M2TS      1:46:57.511     0:00:01.040     282 624         2 174
CHAPTERS:
Number          Time In         Length          Avg Video Rate  Max 1-Sec Rate  Max 1-Sec Time  Max 5-Sec Rate  Max 5-Sec Time  Max 10Sec Rate  Max 10Sec Time  Avg Frame Size  Max Frame Size  Max Frame Time
------          -------         ------          --------------  --------------  --------------  --------------  --------------  --------------  --------------  --------------  --------------  --------------
1               0:00:00.000     0:05:03.970     27 277 kbps     51 185 kbps     00:01:31.424    38 077 kbps     00:03:21.201    36 362 kbps     00:01:33.693    113 757 bytes   429 577 bytes   00:01:33.927
2               0:05:03.970     0:23:48.326     28 205 kbps     50 985 kbps     00:05:27.160    37 403 kbps     00:12:51.103    36 374 kbps     00:12:45.965    117 638 bytes   476 018 bytes   00:13:52.498
3               0:28:52.297     0:04:20.393     27 499 kbps     46 065 kbps     00:32:57.976    36 225 kbps     00:29:02.307    32 657 kbps     00:29:00.205    114 692 bytes   469 969 bytes   00:29:21.860
4               0:33:12.690     0:11:16.876     27 504 kbps     50 660 kbps     00:33:46.024    37 493 kbps     00:34:23.995    36 011 kbps     00:34:24.128    114 716 bytes   459 753 bytes   00:38:11.222
5               0:44:29.566     0:14:41.180     28 498 kbps     46 880 kbps     00:58:57.467    38 071 kbps     00:58:57.467    36 056 kbps     00:45:52.249    118 862 bytes   593 473 bytes   00:46:48.772
6               0:59:10.747     0:06:28.321     27 635 kbps     49 708 kbps     00:59:21.858    36 773 kbps     00:59:52.689    35 033 kbps     00:59:49.619    115 259 bytes   500 043 bytes   01:03:02.578
7               1:05:39.068     0:02:25.178     25 801 kbps     50 327 kbps     01:05:46.075    37 721 kbps     01:05:45.942    36 239 kbps     01:05:46.142    107 613 bytes   440 081 bytes   01:05:46.409
8               1:08:04.246     0:06:30.189     28 992 kbps     48 237 kbps     01:09:14.383    37 099 kbps     01:08:28.204    36 084 kbps     01:09:19.889    120 921 bytes   438 268 bytes   01:11:15.404
9               1:14:34.436     0:05:08.207     28 099 kbps     47 651 kbps     01:15:22.184    36 845 kbps     01:15:04.433    35 974 kbps     01:15:04.399    117 195 bytes   455 404 bytes   01:17:56.405
10              1:19:42.644     0:07:14.133     28 012 kbps     46 652 kbps     01:26:08.563    37 039 kbps     01:20:20.382    35 604 kbps     01:20:20.315    116 833 bytes   378 372 bytes   01:24:28.363
11              1:26:56.778     0:10:34.500     27 977 kbps     46 741 kbps     01:37:17.832    37 092 kbps     01:37:08.956    36 029 kbps     01:27:04.085    116 688 bytes   485 245 bytes   01:27:40.455
12              1:37:31.278     0:09:19.792     28 014 kbps     46 515 kbps     01:45:35.195    37 400 kbps     01:38:00.241    36 420 kbps     01:38:26.634    116 842 bytes   408 139 bytes   01:37:37.585
13              1:46:51.071     0:00:06.439     26 109 kbps     43 292 kbps     01:46:53.640    30 267 kbps     01:46:52.105    0 kbps          00:00:00.000    108 894 bytes   314 941 bytes   01:46:54.207
14              1:46:57.511     0:00:01.039     54 kbps         56 kbps         01:46:57.511    0 kbps          00:00:00.000    0 kbps          00:00:00.000    279 bytes       782 bytes       01:46:58.111
STREAM DIAGNOSTICS:
File            PID             Type            Codec           Language                Seconds                 Bitrate                 Bytes           Packets
----            ---             ----            -----           --------                --------------          --------------          -------------   -----
00002.M2TS      4113 (0x1011)   0x1B            AVC                                     6417,378                27 999                  22 459 912 404  122 176 773
00002.M2TS      4352 (0x1100)   0x81            AC3             deu (German)            6417,378                192                     154 032 384     1 002 815
00002.M2TS      4353 (0x1101)   0x81            AC3             eng (English)           6417,378                448                     359 408 528     2 005 628
00003.M2TS      4113 (0x1011)   0x1B            AVC                                     0,960                   65                      7 752           50
00003.M2TS      4352 (0x1100)   0x86            DTS-HD MA       deu (German)            0,960                   870                     104 448         672
00003.M2TS      4353 (0x1101)   0x86            DTS-HD MA       eng (English)           0,960                   870                     104 448         672
<---- END FORUMS PASTE ---->
QUICK SUMMARY:
Disc Title: Disc 2
Disc Size: 24 629 257 217 bytes
Protection: AACS
BD-Java: No
Playlist: 01001.MPLS
Size: 24 090 605 568 bytes
Length: 1:46:58.551
Total Bitrate: 30,03 Mbps
Video: MPEG-4 AVC Video / 27994 kbps / 1080i / 29,970 fps / 16:9 / Main Profile 4.1
Audio: German / Dolby Digital Audio / 2.0 / 48 kHz / 192 kbps
Audio: English / Dolby Digital Audio / 5.1 / 48 kHz / 448 kbps
********************
PLAYLIST: 00002.MPLS
********************
<--- BEGIN FORUMS PASTE --->
Total   Video
Title                                                           Codec   Length  Movie Size      Disc Size       Bitrate Bitrate Main Audio Track                          Secondary Audio Track
-----                                                           ------  ------- --------------  --------------  ------- ------- ------------------                        ---------------------
00002.MPLS                                                      AVC     1:46:57 24 090 322 944  24 629 257 217  30,03   28,00   DD AC3 2.0 192Kbps
DISC INFO:
Disc Title:     Disc 2
Disc Size:      24 629 257 217 bytes
Protection:     AACS
BD-Java:        No
Extras:         50Hz Content
BDInfo:         0.5.8
PLAYLIST REPORT:
Name:                   00002.MPLS
Length:                 1:46:57.511 (h:m:s.ms)
Size:                   24 090 322 944 bytes
Total Bitrate:          30,03 Mbps
VIDEO:
Codec                   Bitrate             Description
-----                   -------             -----------
MPEG-4 AVC Video        27998 kbps          1080i / 29,970 fps / 16:9 / Main Profile 4.1
AUDIO:
Codec                           Language        Bitrate         Description
-----                           --------        -------         -----------
Dolby Digital Audio             German          192 kbps        2.0 / 48 kHz / 192 kbps
Dolby Digital Audio             English         448 kbps        5.1 / 48 kHz / 448 kbps
FILES:
Name            Time In         Length          Size            Total Bitrate
----            -------         ------          ----            -------------
00002.M2TS      0:00:00.000     1:46:57.511     24 090 322 944  30 031
CHAPTERS:
Number          Time In         Length          Avg Video Rate  Max 1-Sec Rate  Max 1-Sec Time  Max 5-Sec Rate  Max 5-Sec Time  Max 10Sec Rate  Max 10Sec Time  Avg Frame Size  Max Frame Size  Max Frame Time
------          -------         ------          --------------  --------------  --------------  --------------  --------------  --------------  --------------  --------------  --------------  --------------
1               0:00:00.000     1:46:57.511     27 998 kbps     51 185 kbps     00:01:31.424    38 153 kbps     00:05:00.400    36 420 kbps     01:38:26.634    116 776 bytes   593 473 bytes   00:46:48.772
STREAM DIAGNOSTICS:
File            PID             Type            Codec           Language                Seconds                 Bitrate                 Bytes           Packets
----            ---             ----            -----           --------                --------------          --------------          -------------   -----
00002.M2TS      4113 (0x1011)   0x1B            AVC                                     6417,378                27 999                  22 459 912 404  122 176 773
00002.M2TS      4352 (0x1100)   0x81            AC3             deu (German)            6417,378                192                     154 032 384     1 002 815
00002.M2TS      4353 (0x1101)   0x81            AC3             eng (English)           6417,378                448                     359 408 528     2 005 628
<---- END FORUMS PASTE ---->
QUICK SUMMARY:
Disc Title: Disc 2
Disc Size: 24 629 257 217 bytes
Protection: AACS
BD-Java: No
Playlist: 00002.MPLS
Size: 24 090 322 944 bytes
Length: 1:46:57.511
Total Bitrate: 30,03 Mbps
Video: MPEG-4 AVC Video / 27998 kbps / 1080i / 29,970 fps / 16:9 / Main Profile 4.1
Audio: German / Dolby Digital Audio / 2.0 / 48 kHz / 192 kbps
Audio: English / Dolby Digital Audio / 5.1 / 48 kHz / 448 kbps
********************
PLAYLIST: 00001.MPLS
********************
<--- BEGIN FORUMS PASTE --->
Total   Video
Title                                                           Codec   Length  Movie Size      Disc Size       Bitrate Bitrate Main Audio Track                          Secondary Audio Track
-----                                                           ------  ------- --------------  --------------  ------- ------- ------------------                        ---------------------
00001.MPLS                                                      MPEG-2  0:01:42 382 499 904     24 629 257 217  29,72   24,85   LPCM 2.0 1536Kbps (48kHz/16-bit)
DISC INFO:
Disc Title:     Disc 2
Disc Size:      24 629 257 217 bytes
Protection:     AACS
BD-Java:        No
Extras:         50Hz Content
BDInfo:         0.5.8
PLAYLIST REPORT:
Name:                   00001.MPLS
Length:                 0:01:42.969 (h:m:s.ms)
Size:                   382 499 904 bytes
Total Bitrate:          29,72 Mbps
VIDEO:
Codec                   Bitrate             Description
-----                   -------             -----------
MPEG-2 Video            24852 kbps          1080i / 29,970 fps / 16:9
AUDIO:
Codec                           Language        Bitrate         Description
-----                           --------        -------         -----------
LPCM Audio                      German          1536 kbps       2.0 / 48 kHz / 1536 kbps / 16-bit
LPCM Audio                      English         1536 kbps       2.0 / 48 kHz / 1536 kbps / 16-bit
FILES:
Name            Time In         Length          Size            Total Bitrate
----            -------         ------          ----            -------------
00001.M2TS      0:00:00.000     0:01:42.969     382 499 904     29 718
CHAPTERS:
Number          Time In         Length          Avg Video Rate  Max 1-Sec Rate  Max 1-Sec Time  Max 5-Sec Rate  Max 5-Sec Time  Max 10Sec Rate  Max 10Sec Time  Avg Frame Size  Max Frame Size  Max Frame Time
------          -------         ------          --------------  --------------  --------------  --------------  --------------  --------------  --------------  --------------  --------------  --------------
1               0:00:00.000     0:01:42.969     24 852 kbps     31 827 kbps     00:01:17.477    28 144 kbps     00:00:27.694    27 168 kbps     00:00:25.759    103 654 bytes   686 146 bytes   00:00:19.452
STREAM DIAGNOSTICS:
File            PID             Type            Codec           Language                Seconds                 Bitrate                 Bytes           Packets
----            ---             ----            -----           --------                --------------          --------------          -------------   -----
00001.M2TS      4113 (0x1011)   0x02            MPEG-2                                  103,003                 24 849                  319 935 237     1 740 594
00001.M2TS      4352 (0x1100)   0x80            LPCM            deu (German)            103,003                 1 543                   19 866 112      123 648
00001.M2TS      4353 (0x1101)   0x80            LPCM            eng (English)           103,003                 1 543                   19 866 112      123 648
<---- END FORUMS PASTE ---->
QUICK SUMMARY:
Disc Title: Disc 2
Disc Size: 24 629 257 217 bytes
Protection: AACS
BD-Java: No
Playlist: 00001.MPLS
Size: 382 499 904 bytes
Length: 0:01:42.969
Total Bitrate: 29,72 Mbps
Video: MPEG-2 Video / 24852 kbps / 1080i / 29,970 fps / 16:9
Audio: German / LPCM Audio / 2.0 / 48 kHz / 1536 kbps / 16-bit
Audio: English / LPCM Audio / 2.0 / 48 kHz / 1536 kbps / 16-bit
********************
PLAYLIST: 01002.MPLS
********************
<--- BEGIN FORUMS PASTE --->
Total   Video
Title                                                           Codec   Length  Movie Size      Disc Size       Bitrate Bitrate Main Audio Track                          Secondary Audio Track
-----                                                           ------  ------- --------------  --------------  ------- ------- ------------------                        ---------------------
01002.MPLS                                                      MPEG-2  0:01:42 382 499 904     24 629 257 217  29,72   24,85   LPCM 2.0 1536Kbps (48kHz/16-bit)
DISC INFO:
Disc Title:     Disc 2
Disc Size:      24 629 257 217 bytes
Protection:     AACS
BD-Java:        No
Extras:         50Hz Content
BDInfo:         0.5.8
PLAYLIST REPORT:
Name:                   01002.MPLS
Length:                 0:01:42.969 (h:m:s.ms)
Size:                   382 499 904 bytes
Total Bitrate:          29,72 Mbps
VIDEO:
Codec                   Bitrate             Description
-----                   -------             -----------
MPEG-2 Video            24852 kbps          1080i / 29,970 fps / 16:9
AUDIO:
Codec                           Language        Bitrate         Description
-----                           --------        -------         -----------
LPCM Audio                      German          1536 kbps       2.0 / 48 kHz / 1536 kbps / 16-bit
LPCM Audio                      English         1536 kbps       2.0 / 48 kHz / 1536 kbps / 16-bit
FILES:
Name            Time In         Length          Size            Total Bitrate
----            -------         ------          ----            -------------
00001.M2TS      0:00:00.000     0:01:42.969     382 499 904     29 718
CHAPTERS:
Number          Time In         Length          Avg Video Rate  Max 1-Sec Rate  Max 1-Sec Time  Max 5-Sec Rate  Max 5-Sec Time  Max 10Sec Rate  Max 10Sec Time  Avg Frame Size  Max Frame Size  Max Frame Time
------          -------         ------          --------------  --------------  --------------  --------------  --------------  --------------  --------------  --------------  --------------  --------------
1               0:00:00.000     0:01:42.969     24 852 kbps     31 827 kbps     00:01:17.477    28 144 kbps     00:00:27.694    27 168 kbps     00:00:25.759    103 654 bytes   686 146 bytes   00:00:19.452
STREAM DIAGNOSTICS:
File            PID             Type            Codec           Language                Seconds                 Bitrate                 Bytes           Packets
----            ---             ----            -----           --------                --------------          --------------          -------------   -----
00001.M2TS      4113 (0x1011)   0x02            MPEG-2                                  103,003                 24 849                  319 935 237     1 740 594
00001.M2TS      4352 (0x1100)   0x80            LPCM            deu (German)            103,003                 1 543                   19 866 112      123 648
00001.M2TS      4353 (0x1101)   0x80            LPCM            eng (English)           103,003                 1 543                   19 866 112      123 648
<---- END FORUMS PASTE ---->
QUICK SUMMARY:
Disc Title: Disc 2
Disc Size: 24 629 257 217 bytes
Protection: AACS
BD-Java: No
Playlist: 01002.MPLS
Size: 382 499 904 bytes
Length: 0:01:42.969
Total Bitrate: 29,72 Mbps
Video: MPEG-2 Video / 24852 kbps / 1080i / 29,970 fps / 16:9
Audio: German / LPCM Audio / 2.0 / 48 kHz / 1536 kbps / 16-bit
Audio: English / LPCM Audio / 2.0 / 48 kHz / 1536 kbps / 16-bit
********************
PLAYLIST: 00004.MPLS
********************
<--- BEGIN FORUMS PASTE --->
Total   Video
Title                                                           Codec   Length  Movie Size      Disc Size       Bitrate Bitrate Main Audio Track                          Secondary Audio Track
-----                                                           ------  ------- --------------  --------------  ------- ------- ------------------                        ---------------------
00004.MPLS                                                      MPEG-2  0:00:29 82 862 016      24 629 257 217  22,14   21,13
DISC INFO:
Disc Title:     Disc 2
Disc Size:      24 629 257 217 bytes
Protection:     AACS
BD-Java:        No
Extras:         50Hz Content
BDInfo:         0.5.8
PLAYLIST REPORT:
Name:                   00004.MPLS
Length:                 0:00:29.946 (h:m:s.ms)
Size:                   82 862 016 bytes
Total Bitrate:          22,14 Mbps
VIDEO:
Codec                   Bitrate             Description
-----                   -------             -----------
MPEG-2 Video            21130 kbps          1080p / 23,976 fps / 16:9
FILES:
Name            Time In         Length          Size            Total Bitrate
----            -------         ------          ----            -------------
00004.M2TS      0:00:00.000     0:00:29.946     82 862 016      22 136
CHAPTERS:
Number          Time In         Length          Avg Video Rate  Max 1-Sec Rate  Max 1-Sec Time  Max 5-Sec Rate  Max 5-Sec Time  Max 10Sec Rate  Max 10Sec Time  Avg Frame Size  Max Frame Size  Max Frame Time
------          -------         ------          --------------  --------------  --------------  --------------  --------------  --------------  --------------  --------------  --------------  --------------
1               0:00:00.000     0:00:29.946     21 130 kbps     23 763 kbps     00:00:10.802    22 010 kbps     00:00:10.719    22 010 kbps     00:00:10.719    110 162 bytes   603 217 bytes   00:00:01.167
STREAM DIAGNOSTICS:
File            PID             Type            Codec           Language                Seconds                 Bitrate                 Bytes           Packets
----            ---             ----            -----           --------                --------------          --------------          -------------   -----
00004.M2TS      4113 (0x1011)   0x02            MPEG-2                                  29,905                  21 294                  79 597 729      432 965
<---- END FORUMS PASTE ---->
QUICK SUMMARY:
Disc Title: Disc 2
Disc Size: 24 629 257 217 bytes
Protection: AACS
BD-Java: No
Playlist: 00004.MPLS
Size: 82 862 016 bytes
Length: 0:00:29.946
Total Bitrate: 22,14 Mbps
Video: MPEG-2 Video / 21130 kbps / 1080p / 23,976 fps / 16:9
********************
PLAYLIST: 01007.MPLS
********************
<--- BEGIN FORUMS PASTE --->
Total   Video
Title                                                           Codec   Length  Movie Size      Disc Size       Bitrate Bitrate Main Audio Track                          Secondary Audio Track
-----                                                           ------  ------- --------------  --------------  ------- ------- ------------------                        ---------------------
01007.MPLS                                                      MPEG-2  0:00:29 82 862 016      24 629 257 217  22,14   21,13
DISC INFO:
Disc Title:     Disc 2
Disc Size:      24 629 257 217 bytes
Protection:     AACS
BD-Java:        No
Extras:         50Hz Content
BDInfo:         0.5.8
PLAYLIST REPORT:
Name:                   01007.MPLS
Length:                 0:00:29.946 (h:m:s.ms)
Size:                   82 862 016 bytes
Total Bitrate:          22,14 Mbps
VIDEO:
Codec                   Bitrate             Description
-----                   -------             -----------
MPEG-2 Video            21130 kbps          1080p / 23,976 fps / 16:9
FILES:
Name            Time In         Length          Size            Total Bitrate
----            -------         ------          ----            -------------
00004.M2TS      0:00:00.000     0:00:29.946     82 862 016      22 136
CHAPTERS:
Number          Time In         Length          Avg Video Rate  Max 1-Sec Rate  Max 1-Sec Time  Max 5-Sec Rate  Max 5-Sec Time  Max 10Sec Rate  Max 10Sec Time  Avg Frame Size  Max Frame Size  Max Frame Time
------          -------         ------          --------------  --------------  --------------  --------------  --------------  --------------  --------------  --------------  --------------  --------------
1               0:00:00.000     0:00:29.946     21 130 kbps     23 763 kbps     00:00:10.802    22 010 kbps     00:00:10.719    22 010 kbps     00:00:10.719    110 162 bytes   603 217 bytes   00:00:01.167
STREAM DIAGNOSTICS:
File            PID             Type            Codec           Language                Seconds                 Bitrate                 Bytes           Packets
----            ---             ----            -----           --------                --------------          --------------          -------------   -----
00004.M2TS      4113 (0x1011)   0x02            MPEG-2                                  29,905                  21 294                  79 597 729      432 965
<---- END FORUMS PASTE ---->
QUICK SUMMARY:
Disc Title: Disc 2
Disc Size: 24 629 257 217 bytes
Protection: AACS
BD-Java: No
Playlist: 01007.MPLS
Size: 82 862 016 bytes
Length: 0:00:29.946
Total Bitrate: 22,14 Mbps
Video: MPEG-2 Video / 21130 kbps / 1080p / 23,976 fps / 16:9
********************
PLAYLIST: 00000.MPLS
********************
<--- BEGIN FORUMS PASTE --->
Total   Video
Title                                                           Codec   Length  Movie Size      Disc Size       Bitrate Bitrate Main Audio Track                          Secondary Audio Track
-----                                                           ------  ------- --------------  --------------  ------- ------- ------------------                        ---------------------
00000.MPLS                                                      MPEG-2  0:00:20 57 079 104      24 629 257 217  22,34   21,05   LPCM 2.0 1536Kbps (48kHz/16-bit)
DISC INFO:
Disc Title:     Disc 2
Disc Size:      24 629 257 217 bytes
Protection:     AACS
BD-Java:        No
Extras:         50Hz Content
BDInfo:         0.5.8
PLAYLIST REPORT:
Name:                   00000.MPLS
Length:                 0:00:20.439 (h:m:s.ms)
Size:                   57 079 104 bytes
Total Bitrate:          22,34 Mbps
VIDEO:
Codec                   Bitrate             Description
-----                   -------             -----------
MPEG-2 Video            21045 kbps          1080i / 25 fps / 16:9
AUDIO:
Codec                           Language        Bitrate         Description
-----                           --------        -------         -----------
LPCM Audio                      Undetermined    1536 kbps       2.0 / 48 kHz / 1536 kbps / 16-bit
FILES:
Name            Time In         Length          Size            Total Bitrate
----            -------         ------          ----            -------------
00000.M2TS      0:00:00.000     0:00:20.439     57 079 104      22 340
CHAPTERS:
Number          Time In         Length          Avg Video Rate  Max 1-Sec Rate  Max 1-Sec Time  Max 5-Sec Rate  Max 5-Sec Time  Max 10Sec Rate  Max 10Sec Time  Avg Frame Size  Max Frame Size  Max Frame Time
------          -------         ------          --------------  --------------  --------------  --------------  --------------  --------------  --------------  --------------  --------------  --------------
1               0:00:00.000     0:00:20.439     21 045 kbps     26 923 kbps     00:00:10.080    23 551 kbps     00:00:14.839    22 179 kbps     00:00:09.920    105 226 bytes   704 748 bytes   00:00:02.920
STREAM DIAGNOSTICS:
File            PID             Type            Codec           Language                Seconds                 Bitrate                 Bytes           Packets
----            ---             ----            -----           --------                --------------          --------------          -------------   -----
00000.M2TS      4113 (0x1011)   0x02            MPEG-2                                  20,400                  21 109                  53 826 816      292 837
00000.M2TS      4352 (0x1100)   0x80            LPCM            und (Undetermined)      20,400                  242                     616 960         3 840
<---- END FORUMS PASTE ---->
QUICK SUMMARY:
Disc Title: Disc 2
Disc Size: 24 629 257 217 bytes
Protection: AACS
BD-Java: No
Playlist: 00000.MPLS
Size: 57 079 104 bytes
Length: 0:00:20.439
Total Bitrate: 22,34 Mbps
Video: MPEG-2 Video / 21045 kbps / 1080i / 25 fps / 16:9
Audio: Undetermined / LPCM Audio / 2.0 / 48 kHz / 1536 kbps / 16-bit
********************
PLAYLIST: 01000.MPLS
********************
<--- BEGIN FORUMS PASTE --->
Total   Video
Title                                                           Codec   Length  Movie Size      Disc Size       Bitrate Bitrate Main Audio Track                          Secondary Audio Track
-----                                                           ------  ------- --------------  --------------  ------- ------- ------------------                        ---------------------
01000.MPLS                                                      MPEG-2  0:00:20 57 079 104      24 629 257 217  22,34   21,05   LPCM 2.0 1536Kbps (48kHz/16-bit)
DISC INFO:
Disc Title:     Disc 2
Disc Size:      24 629 257 217 bytes
Protection:     AACS
BD-Java:        No
Extras:         50Hz Content
BDInfo:         0.5.8
PLAYLIST REPORT:
Name:                   01000.MPLS
Length:                 0:00:20.439 (h:m:s.ms)
Size:                   57 079 104 bytes
Total Bitrate:          22,34 Mbps
VIDEO:
Codec                   Bitrate             Description
-----                   -------             -----------
MPEG-2 Video            21045 kbps          1080i / 25 fps / 16:9
AUDIO:
Codec                           Language        Bitrate         Description
-----                           --------        -------         -----------
LPCM Audio                      Undetermined    1536 kbps       2.0 / 48 kHz / 1536 kbps / 16-bit
FILES:
Name            Time In         Length          Size            Total Bitrate
----            -------         ------          ----            -------------
00000.M2TS      0:00:00.000     0:00:20.439     57 079 104      22 340
CHAPTERS:
Number          Time In         Length          Avg Video Rate  Max 1-Sec Rate  Max 1-Sec Time  Max 5-Sec Rate  Max 5-Sec Time  Max 10Sec Rate  Max 10Sec Time  Avg Frame Size  Max Frame Size  Max Frame Time
------          -------         ------          --------------  --------------  --------------  --------------  --------------  --------------  --------------  --------------  --------------  --------------
1               0:00:00.000     0:00:20.439     21 045 kbps     26 923 kbps     00:00:10.080    23 551 kbps     00:00:14.839    22 179 kbps     00:00:09.920    105 226 bytes   704 748 bytes   00:00:02.920
STREAM DIAGNOSTICS:
File            PID             Type            Codec           Language                Seconds                 Bitrate                 Bytes           Packets
----            ---             ----            -----           --------                --------------          --------------          -------------   -----
00000.M2TS      4113 (0x1011)   0x02            MPEG-2                                  20,400                  21 109                  53 826 816      292 837
00000.M2TS      4352 (0x1100)   0x80            LPCM            und (Undetermined)      20,400                  242                     616 960         3 840
<---- END FORUMS PASTE ---->
QUICK SUMMARY:
Disc Title: Disc 2
Disc Size: 24 629 257 217 bytes
Protection: AACS
BD-Java: No
Playlist: 01000.MPLS
Size: 57 079 104 bytes
Length: 0:00:20.439
Total Bitrate: 22,34 Mbps
Video: MPEG-2 Video / 21045 kbps / 1080i / 25 fps / 16:9
Audio: Undetermined / LPCM Audio / 2.0 / 48 kHz / 1536 kbps / 16-bit
--Не забываем говорить
[Профиль] [ЛС]
Кто просматривает тему:

Показать сообщения:    

Текущее время: Сегодня 07:13

Часовой пояс: GMT



Вы не можете начинать темы
Вы не можете отвечать на сообщения
Вы не можете редактировать свои сообщения
Вы не можете удалять свои сообщения
Вы не можете голосовать в опросах
Вы не можете прикреплять файлы к сообщениям
Вы не можете скачивать файлы