(Art Rock, Progressive Rock)The Alan Parsons Project - Complete Albums Collection (11CD Box Set RCA Records) - 2014 [FLAC, image +.cue, lossless]

 
Автор Сообщение

sergej644 ®

Пол:

Стаж: 4 года 11 месяцев

Сообщений: 6040

Откуда: Soviet Union



Награды: Нет

Торрент-статистика

Создавать темы 13-Авг-2016 22:13

[Цитировать]

--The Alan Parsons Project - Complete Albums Collection (11CD Box Set RCA Records)
Год издания: 2014
Страна: UK
Жанр: Art Rock, Progressive Rock
Продолжительность: 07:24:55-Лейбл издания: RCA Records
Страна-выпуска диска: EU
Номер по каталогу: 88697890552-Формат: FLAC
Битрейт аудио: Lossless
Тип рипа: image +.cue
Наличие сканов в содержимом раздачи: да
-

1976 - Tales Of Mystery And Imagination | 00:42:41

01. A Dream Within A Dream (Instrumental) (4:14)
02. The Raven (3:58)
03. The Tell-Tale Heart (4:39)
04. The Cask Of Amontillado (4:33)
05. (The System Of) Doctor Tarr And Professor Fether (4:21)
06. The Fall Of The House Of Usher: I. Prelude (7:03)
07. The Fall Of The House Of Usher: II. Arrival (2:40)
08. The Fall Of The House Of Usher: III. Intermezzo (1:00)
09. The Fall Of The House Of Usher: IV. Pavane (4:36)
10. The Fall Of The House Of Usher: V. Fall (0:51)
11. To One In Paradise (4:47)

Лог создания рипа

Exact Audio Copy V1.0 beta 3 from 29. August 2011
EAC extraction logfile from 6. April 2014, 17:21
Alan Parsons Project / Tales Of Mystery And Imagination
Used drive  : PLEXTOR BD-R  PX-B950SA   Adapter: 6  ID: 0
Read mode               : Secure
Utilize accurate stream : Yes
Defeat audio cache      : Yes
Make use of C2 pointers : No
Read offset correction                      : 6
Overread into Lead-In and Lead-Out          : No
Fill up missing offset samples with silence : Yes
Delete leading and trailing silent blocks   : No
Null samples used in CRC calculations       : Yes
Used interface                              : Native Win32 interface for Win NT & 2000
Used output format : Internal WAV Routines
Sample format      : 44.100 Hz; 16 Bit; Stereo
TOC of the extracted CD
     Track |   Start  |  Length  | Start sector | End sector
    ---------------------------------------------------------
        1  |  0:00.33 |  4:13.72 |        33    |    19079
        2  |  4:14.30 |  3:57.63 |     19080    |    36917
        3  |  8:12.18 |  4:38.55 |     36918    |    57822
        4  | 12:50.73 |  4:33.37 |     57823    |    78334
        5  | 17:24.35 |  4:20.65 |     78335    |    97899
        6  | 21:45.25 |  7:02.38 |     97900    |   129587
        7  | 28:47.63 |  2:39.47 |    129588    |   141559
        8  | 31:27.35 |  1:00.30 |    141560    |   146089
        9  | 32:27.65 |  4:36.13 |    146090    |   166802
       10  | 37:04.03 |  0:51.22 |    166803    |   170649
       11  | 37:55.25 |  4:46.45 |    170650    |   192144
Range status and errors
Selected range
     Filename C:\Users\Meijin\Desktop\Lossless Galaxy ALLexxess\Alan Parsons Project\2014 Complete Albums Collection (11CD Box Set RCA Records)\1976 Tales Of Mystery And Imagination\Alan Parsons Project - Tales Of Mystery And Imagination.wav
     Peak level 97.7 %
     Extraction speed 7.0 X
     Range quality 100.0 %
     Test CRC 9E9A51AA
     Copy CRC 9E9A51AA
     Copy OK
No errors occurred
AccurateRip summary
Track  1  accurately ripped (confidence 102)  [D31EEADE]  (AR v2)
Track  2  accurately ripped (confidence 101)  [AF1EDA12]  (AR v2)
Track  3  accurately ripped (confidence 102)  [03EF6B8C]  (AR v2)
Track  4  accurately ripped (confidence 101)  [FA6D9246]  (AR v2)
Track  5  accurately ripped (confidence 100)  [6A3239D7]  (AR v2)
Track  6  accurately ripped (confidence 100)  [C97BE116]  (AR v2)
Track  7  accurately ripped (confidence 102)  [8A3777DB]  (AR v2)
Track  8  accurately ripped (confidence 102)  [16947225]  (AR v2)
Track  9  accurately ripped (confidence 101)  [63DCB6E9]  (AR v2)
Track 10  accurately ripped (confidence 101)  [BB31914A]  (AR v2)
Track 11  accurately ripped (confidence 100)  [89775C4B]  (AR v2)
All tracks accurately ripped
End of status report

Индексная карта (non-compilant .cue)

REM GENRE "Progressive Rock"
REM DATE 1976
REM DISCID A80A010B
REM COMMENT "ExactAudioCopy v1.0b3"
CATALOG 0602537619474
PERFORMER "Alan Parsons Project"
TITLE "Tales Of Mystery And Imagination"
FILE "Range.wav" WAVE
  TRACK 01 AUDIO
    TITLE "A Dream Within A Dream (Instrumental)"
    PERFORMER "Alan Parsons Project"
    ISRC USIR20200400
    INDEX 00 00:00:00
    INDEX 01 00:00:33
  TRACK 02 AUDIO
    TITLE "The Raven"
    PERFORMER "Alan Parsons Project"
    ISRC USMR17600065
    INDEX 00 04:14:28
    INDEX 01 04:14:30
  TRACK 03 AUDIO
    TITLE "The Tell-Tale Heart"
    PERFORMER "Alan Parsons Project"
    ISRC USIR20200401
    INDEX 00 08:12:15
    INDEX 01 08:12:18
  TRACK 04 AUDIO
    TITLE "The Cask Of Amontillado"
    PERFORMER "Alan Parsons Project"
    ISRC USIR20200402
    INDEX 00 12:50:68
    INDEX 01 12:50:73
  TRACK 05 AUDIO
    TITLE "(The System Of) Doctor Tarr And Professor Fether"
    PERFORMER "Alan Parsons Project"
    ISRC USMR17600064
    INDEX 00 17:24:33
    INDEX 01 17:24:35
  TRACK 06 AUDIO
    TITLE "The Fall Of The House Of Usher: I. Prelude"
    PERFORMER "Alan Parsons Project"
    ISRC USIR20200403
    INDEX 00 21:45:23
    INDEX 01 21:45:25
  TRACK 07 AUDIO
    TITLE "The Fall Of The House Of Usher: II. Arrival"
    PERFORMER "Alan Parsons Project"
    ISRC USIR20200404
    INDEX 00 28:47:60
    INDEX 01 28:47:63
  TRACK 08 AUDIO
    TITLE "The Fall Of The House Of Usher: III. Intermezzo"
    PERFORMER "Alan Parsons Project"
    ISRC USIR20200405
    INDEX 00 31:27:33
    INDEX 01 31:27:35
  TRACK 09 AUDIO
    TITLE "The Fall Of The House Of Usher: IV. Pavane"
    PERFORMER "Alan Parsons Project"
    ISRC USIR20200406
    INDEX 00 32:27:63
    INDEX 01 32:27:65
  TRACK 10 AUDIO
    TITLE "The Fall Of The House Of Usher: V. Fall"
    PERFORMER "Alan Parsons Project"
    ISRC USIR20200407
    INDEX 00 37:04:00
    INDEX 01 37:04:03
  TRACK 11 AUDIO
    TITLE "To One In Paradise"
    PERFORMER "Alan Parsons Project"
    ISRC USIR20200408
    INDEX 00 37:55:23
    INDEX 01 37:55:25

1977 - I Robot | 00:41:17

01. I Robot (6:02)
02. I Wouldn't Want To Be Like You (3:23)
03. Some Other Time (4:06)
04. Breakdown (3:53)
05. Don't Let It Show (4:26)
06. The Voice (5:23)
07. Nucleus (3:22)
08. Day After Day (The Show Must Go On) (3:57)
09. Total Eclipse (3:12)
10. Genesis Ch.1 V.32 (3:32)

Лог создания рипа

Exact Audio Copy V1.0 beta 3 from 29. August 2011
EAC extraction logfile from 6. April 2014, 16:52
Alan Parsons Project / I Robot
Used drive  : PLEXTOR BD-R  PX-B950SA   Adapter: 6  ID: 0
Read mode               : Secure
Utilize accurate stream : Yes
Defeat audio cache      : Yes
Make use of C2 pointers : No
Read offset correction                      : 6
Overread into Lead-In and Lead-Out          : No
Fill up missing offset samples with silence : Yes
Delete leading and trailing silent blocks   : No
Null samples used in CRC calculations       : Yes
Used interface                              : Native Win32 interface for Win NT & 2000
Used output format : Internal WAV Routines
Sample format      : 44.100 Hz; 16 Bit; Stereo
TOC of the extracted CD
     Track |   Start  |  Length  | Start sector | End sector
    ---------------------------------------------------------
        1  |  0:00.00 |  6:02.37 |         0    |    27186
        2  |  6:02.37 |  3:23.26 |     27187    |    42437
        3  |  9:25.63 |  4:05.50 |     42438    |    60862
        4  | 13:31.38 |  3:53.14 |     60863    |    78351
        5  | 17:24.52 |  4:25.56 |     78352    |    98282
        6  | 21:50.33 |  5:23.06 |     98283    |   122513
        7  | 27:13.39 |  3:22.32 |    122514    |   137695
        8  | 30:35.71 |  3:57.12 |    137696    |   155482
        9  | 34:33.08 |  3:12.35 |    155483    |   169917
       10  | 37:45.43 |  3:31.68 |    169918    |   185810
Range status and errors
Selected range
     Filename C:\Users\Meijin\Desktop\Lossless Galaxy ALLexxess\Alan Parsons Project\2014 Complete Albums Collection (11CD Box Set RCA Records)\1977 I Robot\Alan Parsons Project - I Robot.wav
     Peak level 98.8 %
     Extraction speed 7.0 X
     Range quality 100.0 %
     Test CRC 70D99858
     Copy CRC 70D99858
     Copy OK
No errors occurred
AccurateRip summary
Track  1  accurately ripped (confidence 4)  [0AF93DF9]  (AR v2)
Track  2  accurately ripped (confidence 4)  [C3CB308F]  (AR v2)
Track  3  accurately ripped (confidence 4)  [97CE4C7E]  (AR v2)
Track  4  accurately ripped (confidence 4)  [83A93DB9]  (AR v2)
Track  5  accurately ripped (confidence 4)  [CFCC5DB5]  (AR v2)
Track  6  accurately ripped (confidence 4)  [686C038A]  (AR v2)
Track  7  accurately ripped (confidence 4)  [468F1641]  (AR v2)
Track  8  accurately ripped (confidence 4)  [CAB0AF78]  (AR v2)
Track  9  accurately ripped (confidence 4)  [E1E9E9FD]  (AR v2)
Track 10  accurately ripped (confidence 4)  [5181A252]  (AR v2)
All tracks accurately ripped
End of status report

Индексная карта (non-compilant .cue)

REM GENRE "Progressive Rock"
REM DATE 1977
REM DISCID 8009AD0A
REM COMMENT "ExactAudioCopy v1.0b3"
PERFORMER "Alan Parsons Project"
TITLE "I Robot"
FILE "Range.wav" WAVE
  TRACK 01 AUDIO
    TITLE " I Robot"
    PERFORMER "Alan Parsons Project"
    ISRC USAR18400134
    INDEX 01 00:00:00
  TRACK 02 AUDIO
    TITLE "I Wouldn't Want To Be Like You"
    PERFORMER "Alan Parsons Project"
    ISRC USAR19700003
    INDEX 01 06:02:37
  TRACK 03 AUDIO
    TITLE "Some Other Time"
    PERFORMER "Alan Parsons Project"
    ISRC USAR17700141
    INDEX 01 09:25:63
  TRACK 04 AUDIO
    TITLE "Breakdown"
    PERFORMER "Alan Parsons Project"
    ISRC USAR10301275
    INDEX 01 13:31:38
  TRACK 05 AUDIO
    TITLE "Don't Let It Show"
    PERFORMER "Alan Parsons Project"
    ISRC USAR19700005
    INDEX 01 17:24:52
  TRACK 06 AUDIO
    TITLE "The Voice"
    PERFORMER "Alan Parsons Project"
    ISRC USAR17700142
    INDEX 01 21:50:33
  TRACK 07 AUDIO
    TITLE "Nucleus"
    PERFORMER "Alan Parsons Project"
    ISRC USAR17700172
    INDEX 01 27:13:39
  TRACK 08 AUDIO
    TITLE "Day After Day (The Show Must Go On)"
    PERFORMER "Alan Parsons Project"
    ISRC USAR17700171
    INDEX 01 30:35:71
  TRACK 09 AUDIO
    TITLE "Total Eclipse"
    PERFORMER "Alan Parsons Project"
    ISRC USAR17700173
    INDEX 01 34:33:08
  TRACK 10 AUDIO
    TITLE "Genesis Ch.1 V.32"
    PERFORMER "Alan Parsons Project"
    ISRC USAR10001681
    INDEX 01 37:45:43

1978 - Pyramid | 00:38:00

01. Voyager (2:15)
02. What Goes Up... (3:40)
03. The Eagle Will Rise Again (4:22)
04. One More River (4:17)
05. Can't Take It With You (5:07)
06. In The Lap Of The Gods (5:31)
07. Pyramania (2:43)
08. Hyper-Gamma-Spaces (4:20)
09. Shadow Of A Lonely Man (5:45)

Лог создания рипа

Exact Audio Copy V1.0 beta 3 from 29. August 2011
EAC extraction logfile from 6. April 2014, 16:27
Alan Parsons Project / Pyramid
Used drive  : PLEXTOR BD-R  PX-B950SA   Adapter: 6  ID: 0
Read mode               : Secure
Utilize accurate stream : Yes
Defeat audio cache      : Yes
Make use of C2 pointers : No
Read offset correction                      : 6
Overread into Lead-In and Lead-Out          : No
Fill up missing offset samples with silence : Yes
Delete leading and trailing silent blocks   : No
Null samples used in CRC calculations       : Yes
Used interface                              : Native Win32 interface for Win NT & 2000
Used output format : Internal WAV Routines
Sample format      : 44.100 Hz; 16 Bit; Stereo
TOC of the extracted CD
     Track |   Start  |  Length  | Start sector | End sector
    ---------------------------------------------------------
        1  |  0:00.00 |  2:14.59 |         0    |    10108
        2  |  2:14.59 |  3:40.32 |     10109    |    26640
        3  |  5:55.16 |  4:22.25 |     26641    |    46315
        4  | 10:17.41 |  4:16.57 |     46316    |    65572
        5  | 14:34.23 |  5:06.68 |     65573    |    88590
        6  | 19:41.16 |  5:30.50 |     88591    |   113390
        7  | 25:11.66 |  2:42.74 |    113391    |   125614
        8  | 27:54.65 |  4:20.00 |    125615    |   145114
        9  | 32:14.65 |  5:44.67 |    145115    |   170981
Range status and errors
Selected range
     Filename C:\Users\Meijin\Desktop\Lossless Galaxy ALLexxess\Alan Parsons Project\2014 Complete Albums Collection (11CD Box Set RCA Records)\1978 Pyramid\Alan Parsons Project - Pyramid.wav
     Peak level 97.7 %
     Extraction speed 6.8 X
     Range quality 100.0 %
     Test CRC C6909222
     Copy CRC C6909222
     Copy OK
No errors occurred
AccurateRip summary
Track  1  accurately ripped (confidence 2)  [C5C05605]  (AR v2)
Track  2  accurately ripped (confidence 2)  [D466CBF4]  (AR v2)
Track  3  accurately ripped (confidence 2)  [CB9BA466]  (AR v2)
Track  4  accurately ripped (confidence 2)  [F8FFC910]  (AR v2)
Track  5  accurately ripped (confidence 2)  [238994E7]  (AR v2)
Track  6  accurately ripped (confidence 2)  [2306EA8B]  (AR v2)
Track  7  accurately ripped (confidence 2)  [0DB7D323]  (AR v2)
Track  8  accurately ripped (confidence 2)  [C61A0932]  (AR v2)
Track  9  accurately ripped (confidence 2)  [BAB8B9E9]  (AR v2)
All tracks accurately ripped
End of status report

Индексная карта (non-compilant .cue)

REM GENRE "Progressive Rock"
REM DATE 1978
REM DISCID 7E08E709
REM COMMENT "ExactAudioCopy v1.0b3"
PERFORMER "Alan Parsons Project"
TITLE "Pyramid"
FILE "Range.wav" WAVE
  TRACK 01 AUDIO
    TITLE "Voyager"
    PERFORMER "Alan Parsons Project"
    ISRC USAR10001678
    INDEX 01 00:00:00
  TRACK 02 AUDIO
    TITLE "What Goes Up..."
    PERFORMER "Alan Parsons Project"
    ISRC USAR19700368
    INDEX 01 02:14:59
  TRACK 03 AUDIO
    TITLE "The Eagle Will Rise Again"
    PERFORMER "Alan Parsons Project"
    ISRC USAR19700369
    INDEX 01 05:55:16
  TRACK 04 AUDIO
    TITLE "One More River"
    PERFORMER "Alan Parsons Project"
    ISRC USAR17800154
    INDEX 01 10:17:41
  TRACK 05 AUDIO
    TITLE "Can't Take It With You"
    PERFORMER "Alan Parsons Project"
    ISRC USAR19700009
    INDEX 01 14:34:23
  TRACK 06 AUDIO
    TITLE "In The Lap Of The Gods"
    PERFORMER "Alan Parsons Project"
    ISRC USAR17800153
    INDEX 01 19:41:16
  TRACK 07 AUDIO
    TITLE "Pyramania"
    PERFORMER "Alan Parsons Project"
    ISRC USAR19700010
    INDEX 01 25:11:66
  TRACK 08 AUDIO
    TITLE "Hyper-Gamma-Spaces"
    PERFORMER "Alan Parsons Project"
    ISRC USAR17800152
    INDEX 01 27:54:65
  TRACK 09 AUDIO
    TITLE "Shadow Of A Lonely Man"
    PERFORMER "Alan Parsons Project"
    ISRC USAR17800155
    INDEX 01 32:14:65

1979 - Eve | 00:39:44

01. Lucifer (5:09)
02. You Lie Down With Dogs (3:49)
03. I'd Rather Be A Man (3:54)
04. You Won't Be There (3:43)
05. Winding Me Up (3:56)
06. Damned If I Do (4:53)
07. Don't Hold Back (3:37)
08. Secret Garden (4:44)
09. If I Could Change Your Mind (6:00)

Лог создания рипа

Exact Audio Copy V1.0 beta 3 from 29. August 2011
EAC extraction logfile from 6. April 2014, 16:02
Alan Parsons Project / Eve
Used drive  : PLEXTOR BD-R  PX-B950SA   Adapter: 6  ID: 0
Read mode               : Secure
Utilize accurate stream : Yes
Defeat audio cache      : Yes
Make use of C2 pointers : No
Read offset correction                      : 6
Overread into Lead-In and Lead-Out          : No
Fill up missing offset samples with silence : Yes
Delete leading and trailing silent blocks   : No
Null samples used in CRC calculations       : Yes
Used interface                              : Native Win32 interface for Win NT & 2000
Used output format : Internal WAV Routines
Sample format      : 44.100 Hz; 16 Bit; Stereo
TOC of the extracted CD
     Track |   Start  |  Length  | Start sector | End sector
    ---------------------------------------------------------
        1  |  0:00.00 |  5:08.63 |         0    |    23162
        2  |  5:08.63 |  3:48.52 |     23163    |    40314
        3  |  8:57.40 |  3:53.50 |     40315    |    57839
        4  | 12:51.15 |  3:43.01 |     57840    |    74565
        5  | 16:34.16 |  3:55.60 |     74566    |    92250
        6  | 20:30.01 |  4:52.63 |     92251    |   114213
        7  | 25:22.64 |  3:37.30 |    114214    |   130518
        8  | 29:00.19 |  4:43.43 |    130519    |   151786
        9  | 33:43.62 |  6:00.19 |    151787    |   178805
Range status and errors
Selected range
     Filename C:\Users\Meijin\Desktop\Lossless Galaxy ALLexxess\Alan Parsons Project\2014 Complete Albums Collection (11CD Box Set RCA Records)\1979 Eve\Alan Parsons Project - Eve.wav
     Peak level 97.7 %
     Extraction speed 6.8 X
     Range quality 99.9 %
     Test CRC 648CB8F8
     Copy CRC 648CB8F8
     Copy OK
No errors occurred
AccurateRip summary
Track  1  accurately ripped (confidence 2)  [4B45F687]  (AR v2)
Track  2  accurately ripped (confidence 2)  [E1D35999]  (AR v2)
Track  3  accurately ripped (confidence 2)  [ABCC576C]  (AR v2)
Track  4  accurately ripped (confidence 2)  [B16C26D1]  (AR v2)
Track  5  accurately ripped (confidence 2)  [341CC216]  (AR v2)
Track  6  accurately ripped (confidence 2)  [CBE1B4DB]  (AR v2)
Track  7  accurately ripped (confidence 2)  [7600F845]  (AR v2)
Track  8  accurately ripped (confidence 2)  [3C612018]  (AR v2)
Track  9  accurately ripped (confidence 2)  [C15B8293]  (AR v2)
All tracks accurately ripped
End of status report

Индексная карта (non-compilant .cue)

REM GENRE "Progressive Rock"
REM DATE 1979
REM DISCID 6B095009
REM COMMENT "ExactAudioCopy v1.0b3"
PERFORMER "Alan Parsons Project"
TITLE "Eve"
FILE "Range.wav" WAVE
  TRACK 01 AUDIO
    TITLE "Lucifer"
    PERFORMER "Alan Parsons Project"
    ISRC USAR19700011
    INDEX 01 00:00:00
  TRACK 02 AUDIO
    TITLE "You Lie Down With Dogs"
    PERFORMER "Alan Parsons Project"
    ISRC USAR17900172
    INDEX 01 05:08:63
  TRACK 03 AUDIO
    TITLE "I'd Rather Be A Man"
    PERFORMER "Alan Parsons Project"
    ISRC USAR17900173
    INDEX 01 08:57:40
  TRACK 04 AUDIO
    TITLE "You Won't Be There"
    PERFORMER "Alan Parsons Project"
    ISRC USAR17900174
    INDEX 01 12:51:15
  TRACK 05 AUDIO
    TITLE "Winding Me Up"
    PERFORMER "Alan Parsons Project"
    ISRC USAR17900175
    INDEX 01 16:34:16
  TRACK 06 AUDIO
    TITLE "Damned If I Do"
    PERFORMER "Alan Parsons Project"
    ISRC USAR19700012
    INDEX 01 20:30:01
  TRACK 07 AUDIO
    TITLE "Don't Hold Back"
    PERFORMER "Alan Parsons Project"
    ISRC USAR17900176
    INDEX 01 25:22:64
  TRACK 08 AUDIO
    TITLE "Secret Garden"
    PERFORMER "Alan Parsons Project"
    ISRC USAR17900177
    INDEX 01 29:00:19
  TRACK 09 AUDIO
    TITLE "If I Could Change Your Mind"
    PERFORMER "Alan Parsons Project"
    ISRC USAR19700013
    INDEX 01 33:43:62

1980 - The Turn Of A Friendly Card | 00:40:35

01. May Be A Price To Pay (5:01)
02. Games People Play (4:24)
03. Time (5:15)
04. I Don't Wanna Go Home (4:52)
05. The Gold Bug (4:34)
06. The Turn Of A Friendly Card: I. The Turn Of A Friendly Card (Part One) (2:45)
07. The Turn Of A Friendly Card: II. Snake Eyes (3:16)
08. The Turn Of A Friendly Card: III. The Ace Of Swords (2:59)
09. The Turn Of A Friendly Card: IV. Nothing Left To Lose (4:07)
10. The Turn Of A Friendly Card: V. The Turn Of A Friendly Card (Part Two) (3:22)

Лог создания рипа

Exact Audio Copy V1.0 beta 3 from 29. August 2011
EAC extraction logfile from 6. April 2014, 12:44
Alan Parsons Project / The Turn Of A Friendly Card
Used drive  : PLEXTOR BD-R  PX-B950SA   Adapter: 6  ID: 0
Read mode               : Secure
Utilize accurate stream : Yes
Defeat audio cache      : Yes
Make use of C2 pointers : No
Read offset correction                      : 6
Overread into Lead-In and Lead-Out          : No
Fill up missing offset samples with silence : Yes
Delete leading and trailing silent blocks   : No
Null samples used in CRC calculations       : Yes
Used interface                              : Native Win32 interface for Win NT & 2000
Used output format : Internal WAV Routines
Sample format      : 44.100 Hz; 16 Bit; Stereo
TOC of the extracted CD
     Track |   Start  |  Length  | Start sector | End sector
    ---------------------------------------------------------
        1  |  0:00.00 |  5:01.28 |         0    |    22602
        2  |  5:01.28 |  4:24.18 |     22603    |    42420
        3  |  9:25.46 |  5:14.48 |     42421    |    66018
        4  | 14:40.19 |  4:52.37 |     66019    |    87955
        5  | 19:32.56 |  4:34.07 |     87956    |   108512
        6  | 24:06.63 |  2:44.51 |    108513    |   120863
        7  | 26:51.39 |  3:15.50 |    120864    |   135538
        8  | 30:07.14 |  2:58.57 |    135539    |   148945
        9  | 33:05.71 |  4:07.02 |    148946    |   167472
       10  | 37:12.73 |  3:22.32 |    167473    |   182654
Range status and errors
Selected range
     Filename C:\Users\Meijin\Desktop\Lossless Galaxy ALLexxess\Alan Parsons Project\2014 Complete Albums Collection (11CD Box Set RCA Records)\1980 The Turn Of A Friendly Card\Alan Parsons Project - The Turn Of A Friendly Card.wav
     Peak level 95.5 %
     Extraction speed 6.9 X
     Range quality 100.0 %
     Test CRC 839C0990
     Copy CRC 839C0990
     Copy OK
No errors occurred
AccurateRip summary
Track  1  accurately ripped (confidence 2)  [6691E2A9]  (AR v2)
Track  2  accurately ripped (confidence 2)  [6CD68555]  (AR v2)
Track  3  accurately ripped (confidence 2)  [D73C39B2]  (AR v2)
Track  4  accurately ripped (confidence 2)  [EF26C2C8]  (AR v2)
Track  5  accurately ripped (confidence 2)  [6DE0FEA2]  (AR v2)
Track  6  accurately ripped (confidence 2)  [A6E649E9]  (AR v2)
Track  7  accurately ripped (confidence 2)  [626A384E]  (AR v2)
Track  8  accurately ripped (confidence 2)  [9E103CCC]  (AR v2)
Track  9  accurately ripped (confidence 2)  [14B6EF1A]  (AR v2)
Track 10  accurately ripped (confidence 2)  [6B4841BF]  (AR v2)
All tracks accurately ripped
End of status report

Индексная карта (non-compilant .cue)

REM GENRE "Progressive Rock"
REM DATE 1980
REM DISCID 8B09830A
REM COMMENT "ExactAudioCopy v1.0b3"
PERFORMER "Alan Parsons Project"
TITLE "The Turn Of A Friendly Card"
FILE "Range.wav" WAVE
  TRACK 01 AUDIO
    TITLE "May Be A Price To Pay"
    PERFORMER "Alan Parsons Project"
    ISRC USAR11300161
    INDEX 01 00:00:00
  TRACK 02 AUDIO
    TITLE "Games People Play"
    PERFORMER "Alan Parsons Project"
    ISRC USAR11300162
    INDEX 00 05:00:14
    INDEX 01 05:01:28
  TRACK 03 AUDIO
    TITLE "Time"
    PERFORMER "Alan Parsons Project"
    ISRC USAR11300163
    INDEX 00 09:24:36
    INDEX 01 09:25:46
  TRACK 04 AUDIO
    TITLE "I Don't Wanna Go Home"
    PERFORMER "Alan Parsons Project"
    ISRC USAR11300164
    INDEX 01 14:40:19
  TRACK 05 AUDIO
    TITLE "The Gold Bug"
    PERFORMER "Alan Parsons Project"
    ISRC USAR11300165
    INDEX 00 19:32:51
    INDEX 01 19:32:56
  TRACK 06 AUDIO
    TITLE "The Turn Of A Friendly Card: I. The Turn Of A Friendly Card (Part One)"
    PERFORMER "Alan Parsons Project"
    ISRC USAR11300166
    INDEX 01 24:06:63
  TRACK 07 AUDIO
    TITLE "The Turn Of A Friendly Card: II. Snake Eyes"
    PERFORMER "Alan Parsons Project"
    ISRC USAR11300167
    INDEX 01 26:51:39
  TRACK 08 AUDIO
    TITLE "The Turn Of A Friendly Card: III. The Ace Of Swords"
    PERFORMER "Alan Parsons Project"
    ISRC USAR11300168
    INDEX 01 30:07:14
  TRACK 09 AUDIO
    TITLE "The Turn Of A Friendly Card: IV. Nothing Left To Lose"
    PERFORMER "Alan Parsons Project"
    ISRC USAR11300169
    INDEX 01 33:05:71
  TRACK 10 AUDIO
    TITLE "The Turn Of A Friendly Card: V. The Turn Of A Friendly Card (Part Two)"
    PERFORMER "Alan Parsons Project"
    ISRC USAR11300170
    INDEX 01 37:12:73

1982 - Eye In The Sky | 00:42:44

01. Sirius (1:56)
02. Eye In The sky (4:36)
03. Children Of The Moon (4:51)
04. Gemini (2:10)
05. Silence And I (7:21)
06. You're Gonna Get Your Fingers Burned (4:22)
07. Psychobabble (4:53)
08. Mammagamma (3:35)
09. Step By Step (3:54)
10. Old And Wise (5:06)

Лог создания рипа

Exact Audio Copy V1.0 beta 3 from 29. August 2011
EAC extraction logfile from 6. April 2014, 12:06
Alan Parsons Project / Eye In The Sky
Used drive  : PLEXTOR BD-R  PX-B950SA   Adapter: 6  ID: 0
Read mode               : Secure
Utilize accurate stream : Yes
Defeat audio cache      : Yes
Make use of C2 pointers : No
Read offset correction                      : 6
Overread into Lead-In and Lead-Out          : No
Fill up missing offset samples with silence : Yes
Delete leading and trailing silent blocks   : No
Null samples used in CRC calculations       : Yes
Used interface                              : Native Win32 interface for Win NT & 2000
Used output format : Internal WAV Routines
Sample format      : 44.100 Hz; 16 Bit; Stereo
TOC of the extracted CD
     Track |   Start  |  Length  | Start sector | End sector
    ---------------------------------------------------------
        1  |  0:00.00 |  1:55.51 |         0    |     8675
        2  |  1:55.51 |  4:36.21 |      8676    |    29396
        3  |  6:31.72 |  4:51.21 |     29397    |    51242
        4  | 11:23.18 |  2:10.09 |     51243    |    61001
        5  | 13:33.27 |  7:21.33 |     61002    |    94109
        6  | 20:54.60 |  4:21.50 |     94110    |   113734
        7  | 25:16.35 |  4:52.42 |    113735    |   135676
        8  | 30:09.02 |  3:34.71 |    135677    |   151797
        9  | 33:43.73 |  3:54.20 |    151798    |   169367
       10  | 37:38.18 |  5:06.03 |    169368    |   192320
Range status and errors
Selected range
     Filename C:\Users\Meijin\Desktop\Lossless Galaxy ALLexxess\Alan Parsons Project\2014 Complete Albums Collection (11CD Box Set RCA Records)\1982 Eye In The Sky\Alan Parsons Project - Eye In The Sky.wav
     Peak level 96.6 %
     Extraction speed 7.0 X
     Range quality 100.0 %
     Test CRC C3B57C46
     Copy CRC C3B57C46
     Copy OK
No errors occurred
AccurateRip summary
Track  1  accurately ripped (confidence 2)  [717D0ED1]  (AR v2)
Track  2  accurately ripped (confidence 2)  [F97807BA]  (AR v2)
Track  3  accurately ripped (confidence 2)  [B9A714D7]  (AR v2)
Track  4  accurately ripped (confidence 2)  [F6A228D7]  (AR v2)
Track  5  accurately ripped (confidence 2)  [967892B9]  (AR v2)
Track  6  accurately ripped (confidence 2)  [400560BD]  (AR v2)
Track  7  accurately ripped (confidence 2)  [4BE489CA]  (AR v2)
Track  8  accurately ripped (confidence 2)  [5EAA34F3]  (AR v2)
Track  9  accurately ripped (confidence 2)  [49B584EA]  (AR v2)
Track 10  accurately ripped (confidence 2)  [89C2BD14]  (AR v2)
All tracks accurately ripped
End of status report

Индексная карта (non-compilant .cue)

REM GENRE "Progressive Rock"
REM DATE 1982
REM DISCID 760A040A
REM COMMENT "ExactAudioCopy v1.0b3"
PERFORMER "Alan Parsons Project"
TITLE "Eye In The Sky"
FILE "Range.wav" WAVE
  TRACK 01 AUDIO
    TITLE "Sirius"
    PERFORMER "Alan Parsons Project"
    ISRC USAR19700018
    INDEX 01 00:00:00
  TRACK 02 AUDIO
    TITLE "Eye In The sky"
    PERFORMER "Alan Parsons Project"
    ISRC USAR18200010
    INDEX 01 01:55:51
  TRACK 03 AUDIO
    TITLE "Children Of The Moon"
    PERFORMER "Alan Parsons Project"
    ISRC USAR18200162
    INDEX 01 06:31:72
  TRACK 04 AUDIO
    TITLE "Gemini"
    PERFORMER "Alan Parsons Project"
    ISRC USAR18200157
    INDEX 01 11:23:18
  TRACK 05 AUDIO
    TITLE "Silence And I"
    PERFORMER "Alan Parsons Project"
    ISRC USAR18200164
    INDEX 01 13:33:27
  TRACK 06 AUDIO
    TITLE "You're Gonna Get Your Fingers Burned"
    PERFORMER "Alan Parsons Project"
    ISRC USAR18200167
    INDEX 01 20:54:60
  TRACK 07 AUDIO
    TITLE "Psychobabble"
    PERFORMER "Alan Parsons Project"
    ISRC USAR19700020
    INDEX 01 25:16:35
  TRACK 08 AUDIO
    TITLE "Mammagamma"
    PERFORMER "Alan Parsons Project"
    ISRC USAR18200163
    INDEX 01 30:09:02
  TRACK 09 AUDIO
    TITLE "Step By Step"
    PERFORMER "Alan Parsons Project"
    ISRC USAR18200166
    INDEX 01 33:43:73
  TRACK 10 AUDIO
    TITLE "Old And Wise"
    PERFORMER "Alan Parsons Project"
    ISRC USAR19700022
    INDEX 01 37:38:18

1984 - Ammonia Avenue | 00:40:14

01. Prime Time (5:04)
02. Let Me Go Home (3:21)
03. One Good Reason (3:37)
04. Since The Last Goodbye (4:35)
05. Don't Answer Me (4:12)
06. Dancing On A Highwire (4:24)
07. You Don't Believe (4:27)
08. Pipeline (3:57)
09. Ammonia Avenue (6:37)

Лог создания рипа

Exact Audio Copy V1.0 beta 3 from 29. August 2011
EAC extraction logfile from 6. April 2014, 11:33
Alan Parsons Project / Ammonia Avenue
Used drive  : PLEXTOR BD-R  PX-B950SA   Adapter: 6  ID: 0
Read mode               : Secure
Utilize accurate stream : Yes
Defeat audio cache      : Yes
Make use of C2 pointers : No
Read offset correction                      : 6
Overread into Lead-In and Lead-Out          : No
Fill up missing offset samples with silence : Yes
Delete leading and trailing silent blocks   : No
Null samples used in CRC calculations       : Yes
Used interface                              : Native Win32 interface for Win NT & 2000
Used output format : Internal WAV Routines
Sample format      : 44.100 Hz; 16 Bit; Stereo
TOC of the extracted CD
     Track |   Start  |  Length  | Start sector | End sector
    ---------------------------------------------------------
        1  |  0:00.00 |  5:03.55 |         0    |    22779
        2  |  5:03.55 |  3:21.29 |     22780    |    37883
        3  |  8:25.09 |  3:37.25 |     37884    |    54183
        4  | 12:02.34 |  4:35.19 |     54184    |    74827
        5  | 16:37.53 |  4:11.64 |     74828    |    93716
        6  | 20:49.42 |  4:23.47 |     93717    |   113488
        7  | 25:13.14 |  4:26.67 |    113489    |   133505
        8  | 29:40.06 |  3:57.15 |    133506    |   151295
        9  | 33:37.21 |  6:36.66 |    151296    |   181061
Range status and errors
Selected range
     Filename C:\Users\Meijin\Desktop\Lossless Galaxy ALLexxess\Alan Parsons Project\2014 Complete Albums Collection (11CD Box Set RCA Records)\1984 Ammonia Avenue\Alan Parsons Project - Ammonia Avenue.wav
     Peak level 100.0 %
     Extraction speed 6.9 X
     Range quality 100.0 %
     Test CRC 7E9D1A52
     Copy CRC 7E9D1A52
     Copy OK
No errors occurred
AccurateRip summary
Track  1  accurately ripped (confidence 2)  [3B2CB8F4]  (AR v2)
Track  2  accurately ripped (confidence 2)  [A60E8DE0]  (AR v2)
Track  3  accurately ripped (confidence 2)  [44CCC67C]  (AR v2)
Track  4  accurately ripped (confidence 2)  [3AF15939]  (AR v2)
Track  5  accurately ripped (confidence 2)  [14265DA8]  (AR v2)
Track  6  accurately ripped (confidence 2)  [1AFD417C]  (AR v2)
Track  7  accurately ripped (confidence 2)  [3C242FDC]  (AR v2)
Track  8  accurately ripped (confidence 2)  [7AC7E6E6]  (AR v2)
Track  9  accurately ripped (confidence 2)  [84919606]  (AR v2)
All tracks accurately ripped
End of status report

Индексная карта (non-compilant .cue)

REM GENRE "Progressive Rock"
REM DATE 1984
REM DISCID 71096E09
REM COMMENT "ExactAudioCopy v1.0b3"
PERFORMER "Alan Parsons Project"
TITLE "Ammonia Avenue"
FILE "Range.wav" WAVE
  TRACK 01 AUDIO
    TITLE "Prime Time"
    PERFORMER "Alan Parsons Project"
    ISRC USAR19700023
    INDEX 01 00:00:00
  TRACK 02 AUDIO
    TITLE "Let Me Go Home"
    PERFORMER "Alan Parsons Project"
    ISRC USAR18400157
    INDEX 01 05:03:55
  TRACK 03 AUDIO
    TITLE "One Good Reason"
    PERFORMER "Alan Parsons Project"
    ISRC USAR18400159
    INDEX 01 08:25:09
  TRACK 04 AUDIO
    TITLE "Since The Last Goodbye"
    PERFORMER "Alan Parsons Project"
    ISRC USAR18400160
    INDEX 01 12:02:34
  TRACK 05 AUDIO
    TITLE "Don't Answer Me"
    PERFORMER "Alan Parsons Project"
    ISRC USAR18400007
    INDEX 01 16:37:53
  TRACK 06 AUDIO
    TITLE "Dancing On A Highwire"
    PERFORMER "Alan Parsons Project"
    ISRC USAR18400156
    INDEX 01 20:49:42
  TRACK 07 AUDIO
    TITLE "You Don't Believe"
    PERFORMER "Alan Parsons Project"
    ISRC USAR19700025
    INDEX 01 25:13:14
  TRACK 08 AUDIO
    TITLE "Pipeline"
    PERFORMER "Alan Parsons Project"
    ISRC USAR18400150
    INDEX 01 29:40:06
  TRACK 09 AUDIO
    TITLE "Ammonia Avenue"
    PERFORMER "Alan Parsons Project"
    ISRC USAR18400136
    INDEX 01 33:37:21

1984 - Vulture Culture | 00:38:01

01. Let's Talk About Me (4:29)
02. Separate Lives (4:38)
03. Days Are Numbers (The Traveller) (4:53)
04. Sooner Or Later (4:25)
05. Vulture Culture (5:23)
06. Hawkeye (3:49)
07. Somebody Out There (4:56)
08. The Same Old Sun (5:28)

Лог создания рипа

Exact Audio Copy V1.0 beta 3 from 29. August 2011
EAC extraction logfile from 6. April 2014, 11:07
Alan Parsons Project / Vulture Culture
Used drive  : PLEXTOR BD-R  PX-B950SA   Adapter: 6  ID: 0
Read mode               : Secure
Utilize accurate stream : Yes
Defeat audio cache      : Yes
Make use of C2 pointers : No
Read offset correction                      : 6
Overread into Lead-In and Lead-Out          : No
Fill up missing offset samples with silence : Yes
Delete leading and trailing silent blocks   : No
Null samples used in CRC calculations       : Yes
Used interface                              : Native Win32 interface for Win NT & 2000
Used output format : Internal WAV Routines
Sample format      : 44.100 Hz; 16 Bit; Stereo
TOC of the extracted CD
     Track |   Start  |  Length  | Start sector | End sector
    ---------------------------------------------------------
        1  |  0:00.00 |  4:29.22 |         0    |    20196
        2  |  4:29.22 |  4:37.71 |     20197    |    41042
        3  |  9:07.18 |  4:53.17 |     41043    |    63034
        4  | 14:00.35 |  4:24.40 |     63035    |    82874
        5  | 18:25.00 |  5:22.61 |     82875    |   107085
        6  | 23:47.61 |  3:49.23 |    107086    |   124283
        7  | 27:37.09 |  4:56.04 |    124284    |   146487
        8  | 32:33.13 |  5:28.06 |    146488    |   171093
Range status and errors
Selected range
     Filename C:\Users\Meijin\Desktop\Lossless Galaxy ALLexxess\Alan Parsons Project\2014 Complete Albums Collection (11CD Box Set RCA Records)\1984 Vulture Culture\Alan Parsons Project - Vulture Culture.wav
     Peak level 96.6 %
     Extraction speed 6.8 X
     Range quality 100.0 %
     Test CRC 41004C53
     Copy CRC 41004C53
     Copy OK
No errors occurred
AccurateRip summary
Track  1  accurately ripped (confidence 2)  [F53B90C8]  (AR v2)
Track  2  accurately ripped (confidence 2)  [927849AD]  (AR v2)
Track  3  accurately ripped (confidence 2)  [2F13CE8A]  (AR v2)
Track  4  accurately ripped (confidence 2)  [365EC795]  (AR v2)
Track  5  accurately ripped (confidence 2)  [41C0263B]  (AR v2)
Track  6  accurately ripped (confidence 2)  [9004B6AE]  (AR v2)
Track  7  accurately ripped (confidence 2)  [7047C481]  (AR v2)
Track  8  accurately ripped (confidence 2)  [BAF3F144]  (AR v2)
All tracks accurately ripped
End of status report

Индексная карта (non-compilant .cue)

REM GENRE "Progressive Rock"
REM DATE 1984
REM DISCID 6E08E908
REM COMMENT "ExactAudioCopy v1.0b3"
PERFORMER "Alan Parsons Project"
TITLE "Vulture Culture"
FILE "Range.wav" WAVE
  TRACK 01 AUDIO
    TITLE "Let's Talk About Me"
    PERFORMER "Alan Parsons Project"
    ISRC USAR18400145
    INDEX 01 00:00:00
  TRACK 02 AUDIO
    TITLE "Separate Lives"
    PERFORMER "Alan Parsons Project"
    ISRC USAR18400146
    INDEX 01 04:29:22
  TRACK 03 AUDIO
    TITLE "Days Are Numbers (The Traveller)"
    PERFORMER "Alan Parsons Project"
    ISRC USAR10601762
    INDEX 01 09:07:18
  TRACK 04 AUDIO
    TITLE "Sooner Or Later"
    PERFORMER "Alan Parsons Project"
    ISRC USAR18400138
    INDEX 01 14:00:35
  TRACK 05 AUDIO
    TITLE "Vulture Culture"
    PERFORMER "Alan Parsons Project"
    ISRC USAR18400147
    INDEX 01 18:25:00
  TRACK 06 AUDIO
    TITLE "Hawkeye"
    PERFORMER "Alan Parsons Project"
    ISRC USAR18400148
    INDEX 01 23:47:61
  TRACK 07 AUDIO
    TITLE "Somebody Out There"
    PERFORMER "Alan Parsons Project"
    ISRC USAR18400149
    INDEX 01 27:37:09
  TRACK 08 AUDIO
    TITLE "The Same Old Sun"
    PERFORMER "Alan Parsons Project"
    ISRC USAR18400005
    INDEX 01 32:33:13

1985 - Stereotomy | 00:41:57

01. Stereotomy (7:18)
02. Beaujolais (4:28)
03. Urbania (Instrumental) (5:00)
04. Limelight (4:39)
05. In The Real World (4:21)
06. Where's The Walrus? (Instrumental) (7:31)
07. Light Of The World (6:20)
08. Chinese Whispers (Instrumental) (1:01)
09. Stereotomy Two (1:20)

Лог создания рипа

Exact Audio Copy V1.0 beta 3 from 29. August 2011
EAC extraction logfile from 6. April 2014, 10:21
Alan Parsons Project / Stereotomy
Used drive  : PLEXTOR BD-R  PX-B950SA   Adapter: 6  ID: 0
Read mode               : Secure
Utilize accurate stream : Yes
Defeat audio cache      : Yes
Make use of C2 pointers : No
Read offset correction                      : 6
Overread into Lead-In and Lead-Out          : No
Fill up missing offset samples with silence : Yes
Delete leading and trailing silent blocks   : No
Null samples used in CRC calculations       : Yes
Used interface                              : Native Win32 interface for Win NT & 2000
Used output format : Internal WAV Routines
Sample format      : 44.100 Hz; 16 Bit; Stereo
TOC of the extracted CD
     Track |   Start  |  Length  | Start sector | End sector
    ---------------------------------------------------------
        1  |  0:00.00 |  7:17.53 |         0    |    32827
        2  |  7:17.53 |  4:27.58 |     32828    |    52910
        3  | 11:45.36 |  4:59.42 |     52911    |    75377
        4  | 16:45.03 |  4:38.69 |     75378    |    96296
        5  | 21:23.72 |  4:21.04 |     96297    |   115875
        6  | 25:45.01 |  7:30.57 |    115876    |   149682
        7  | 33:15.58 |  6:19.60 |    149683    |   178167
        8  | 39:35.43 |  1:01.03 |    178168    |   182745
        9  | 40:36.46 |  1:20.25 |    182746    |   188770
Range status and errors
Selected range
     Filename C:\Users\Meijin\Desktop\Lossless Galaxy ALLexxess\Alan Parsons Project\2014 Complete Albums Collection (11CD Box Set RCA Records)\1985 Stereotomy\Alan Parsons Project - Stereotomy.wav
     Peak level 97.7 %
     Extraction speed 7.0 X
     Range quality 100.0 %
     Test CRC 812D3352
     Copy CRC 812D3352
     Copy OK
No errors occurred
AccurateRip summary
Track  1  accurately ripped (confidence 2)  [E92A8AE9]  (AR v2)
Track  2  accurately ripped (confidence 2)  [EE565BC4]  (AR v2)
Track  3  accurately ripped (confidence 2)  [2367D501]  (AR v2)
Track  4  accurately ripped (confidence 2)  [10C0244B]  (AR v2)
Track  5  accurately ripped (confidence 2)  [2B7F54FC]  (AR v2)
Track  6  accurately ripped (confidence 2)  [956C3EE9]  (AR v2)
Track  7  accurately ripped (confidence 2)  [CC1E6B64]  (AR v2)
Track  8  accurately ripped (confidence 2)  [1394C645]  (AR v2)
Track  9  accurately ripped (confidence 2)  [3C756FFB]  (AR v2)
All tracks accurately ripped
End of status report

Индексная карта (non-compilant .cue)

REM GENRE "Progressive Rock"
REM DATE 1985
REM DISCID 8709D409
REM COMMENT "ExactAudioCopy v1.0b3"
PERFORMER "Alan Parsons Project"
TITLE "Stereotomy"
FILE "Range.wav" WAVE
  TRACK 01 AUDIO
    TITLE "Stereotomy"
    PERFORMER "Alan Parsons Project"
    ISRC USAR18500224
    INDEX 01 00:00:00
  TRACK 02 AUDIO
    TITLE "Beaujolais"
    PERFORMER "Alan Parsons Project"
    ISRC USAR18400154
    INDEX 01 07:17:53
  TRACK 03 AUDIO
    TITLE "Urbania (Instrumental)"
    PERFORMER "Alan Parsons Project"
    ISRC USAR18400161
    INDEX 01 11:45:36
  TRACK 04 AUDIO
    TITLE "Limelight"
    PERFORMER "Alan Parsons Project"
    ISRC USAR18400135
    INDEX 01 16:45:03
  TRACK 05 AUDIO
    TITLE "In The Real World"
    PERFORMER "Alan Parsons Project"
    ISRC USAR19700029
    INDEX 01 21:23:72
  TRACK 06 AUDIO
    TITLE "Where's The Walrus? (Instrumental)"
    PERFORMER "Alan Parsons Project"
    ISRC USAR18400151
    INDEX 01 25:45:01
  TRACK 07 AUDIO
    TITLE "Light Of The World"
    PERFORMER "Alan Parsons Project"
    ISRC USAR18400158
    INDEX 01 33:15:58
  TRACK 08 AUDIO
    TITLE "Chinese Whispers (Instrumental)"
    PERFORMER "Alan Parsons Project"
    ISRC USAR18400155
    INDEX 01 39:35:43
  TRACK 09 AUDIO
    TITLE "Stereotomy Two"
    PERFORMER "Alan Parsons Project"
    ISRC USAR18500225
    INDEX 01 40:36:46

1987 - Gaudi | 00:39:48

01. La Sagrada Familia (8:48)
02. Too Late (4:31)
03. Closer To Heaven (5:54)
04. Standing On Higher Ground (5:49)
05. Money Talks (4:26)
06. Inside Looking Out (6:27)
07. Paseo De Gracia (Instrumental) (3:53)

Лог создания рипа

Exact Audio Copy V1.0 beta 3 from 29. August 2011
EAC extraction logfile from 6. April 2014, 9:56
Alan Parsons Project / Gaudi
Used drive  : PLEXTOR BD-R  PX-B950SA   Adapter: 6  ID: 0
Read mode               : Secure
Utilize accurate stream : Yes
Defeat audio cache      : Yes
Make use of C2 pointers : No
Read offset correction                      : 6
Overread into Lead-In and Lead-Out          : No
Fill up missing offset samples with silence : Yes
Delete leading and trailing silent blocks   : No
Null samples used in CRC calculations       : Yes
Used interface                              : Native Win32 interface for Win NT & 2000
Used output format : Internal WAV Routines
Sample format      : 44.100 Hz; 16 Bit; Stereo
TOC of the extracted CD
     Track |   Start  |  Length  | Start sector | End sector
    ---------------------------------------------------------
        1  |  0:00.00 |  8:48.10 |         0    |    39609
        2  |  8:48.10 |  4:30.63 |     39610    |    59922
        3  | 13:18.73 |  5:53.66 |     59923    |    86463
        4  | 19:12.64 |  5:48.50 |     86464    |   112613
        5  | 25:01.39 |  4:26.29 |    112614    |   132592
        6  | 29:27.68 |  6:26.50 |    132593    |   161592
        7  | 35:54.43 |  3:53.23 |    161593    |   179090
Range status and errors
Selected range
     Filename C:\Users\Meijin\Desktop\Lossless Galaxy ALLexxess\Alan Parsons Project\2014 Complete Albums Collection (11CD Box Set RCA Records)\1987 Gaudi\Alan Parsons Project - Gaudi.wav
     Peak level 97.7 %
     Extraction speed 6.9 X
     Range quality 100.0 %
     Test CRC 98731053
     Copy CRC 98731053
     Copy OK
No errors occurred
AccurateRip summary
Track  1  accurately ripped (confidence 2)  [BACA711F]  (AR v2)
Track  2  accurately ripped (confidence 2)  [AEF8EF3D]  (AR v2)
Track  3  accurately ripped (confidence 2)  [020BBCDE]  (AR v2)
Track  4  accurately ripped (confidence 2)  [B65B90A3]  (AR v2)
Track  5  accurately ripped (confidence 2)  [8DBB2AAD]  (AR v2)
Track  6  accurately ripped (confidence 2)  [FA1036DD]  (AR v2)
Track  7  accurately ripped (confidence 2)  [E8EFAE00]  (AR v2)
All tracks accurately ripped
End of status report

Индексная карта (non-compilant .cue)

REM GENRE "Progressive Rock"
REM DATE 1987
REM DISCID 4B095307
REM COMMENT "ExactAudioCopy v1.0b3"
PERFORMER "Alan Parsons Project"
TITLE "Gaudi"
FILE "Range.wav" WAVE
  TRACK 01 AUDIO
    TITLE "La Sagrada Familia"
    PERFORMER "Alan Parsons Project"
    ISRC USAR18700166
    INDEX 01 00:00:00
  TRACK 02 AUDIO
    TITLE "Too Late"
    PERFORMER "Alan Parsons Project"
    ISRC USAR19700031
    INDEX 01 08:48:10
  TRACK 03 AUDIO
    TITLE "Closer To Heaven"
    PERFORMER "Alan Parsons Project"
    ISRC USAR18700164
    INDEX 01 13:18:73
  TRACK 04 AUDIO
    TITLE "Standing On Higher Ground"
    PERFORMER "Alan Parsons Project"
    ISRC USAR18700168
    INDEX 01 19:12:64
  TRACK 05 AUDIO
    TITLE "Money Talks"
    PERFORMER "Alan Parsons Project"
    ISRC USAR18700167
    INDEX 01 25:01:39
  TRACK 06 AUDIO
    TITLE "Inside Looking Out"
    PERFORMER "Alan Parsons Project"
    ISRC USAR18700165
    INDEX 01 29:27:68
  TRACK 07 AUDIO
    TITLE "Paseo De Gracia (Instrumental)"
    PERFORMER "Alan Parsons Project"
    ISRC USAR18200190
    INDEX 01 35:54:43

2014 - The Sicilian Defence (Unreleased) | 00:39:52

01. P - K4 (5:01)
02. P - QB4 (6:23)
03. Kt - KB3 (3:08)
04. ...Kt - QB3 (1:16)
05. P - Q4 (3:55)
06. P x P (3:28)
07. Kt x P (4:02)
08. Kt - B3 (0:54)
09. Kt - QB3 (8:16)
10. P - Q3 (3:30)

Лог создания рипа

Exact Audio Copy V1.0 beta 3 from 29. August 2011
EAC extraction logfile from 6. April 2014, 9:23
Alan Parsons Project / The Sicilian Defence
Used drive  : PLEXTOR BD-R  PX-B950SA   Adapter: 6  ID: 0
Read mode               : Secure
Utilize accurate stream : Yes
Defeat audio cache      : Yes
Make use of C2 pointers : No
Read offset correction                      : 6
Overread into Lead-In and Lead-Out          : No
Fill up missing offset samples with silence : Yes
Delete leading and trailing silent blocks   : No
Null samples used in CRC calculations       : Yes
Used interface                              : Native Win32 interface for Win NT & 2000
Used output format : Internal WAV Routines
Sample format      : 44.100 Hz; 16 Bit; Stereo
TOC of the extracted CD
     Track |   Start  |  Length  | Start sector | End sector
    ---------------------------------------------------------
        1  |  0:00.00 |  5:00.61 |         0    |    22560
        2  |  5:00.61 |  6:22.66 |     22561    |    51276
        3  | 11:23.52 |  3:07.38 |     51277    |    65339
        4  | 14:31.15 |  1:15.61 |     65340    |    71025
        5  | 15:47.01 |  3:54.69 |     71026    |    88644
        6  | 19:41.70 |  3:27.73 |     88645    |   104242
        7  | 23:09.68 |  4:01.39 |    104243    |   122356
        8  | 27:11.32 |  0:53.74 |    122357    |   126405
        9  | 28:05.31 |  8:16.00 |    126406    |   163605
       10  | 36:21.31 |  3:30.35 |    163606    |   179390
Range status and errors
Selected range
     Filename C:\Users\Meijin\Desktop\Lossless Galaxy ALLexxess\Alan Parsons Project\2014 Complete Albums Collection (11CD Box Set RCA Records)\2014 The Sicilian Defence (Unreleased)\Alan Parsons Project - The Sicilian Defence.wav
     Peak level 97.7 %
     Extraction speed 6.9 X
     Range quality 100.0 %
     Test CRC FD6FC17D
     Copy CRC FD6FC17D
     Copy OK
No errors occurred
AccurateRip summary
Track  1  accurately ripped (confidence 2)  [13410C9F]  (AR v2)
Track  2  accurately ripped (confidence 2)  [F473633C]  (AR v2)
Track  3  accurately ripped (confidence 2)  [C5DED4F5]  (AR v2)
Track  4  accurately ripped (confidence 2)  [FD4B9A8B]  (AR v2)
Track  5  accurately ripped (confidence 2)  [3146A396]  (AR v2)
Track  6  accurately ripped (confidence 2)  [61AD109F]  (AR v2)
Track  7  accurately ripped (confidence 2)  [0C84D949]  (AR v2)
Track  8  accurately ripped (confidence 2)  [727B9F43]  (AR v2)
Track  9  accurately ripped (confidence 2)  [7BFE0B44]  (AR v2)
Track 10  accurately ripped (confidence 2)  [6B55DAB7]  (AR v2)
All tracks accurately ripped
End of status report

Индексная карта (non-compilant .cue)

REM GENRE "Progressive Rock"
REM DATE 2014
REM DISCID 8E09570A
REM COMMENT "ExactAudioCopy v1.0b3"
PERFORMER "Alan Parsons Project"
TITLE "The Sicilian Defence"
FILE "Range.wav" WAVE
  TRACK 01 AUDIO
    TITLE "P - K4"
    PERFORMER "Alan Parsons Project"
    ISRC USAR11300171
    INDEX 01 00:00:00
  TRACK 02 AUDIO
    TITLE "P - QB4"
    PERFORMER "Alan Parsons Project"
    ISRC USAR11300172
    INDEX 00 05:00:33
    INDEX 01 05:00:61
  TRACK 03 AUDIO
    TITLE "Kt - KB3"
    PERFORMER "Alan Parsons Project"
    ISRC USAR11300173
    INDEX 00 11:22:11
    INDEX 01 11:23:52
  TRACK 04 AUDIO
    TITLE "...Kt - QB3"
    PERFORMER "Alan Parsons Project"
    ISRC USAR11300174
    INDEX 00 14:31:00
    INDEX 01 14:31:15
  TRACK 05 AUDIO
    TITLE "P - Q4"
    PERFORMER "Alan Parsons Project"
    ISRC USAR11300175
    INDEX 00 15:46:29
    INDEX 01 15:47:01
  TRACK 06 AUDIO
    TITLE "P x P"
    PERFORMER "Alan Parsons Project"
    ISRC USAR11300176
    INDEX 00 19:41:60
    INDEX 01 19:41:70
  TRACK 07 AUDIO
    TITLE "Kt x P"
    PERFORMER "Alan Parsons Project"
    ISRC USAR11300177
    INDEX 00 23:08:12
    INDEX 01 23:09:68
  TRACK 08 AUDIO
    TITLE "Kt - B3"
    PERFORMER "Alan Parsons Project"
    ISRC USAR11300178
    INDEX 00 27:08:49
    INDEX 01 27:11:32
  TRACK 09 AUDIO
    TITLE "Kt - QB3"
    PERFORMER "Alan Parsons Project"
    ISRC USAR11300179
    INDEX 00 28:02:71
    INDEX 01 28:05:31
  TRACK 10 AUDIO
    TITLE "P - Q3"
    PERFORMER "Alan Parsons Project"
    ISRC USAR11300180
    INDEX 00 36:19:59
    INDEX 01 36:21:31
--
[Профиль] [ЛС]
Кто просматривает тему:

Показать сообщения:    

Текущее время: Сегодня 04:47

Часовой пояс: GMT



Вы не можете начинать темы
Вы не можете отвечать на сообщения
Вы не можете редактировать свои сообщения
Вы не можете удалять свои сообщения
Вы не можете голосовать в опросах
Вы не можете прикреплять файлы к сообщениям
Вы не можете скачивать файлы