Texas - Live at Baloise Session 2013 [2014, Alternative rock/Britpop/Pop rock, HDTV 720p]

 
Автор Сообщение

reversefile ®

Пол:

Стаж: 4 года 5 месяцев

Сообщений: 842

Откуда: ReverseFile.org



Награды: Нет

Торрент-статистика

Создавать темы 11-Авг-2014 18:53

[Цитировать]

Texas - Live at Baloise Session 2013
Жанр: Alternative rock/Britpop/Pop rock
Продолжительность: 01:10:45
Год выпуска: 2014
Описание: Выступление шотландского rock/pop бэнда Texas на музыкальном фестивале Baloise Session в швейцарском Базеле 2013 oct26
Доп. информация: Собственная запись со спутникового канала SRF Zwei 2014 jul24
Треклист: Halo
Detroit City
Once in a Lifetime
When We Are Together
Big World
Dry Your Eyes
In Demand
Everyday Now
I Don't Want a Lover
Summer Son
Black Eyed Boy
Say What You Want
The Conversation
Inner Smile
River Deep, Mountain High
Качество: HDTV 720p
Контейнер: TS
Видео кодек: H.264
Аудио кодек: AC3
Видео: Mpeg4 AVC, 1280x720, 10300 kbps, 50 fps Progressive
Аудио: AC3, 448 kbps, 48 kHz, 5.1 ch
Аудио 2: MP2, 192 kbps, 48 kHz, stereo
Аудио 3: MP2, 192 kbps, 48 kHz, stereo

Отчёт MediaInfo / BDInfo

GeneralID : 1 (0x1)Complete name : D:\Downloads\Texas - Live at Baloise Session 2013.tsFormat : MPEG-TSFile size : 5.82 GiBDuration : 1h 10mnOverall bit rate mode : VariableOverall bit rate : 11.8 Mbps
VideoID : 512 (0x200)Menu ID : 1 (0x1)Format : AVCFormat/Info : Advanced Video CodecFormat profile : High@L4.0Format settings, CABAC : YesFormat settings, ReFrames : 3 framesFormat settings, GOP : M=2, N=24Codec ID : 27Duration : 1h 10mnBit rate : 10.3 MbpsWidth : 1 280 pixelsHeight : 720 pixelsDisplay aspect ratio : 16:9Frame rate : 50.000 fpsStandard : ComponentColor space : YUVChroma subsampling : 4:2:0Bit depth : 8 bitsScan type : ProgressiveBits/(Pixel*Frame) : 0.225Stream size : 5.11 GiB (88%)Color primaries : BT.709Transfer characteristics : BT.709Matrix coefficients : BT.709
Audio #1ID : 513 (0x201)Menu ID : 1 (0x1)Format : MPEG AudioFormat version : Version 1Format profile : Layer 2Mode : Joint stereoMode extension : Intensity Stereo + MS StereoCodec ID : 3Duration : 1h 10mnBit rate mode : ConstantBit rate : 192 KbpsChannel(s) : 2 channelsSampling rate : 48.0 KHzCompression mode : LossyStream size : 97.2 MiB (2%)Language : German
Audio #2ID : 514 (0x202)Menu ID : 1 (0x1)Format : MPEG AudioFormat version : Version 1Format profile : Layer 2Mode : Joint stereoMode extension : Intensity Stereo + MS StereoCodec ID : 3Duration : 1h 10mnBit rate mode : ConstantBit rate : 192 KbpsChannel(s) : 2 channelsSampling rate : 48.0 KHzCompression mode : LossyStream size : 97.2 MiB (2%)Language : English
Audio #3ID : 515 (0x203)Menu ID : 1 (0x1)Format : AC-3Format/Info : Audio Coding 3Mode extension : CM (complete main)Format settings, Endianness : BigCodec ID : 6Duration : 1h 10mnBit rate mode : ConstantBit rate : 448 KbpsChannel(s) : 6 channelsChannel positions : Front: L C R, Side: L R, LFESampling rate : 48.0 KHzBit depth : 16 bitsCompression mode : LossyStream size : 227 MiB (4%)Language : German
Text #1ID : 517 (0x205)-100Menu ID : 1 (0x1)Format : TeletextLanguage : German
Text #2ID : 517 (0x205)-777Menu ID : 1 (0x1)Format : Teletext SubtitleLanguage : German
MenuID : 511 (0x1FF)Menu ID : 1 (0x1)Duration : 1h 10mnList : 512 (0x200) (AVC) / 513 (0x201) (MPEG Audio, German) / 514 (0x202) (MPEG Audio, English) / 515 (0x203) (AC-3, German) / 517 (0x205) ()Language : / German / English / German

Скриншоты

[Профиль] [ЛС]
Кто просматривает тему:

Форум Тема Автор Размер
Зарубежные концерты Texas - Live at Baloise Session 2013 [2014, Alternative rock/Britpop/Pop rock, HDTV 1080i] reversefile 4.63 GB
Показать сообщения:    

Текущее время: Сегодня 04:17

Часовой пояс: GMT



Вы не можете начинать темы
Вы не можете отвечать на сообщения
Вы не можете редактировать свои сообщения
Вы не можете удалять свои сообщения
Вы не можете голосовать в опросах
Вы не можете прикреплять файлы к сообщениям
Вы не можете скачивать файлы