Texas - Live at Baloise Session 2013 [2014, Alternative rock/Britpop/Pop rock, HDTV 1080i]

 
Автор Сообщение

reversefile ®

Пол:

Стаж: 4 года 5 месяцев

Сообщений: 842

Откуда: ReverseFile.org



Награды: Нет

Торрент-статистика

Создавать темы 11-Авг-2014 18:53

[Цитировать]

Texas - Live at Baloise Session 2013
Жанр: Alternative rock/Britpop/Pop rock
Продолжительность: 01:10:36
Год выпуска: 2014
Описание: Выступление шотландского rock/pop бэнда Texas на музыкальном фестивале Baloise Session в швейцарском Базеле 2013 oct26
Доп. информация: Собственная запись со спутникового канала ProSieben Fun 2014 aug01
Треклист: Halo
Detroit City
Once in a Lifetime
When We Are Together
Big World
Dry Your Eyes
In Demand
Everyday Now
I Don't Want a Lover
Summer Son
Black Eyed Boy
Say What You Want
The Conversation
Inner Smile
River Deep, Mountain High
Качество: HDTV 1080i
Контейнер: TS
Видео кодек: H.264
Аудио кодек: AC3
Видео: Mpeg4 AVC, 1920x1080, 8550 kbps, 25 fps
Аудио: AC3, 384 kbps, 48 kHz, stereo

Отчёт MediaInfo / BDInfo

GeneralID : 1 (0x1)Complete name : D:\Downloads\Texas. Baloise Session 2013.tsFormat : MPEG-TSFile size : 4.63 GiBDuration : 1h 10mnOverall bit rate mode : VariableOverall bit rate : 9 396 Kbps
VideoID : 1279 (0x4FF)Menu ID : 1 (0x1)Format : AVCFormat/Info : Advanced Video CodecFormat profile : High@L4.0Format settings, CABAC : YesFormat settings, ReFrames : 3 framesCodec ID : 27Duration : 1h 10mnBit rate : 8 544 KbpsWidth : 1 920 pixelsHeight : 1 080 pixelsDisplay aspect ratio : 16:9Frame rate : 25.000 fpsStandard : ComponentColor space : YUVChroma subsampling : 4:2:0Bit depth : 8 bitsScan type : InterlacedScan order : Top Field FirstBits/(Pixel*Frame) : 0.165Stream size : 4.21 GiB (91%)Color primaries : BT.709Transfer characteristics : BT.709Matrix coefficients : BT.709
AudioID : 1283 (0x503)Menu ID : 1 (0x1)Format : AC-3Format/Info : Audio Coding 3Mode extension : CM (complete main)Format settings, Endianness : BigCodec ID : 6Duration : 1h 10mnBit rate mode : ConstantBit rate : 384 KbpsChannel(s) : 2 channelsChannel positions : Front: L RSampling rate : 48.0 KHzBit depth : 16 bitsCompression mode : LossyStream size : 194 MiB (4%)Language : German
TextID : 32 (0x20)-100Menu ID : 1 (0x1)Format : TeletextLanguage : German
MenuID : 100 (0x64)Menu ID : 1 (0x1)Duration : 1h 10mnList : 1279 (0x4FF) (AVC) / 1283 (0x503) (AC-3, German) / 32 (0x20) ()Language : / German

Скриншоты

[Профиль] [ЛС]
Кто просматривает тему:

Форум Тема Автор Размер
Зарубежные концерты Texas - Live at Baloise Session 2013 [2014, Alternative rock/Britpop/Pop rock, HDTV 720p] reversefile 5.82 GB
Показать сообщения:    

Текущее время: Сегодня 22:41

Часовой пояс: GMT



Вы не можете начинать темы
Вы не можете отвечать на сообщения
Вы не можете редактировать свои сообщения
Вы не можете удалять свои сообщения
Вы не можете голосовать в опросах
Вы не можете прикреплять файлы к сообщениям
Вы не можете скачивать файлы