(Rock, Blues Rock,) Ten Years After - The Name Remains The Same (2014, Ten Years After) - 2014, FLAC (image+.cue), lossless

 
Автор Сообщение

sergej644 ®

Пол:

Стаж: 4 года 11 месяцев

Сообщений: 6040

Откуда: Soviet Union



Награды: Нет

Торрент-статистика

Создавать темы 18-Мар-2015 20:18

[Цитировать]

Ten Years After / The Name Remains The Same (2014, Ten Years After, UK, NTYACD001)
Жанр: Rock, Blues Rock, British Blues, Rock&Roll, Jazz R
Носитель: CD
Страна-производитель диска (релиза): UK
Год издания: 2014
Издатель (лейбл): Ten Years After
Номер по каталогу: NTYACD001
Страна исполнителя (группы): England
Аудиокодек: FLAC (*.flac)
Тип рипа: image+.cue
Битрейт аудио: lossless
Продолжительность: 01:14:02
Источник (релизер): Собственный
Наличие сканов в содержимом раздачи: да (JPG, 600dpi, 19Mb)
-Треклист:
01. Sugar the Road - 4:31
02. One of These Days - 5:37
03. I'm Coming On - 4:26
04. Nowhere to Run - 4:19
05. Me & My Baby - 4:50
06. Standing at the Station - 8:05
07. I Say Yeah - 4:00
08. Good Morning Little Schoolgirl - 8:07
09. Help Me Baby - 10:13
10. I'm Going Home - 8:36
11. Choo Choo Mama - 3:47
12. Love Like a Man / Love Jam Two / Love Like a Man [Bonus Track] - 7:30
-

Лог создания рипа (EAC)

Exact Audio Copy V1.0 beta 4 from 7. December 2014
EAC extraction logfile from 18. March 2015, 12:09
Ten Years After / The Name Remains The Same (2014, NTYACD001)
Used drive  : ATAPI   iHAS124   B   Adapter: 1  ID: 0
Read mode               : Secure
Utilize accurate stream : Yes
Defeat audio cache      : Yes
Make use of C2 pointers : No
Read offset correction                      : 6
Overread into Lead-In and Lead-Out          : No
Fill up missing offset samples with silence : Yes
Delete leading and trailing silent blocks   : No
Null samples used in CRC calculations       : Yes
Used interface                              : Installed external ASPI interface
Used output format              : User Defined Encoder
Selected bitrate                : 128 kBit/s
Quality                         : High
Add ID3 tag                     : Yes
Command line compressor         : C:\Program Files (x86)\Exact Audio Copy\Flac\flac.exe
Additional command line options : -V -8 -T "Date=%year%" -T "Genre=%genre%" %source%
TOC of the extracted CD
     Track |   Start  |  Length  | Start sector | End sector
    ---------------------------------------------------------
        1  |  0:00.00 |  4:31.25 |         0    |    20349
        2  |  4:31.25 |  5:37.08 |     20350    |    45632
        3  | 10:08.33 |  4:26.09 |     45633    |    65591
        4  | 14:34.42 |  4:18.50 |     65592    |    84991
        5  | 18:53.17 |  4:49.54 |     84992    |   106720
        6  | 23:42.71 |  8:04.73 |    106721    |   143093
        7  | 31:47.69 |  4:00.01 |    143094    |   161094
        8  | 35:47.70 |  8:07.30 |    161095    |   197649
        9  | 43:55.25 | 10:13.06 |    197650    |   243630
       10  | 54:08.31 |  8:36.08 |    243631    |   282338
       11  | 62:44.39 |  3:47.06 |    282339    |   299369
       12  | 66:31.45 |  7:30.11 |    299370    |   333130
Range status and errors
Selected range
     Filename G:\CD\Ten Years After - The Name Remains The Same.wav
     Peak level 100.0 %
     Extraction speed 6.3 X
     Range quality 100.0 %
     Test CRC AD0AF117
     Copy CRC AD0AF117
     Copy OK
No errors occurred
AccurateRip summary
Track  1  not present in database
Track  2  not present in database
Track  3  not present in database
Track  4  not present in database
Track  5  not present in database
Track  6  not present in database
Track  7  not present in database
Track  8  not present in database
Track  9  not present in database
Track 10  not present in database
Track 11  not present in database
Track 12  not present in database
None of the tracks are present in the AccurateRip database
End of status report
---- CUETools DB Plugin V2.1.4
[CTDB TOCID: 3jwYznhK9SFOWKpxFfszRSI88Wo-] found
Submit result: 3jwYznhK9SFOWKpxFfszRSI88Wo- has been confirmed
Track | CTDB Status
  1   | (1/1) Accurately ripped
  2   | (1/1) Accurately ripped
  3   | (1/1) Accurately ripped
  4   | (1/1) Accurately ripped
  5   | (1/1) Accurately ripped
  6   | (1/1) Accurately ripped
  7   | (1/1) Accurately ripped
  8   | (1/1) Accurately ripped
  9   | (1/1) Accurately ripped
10   | (1/1) Accurately ripped
11   | (1/1) Accurately ripped
12   | (1/1) Accurately ripped

Back, CD, CD Matrix

-
[Профиль] [ЛС]
Показать сообщения:    

Текущее время: Сегодня 02:39

Часовой пояс: GMT



Вы не можете начинать темы
Вы не можете отвечать на сообщения
Вы не можете редактировать свои сообщения
Вы не можете удалять свои сообщения
Вы не можете голосовать в опросах
Вы не можете прикреплять файлы к сообщениям
Вы не можете скачивать файлы