(Hard Rock)Ted Nugent - Shutup & Jam! (2014),FLAC(image+cue), Lossless

 
Автор Сообщение

sergej644 ®

Пол:

Стаж: 4 года 11 месяцев

Сообщений: 6046

Откуда: Soviet Union



Награды: Нет

Торрент-статистика

Создавать темы 30-Май-2015 11:43

[Цитировать]

-Ted Nugent - Shutup & Jam! (2014)- Год: 2014
Жанр: Hard Rock
Label& Catalog#: Frontiers Records - FR CD 653S
Продолжительность: 00:49:44
Кодек: FLAC [image+cue]
Битрейт: Lossless
Треклист:
01. Shutup & Jam! (2:53)
02. Fear Itself (4:40)
03. Everything Matters (3:19)
04. She's Gone (2:58 )
05. Never Stop Believe (6:10)
06. I Still Bellive (3:43)
07. I Love My Bbq(2:51)
08. Throttledown (2:52)
09. Do-Rags And A .45 (2:12)
10. Screaming Eagles (2:52)
11. Semper Fi (2:36)
12. Trample The Weak Hurdle The Dead (3:27)
13. Never Stop Believing (blues) (6:14)
14. Johnny B. Goode Forever (bonus track BEST BUY) (2:57)

cue:

REM GENRE "Southern Rock"
REM DATE 2014
REM DISCID B50BB10E
REM COMMENT "ExactAudioCopy v1.0b3"
PERFORMER "Ted Nugent"
TITLE "Shutup&jam!"
FILE "Ted Nugent - Shutup&jam!.flac" WAVE
  TRACK 01 AUDIO
    TITLE "Shutup&jam!"
    PERFORMER "Ted Nugent"
    INDEX 01 00:00:00
  TRACK 02 AUDIO
    TITLE "Fear Itself"
    PERFORMER "Ted Nugent"
    INDEX 01 02:53:51
  TRACK 03 AUDIO
    TITLE "Everything Matters"
    PERFORMER "Ted Nugent"
    INDEX 01 07:33:52
  TRACK 04 AUDIO
    TITLE "She's Gone"
    PERFORMER "Ted Nugent"
    INDEX 01 10:53:27
  TRACK 05 AUDIO
    TITLE "Never Stop Believing"
    PERFORMER "Ted Nugent"
    INDEX 01 13:51:74
  TRACK 06 AUDIO
    TITLE "I Still Believe"
    PERFORMER "Ted Nugent"
    INDEX 01 20:02:47
  TRACK 07 AUDIO
    TITLE "I Love My Bbq"
    PERFORMER "Ted Nugent"
    INDEX 01 23:46:37
  TRACK 08 AUDIO
    TITLE "Throttledown"
    PERFORMER "Ted Nugent"
    INDEX 01 26:38:20
  TRACK 09 AUDIO
    TITLE "Do-Rags And A .45"
    PERFORMER "Ted Nugent"
    INDEX 01 29:31:16
  TRACK 10 AUDIO
    TITLE "Screaming Eagles"
    PERFORMER "Ted Nugent"
    INDEX 01 31:44:13
  TRACK 11 AUDIO
    TITLE "Semper Fi"
    PERFORMER "Ted Nugent"
    INDEX 01 34:36:33
  TRACK 12 AUDIO
    TITLE "Trample The Weak Hurdle The Dead"
    PERFORMER "Ted Nugent"
    INDEX 01 37:13:23
  TRACK 13 AUDIO
    TITLE "Never Stop Believing (blues)"
    PERFORMER "Ted Nugent"
    INDEX 01 40:40:72
  TRACK 14 AUDIO
    TITLE "Johnny B. Goode Forever"
    PERFORMER "Ted Nugent"
    INDEX 01 46:55:36

Отчёт ЕАС:

Exact Audio Copy V1.0 beta 3 from 29. August 2011
EAC extraction logfile from 7. May 2015, 1:06
Ted Nugent / Shutup&jam!
Used drive  : PIONEER BD-RW   BDR-TD03   Adapter: 0  ID: 1
Read mode               : Secure
Utilize accurate stream : Yes
Defeat audio cache      : Yes
Make use of C2 pointers : No
Read offset correction                      : 667
Overread into Lead-In and Lead-Out          : No
Fill up missing offset samples with silence : Yes
Delete leading and trailing silent blocks   : No
Null samples used in CRC calculations       : Yes
Used interface                              : Native Win32 interface for Win NT & 2000
Used output format              : User Defined Encoder
Selected bitrate                : 768 kBit/s
Quality                         : High
Add ID3 tag                     : No
Command line compressor         : C:\Program Files (x86)\Exact Audio Copy\FLAC\FLAC.EXE
Additional command line options : -6 -V -T "ARTIST=%artist%" -T "TITLE=%title%" -T "ALBUM=%albumtitle%" -T "DATE=%year%" -T "TRACKNUMBER=%tracknr%" -T "GENRE=%genre%" -T "COMMENT=%comment%" -T "BAND=%albuminterpret%" -T "ALBUMARTIST=%albuminterpret%" -T "COMPOSER=%composer%" %haslyrics%--tag-from-file=LYRICS="%lyricsfile%"%haslyrics% -T "DISCNUMBER=%cdnumber%" -T "TOTALDISCS=%totalcds%" -T "TOTALTRACKS=%numtracks%" %hascover%--picture="%coverfile%"%hascover% %source% -o %dest%
TOC of the extracted CD
     Track |   Start  |  Length  | Start sector | End sector
    ---------------------------------------------------------
        1  |  0:00.00 |  2:53.51 |         0    |    13025
        2  |  2:53.51 |  4:40.01 |     13026    |    34026
        3  |  7:33.52 |  3:19.50 |     34027    |    49001
        4  | 10:53.27 |  2:58.47 |     49002    |    62398
        5  | 13:51.74 |  6:10.48 |     62399    |    90196
        6  | 20:02.47 |  3:43.65 |     90197    |   106986
        7  | 23:46.37 |  2:51.58 |    106987    |   119869
        8  | 26:38.20 |  2:52.71 |    119870    |   132840
        9  | 29:31.16 |  2:12.72 |    132841    |   142812
       10  | 31:44.13 |  2:52.20 |    142813    |   155732
       11  | 34:36.33 |  2:36.65 |    155733    |   167497
       12  | 37:13.23 |  3:27.49 |    167498    |   183071
       13  | 40:40.72 |  6:14.39 |    183072    |   211160
       14  | 46:55.36 |  2:57.66 |    211161    |   224501
Range status and errors
Selected range
     Filename C:\Users\Deris\Desktop\4nuga1\Ted Nugent - Shutup&jam!.wav
     Peak level 100.0 %
     Extraction speed 4.5 X
     Range quality 99.9 %
     Test CRC 0FBBDF44
     Copy CRC 0FBBDF44
     Copy OK
No errors occurred
AccurateRip summary
Track  1  accurately ripped (confidence 2)  [F8D0E010]  (AR v2)
Track  2  accurately ripped (confidence 2)  [8EA5EC4A]  (AR v2)
Track  3  accurately ripped (confidence 2)  [1CD05E4E]  (AR v2)
Track  4  accurately ripped (confidence 2)  [010CC07C]  (AR v2)
Track  5  accurately ripped (confidence 2)  [8AFA8709]  (AR v2)
Track  6  accurately ripped (confidence 2)  [040A4008]  (AR v2)
Track  7  accurately ripped (confidence 2)  [604C8F50]  (AR v2)
Track  8  accurately ripped (confidence 2)  [DF5227F8]  (AR v2)
Track  9  accurately ripped (confidence 2)  [8DAB99ED]  (AR v2)
Track 10  accurately ripped (confidence 2)  [2AA4E23B]  (AR v2)
Track 11  accurately ripped (confidence 2)  [4580621C]  (AR v2)
Track 12  accurately ripped (confidence 2)  [A5B1EC87]  (AR v2)
Track 13  accurately ripped (confidence 2)  [C55E03EC]  (AR v2)
Track 14  accurately ripped (confidence 2)  [A3A55D44]  (AR v2)
All tracks accurately ripped
End of status report
---- CUETools DB Plugin V2.1.3
[CTDB TOCID: DYYBmdJwD8pwrP33lIFDEhDUQ_w-] disk not present in database, Submit result: DYYBmdJwD8pwrP33lIFDEhDUQ_w- has been uploaded
==== Log checksum B283C76CF43CEA3A5888BA07A9CD194A7EF50CC76420D1B2176B40B76C20D277 ====

Отчёт AUDIOCHECKER:

AUDIOCHECKER v2.0 beta (build 457) - by Dester - [url=mailto:opdester@freemail.hu]opdester@freemail.hu[/url]
~~~~~~~~~~~~~~~~~~~~~~~~~~~~~~~~~~
-=== DO NOT EDIT THIS FILE! ===-
Path: ...\Ted Nugent - Shutup&Jam! (Best Buy Special Edition) - 2014 [FLAC]
1 -=- Ted Nugent - Shutup&jam!.flac -=- CDDA (100%)
210260708
--
[Профиль] [ЛС]
Показать сообщения:    

Текущее время: Сегодня 06:24

Часовой пояс: GMT



Вы не можете начинать темы
Вы не можете отвечать на сообщения
Вы не можете редактировать свои сообщения
Вы не можете удалять свои сообщения
Вы не можете голосовать в опросах
Вы не можете прикреплять файлы к сообщениям
Вы не можете скачивать файлы