Teach In - 2 Альбома (1977,1979) [FLAC|Lossless]<Disco, Pop>

 
Автор Сообщение

sergej644 ®

Пол:

Стаж: 4 года 11 месяцев

Сообщений: 6040

Откуда: Soviet Union



Награды: Нет

Торрент-статистика

Создавать темы 24-Дек-2014 23:50

[Цитировать]

-Teach In - 2 Альбома (1977,1979)-
Год: 1977,1979 | Жанр: Disco, Pop | Продолжительность: 01:17:37
Кодек: FLAC (image+ .cue) | Битрейт: Lossless

Дополнительная информация&#58;

Издания, судя по всему, неофициальные, но сделаны качественно.

1977 - See The Sun

Треклист:
01. See The Sun
02. My Rock And Roll Song
03. Our Story
04. Keep On Dancing
05. What Is Love
06. Shake A Hand
07. Upside Down
08. Singing Every Day
09. Please Come Home
10. A Ride In The Nigpt
11. Wonderful Feeling
12. All Around
Продолжительность - 00:40:47

Отчёт ЕАС&#58;

Exact Audio Copy V1.0 beta 3 from 29. August 2011
Отчёт EAC об извлечении, выполненном 30. декабря 2013, 20:39
Teach In / See The Sun
Дисковод: PLEXTOR DVDR   PX-750A   Adapter: 1  ID: 1
Режим чтения                 : Достоверность
Использование точного потока : Да
Отключение кэша аудио        : Да
Использование указателей C2  : Нет
Коррекция смещения при чтении                     : 102
Способность читать области Lead-in и Lead-out     : Нет
Заполнение пропущенных сэмплов тишиной            : Да
Удаление блоков с тишиной в начале и конце        : Нет
При вычислениях CRC использовались нулевые сэмплы : Да
Интерфейс                                         : Встроенный Win32-интерфейс для Win NT/2000
Выходной формат          : Пользовательский кодировщик
Выбранный битрейт        : 896 kBit/s
Качество                 : Высокий
Добавление ID3-тега      : Да
Утилита сжатия           : C:\Program Files\Exact Audio Copy\FLAC\FLAC.EXE
Дополнительные параметры : -6 -V -T "ARTIST=%artist%" -T "TITLE=%title%" -T "ALBUM=%albumtitle%" -T "DATE=%year%" -T "TRACKNUMBER=%tracknr%" -T "GENRE=%genre%" -T "COMMENT=%comment%" -T "BAND=%albuminterpret%" -T "ALBUMARTIST=%albuminterpret%" -T "COMPOSER=%composer%" %haslyrics%--tag-from-file=LYRICS="%lyricsfile%"%haslyrics% -T "DISCNUMBER=%cdnumber%" -T "TOTALDISCS=%totalcds%" -T "TOTALTRACKS=%numtracks%" %hascover%--picture="%coverfile%"%hascover% %source% -o %dest%
TOC извлечённого CD
     Трек |   Старт  | Длительность | Начальный сектор | Конечный сектор
    ---------------------------------------------------------------------
       1  |  0:00.00 |    3:17.27   |           0      |      14801
       2  |  3:17.27 |    2:59.54   |       14802      |      28280
       3  |  6:17.06 |    3:54.53   |       28281      |      45883
       4  | 10:11.59 |    3:22.07   |       45884      |      61040
       5  | 13:33.66 |    3:54.25   |       61041      |      78615
       6  | 17:28.16 |    4:21.13   |       78616      |      98203
       7  | 21:49.29 |    2:39.63   |       98204      |     110191
       8  | 24:29.17 |    3:16.19   |      110192      |     124910
       9  | 27:45.36 |    2:49.23   |      124911      |     137608
      10  | 30:34.59 |    3:26.21   |      137609      |     153079
      11  | 34:01.05 |    3:17.48   |      153080      |     167902
      12  | 37:18.53 |    3:29.05   |      167903      |     183582
Характеристики диапазона извлечения и сообщения об ошибках
Выбранный диапазон
     Имя файла C:\Documents and Settings\Admin\Рабочий стол\Teach In - See The Sun - 1977 - 41'00''\Teach In - See The Sun.wav
     Пиковый уровень 100.0 %
     Скорость извлечения 6.9 X
     Качество диапазона 100.0 %
     CRC теста 7710C068
     CRC копии 7710C068
     Копирование... OK
Ошибок не произошло
Конец отчёта
==== Контрольная сумма отчёта 7EE72BECA8598A10D5EA6DF32B3E1574503DC34E70D97F6950B5BF2F579E3375 ====

Отчёт auCDtectTaskManager&#58;

-----------------------
DON'T MODIFY THIS FILE
-----------------------
PERFORMER: auCDtect Task Manager, ver. 1.5.1RC4 build 1.5.1.5
Copyright (c) 2008-2010 y-soft. All rights reserved
http://y-soft.org
ANALYZER: auCDtect: CD records authenticity detector, version 0.8.2
Copyright (c) 2004 Oleg Berngardt. All rights reserved.
Copyright (c) 2004 Alexander Djourik. All rights reserved.
FILE: Teach In - See The Sun.flac
  Size: 277380744 Hash: 56A90759908E7BB6C32D4F0161EEB32F Accuracy: -m0
  Conclusion: CDDA 100%
  Signature: 2941974B7B0F8B7F75C06DB832317A3414B2D7C7

Содержимое индексной карты&#58;

REM GENRE Pop
REM DATE 1977
REM DISCID 90098F0C
REM COMMENT "ExactAudioCopy v1.0b3"
PERFORMER "Teach In"
TITLE "See The Sun"
FILE "Teach In - See The Sun.flac" WAVE
  TRACK 01 AUDIO
    TITLE "See The Sun"
    PERFORMER "Teach In"
    FLAGS DCP
    INDEX 01 00:00:00
  TRACK 02 AUDIO
    TITLE "My Rock And Roll Song"
    PERFORMER "Teach In"
    FLAGS DCP
    INDEX 01 03:17:27
  TRACK 03 AUDIO
    TITLE "Our Story"
    PERFORMER "Teach In"
    FLAGS DCP
    INDEX 01 06:17:06
  TRACK 04 AUDIO
    TITLE "Keep On Dancing"
    PERFORMER "Teach In"
    FLAGS DCP
    INDEX 01 10:11:59
  TRACK 05 AUDIO
    TITLE "What Is Love"
    PERFORMER "Teach In"
    FLAGS DCP
    INDEX 01 13:33:66
  TRACK 06 AUDIO
    TITLE "Shake A Hand"
    PERFORMER "Teach In"
    FLAGS DCP
    INDEX 01 17:28:16
  TRACK 07 AUDIO
    TITLE "Upside Down"
    PERFORMER "Teach In"
    FLAGS DCP
    INDEX 01 21:49:29
  TRACK 08 AUDIO
    TITLE "Singing Every Day"
    PERFORMER "Teach In"
    FLAGS DCP
    INDEX 01 24:29:17
  TRACK 09 AUDIO
    TITLE "Please Come Home"
    PERFORMER "Teach In"
    FLAGS DCP
    INDEX 01 27:45:36
  TRACK 10 AUDIO
    TITLE "A Ride In The Nigpt"
    PERFORMER "Teach In"
    FLAGS DCP
    INDEX 01 30:34:59
  TRACK 11 AUDIO
    TITLE "Wonderful Feeling"
    PERFORMER "Teach In"
    FLAGS DCP
    INDEX 01 34:01:05
  TRACK 12 AUDIO
    TITLE "All Around"
    PERFORMER "Teach In"
    FLAGS DCP
    INDEX 01 37:18:53

1979 - Teach In

Треклист:
01. I'm Gonna Love You
02. Dear John
03. Welcome Back
04. Sometimes
05. Suntan
06. Greenpeace
07. We Need Music
08. Here I'm Coming
09. Remembering
10. The Robot
11. Are You Ready Now
Продолжительность - 00:36:50

Отчёт ЕАС&#58;

Exact Audio Copy V1.0 beta 3 from 29. August 2011
Отчёт EAC об извлечении, выполненном 30. декабря 2013, 21:33
Teach In / Teach In
Дисковод: PLEXTOR DVDR   PX-750A   Adapter: 1  ID: 1
Режим чтения                 : Достоверность
Использование точного потока : Да
Отключение кэша аудио        : Да
Использование указателей C2  : Нет
Коррекция смещения при чтении                     : 102
Способность читать области Lead-in и Lead-out     : Нет
Заполнение пропущенных сэмплов тишиной            : Да
Удаление блоков с тишиной в начале и конце        : Нет
При вычислениях CRC использовались нулевые сэмплы : Да
Интерфейс                                         : Встроенный Win32-интерфейс для Win NT/2000
Выходной формат          : Пользовательский кодировщик
Выбранный битрейт        : 896 kBit/s
Качество                 : Высокий
Добавление ID3-тега      : Да
Утилита сжатия           : C:\Program Files\Exact Audio Copy\FLAC\FLAC.EXE
Дополнительные параметры : -6 -V -T "ARTIST=%artist%" -T "TITLE=%title%" -T "ALBUM=%albumtitle%" -T "DATE=%year%" -T "TRACKNUMBER=%tracknr%" -T "GENRE=%genre%" -T "COMMENT=%comment%" -T "BAND=%albuminterpret%" -T "ALBUMARTIST=%albuminterpret%" -T "COMPOSER=%composer%" %haslyrics%--tag-from-file=LYRICS="%lyricsfile%"%haslyrics% -T "DISCNUMBER=%cdnumber%" -T "TOTALDISCS=%totalcds%" -T "TOTALTRACKS=%numtracks%" %hascover%--picture="%coverfile%"%hascover% %source% -o %dest%
TOC извлечённого CD
     Трек |   Старт  | Длительность | Начальный сектор | Конечный сектор
    ---------------------------------------------------------------------
       1  |  0:00.00 |    0:55.47   |           0      |       4171
       2  |  0:55.47 |    3:16.53   |        4172      |      18924
       3  |  4:12.25 |    2:28.59   |       18925      |      30083
       4  |  6:41.09 |    5:48.57   |       30084      |      56240
       5  | 12:29.66 |    2:13.56   |       56241      |      66271
       6  | 14:43.47 |    3:52.63   |       66272      |      83734
       7  | 18:36.35 |    3:32.52   |       83735      |      99686
       8  | 22:09.12 |    4:19.24   |       99687      |     119135
       9  | 26:28.36 |    3:30.55   |      119136      |     134940
      10  | 29:59.16 |    2:56.35   |      134941      |     148175
      11  | 32:55.51 |    3:54.48   |      148176      |     165773
Характеристики диапазона извлечения и сообщения об ошибках
Выбранный диапазон
     Имя файла C:\Documents and Settings\Admin\Рабочий стол\Teach In - Teach In - 1979 - 36'52''\Teach In - Teach In.wav
     Пиковый уровень 100.0 %
     Скорость извлечения 6.7 X
     Качество диапазона 100.0 %
     CRC теста C7805EC6
     CRC копии C7805EC6
     Копирование... OK
Ошибок не произошло
Конец отчёта
==== Контрольная сумма отчёта 51D4F633BE1D45785CA99AECCC4B81061C74C41DD3321624D566AE5671F95370 ====

Отчёт auCDtectTaskManager&#58;

-----------------------
DON'T MODIFY THIS FILE
-----------------------
PERFORMER: auCDtect Task Manager, ver. 1.5.1RC4 build 1.5.1.5
Copyright (c) 2008-2010 y-soft. All rights reserved
http://y-soft.org
ANALYZER: auCDtect: CD records authenticity detector, version 0.8.2
Copyright (c) 2004 Oleg Berngardt. All rights reserved.
Copyright (c) 2004 Alexander Djourik. All rights reserved.
FILE: Teach In - Teach In.flac
  Size: 252467994 Hash: 472839B02D96861F36D61B728F8493FC Accuracy: -m0
  Conclusion: CDDA 100%
  Signature: 4BB652A7A44ABC753469F8F163B3701EC62206A8

Содержимое индексной карты&#58;

REM GENRE Pop
REM DATE 1979
REM DISCID 8608A20B
REM COMMENT "ExactAudioCopy v1.0b3"
PERFORMER "Teach In"
TITLE "Teach In"
FILE "Teach In - Teach In.flac" WAVE
  TRACK 01 AUDIO
    TITLE "I'm Gonna Love You"
    PERFORMER "Teach In"
    FLAGS DCP
    INDEX 01 00:00:00
  TRACK 02 AUDIO
    TITLE "Dear John"
    PERFORMER "Teach In"
    FLAGS DCP
    INDEX 01 00:55:47
  TRACK 03 AUDIO
    TITLE "Welcome Back"
    PERFORMER "Teach In"
    FLAGS DCP
    INDEX 01 04:12:25
  TRACK 04 AUDIO
    TITLE "Sometimes"
    PERFORMER "Teach In"
    FLAGS DCP
    INDEX 01 06:41:09
  TRACK 05 AUDIO
    TITLE "Suntan"
    PERFORMER "Teach In"
    FLAGS DCP
    INDEX 01 12:29:66
  TRACK 06 AUDIO
    TITLE "Greenpeace"
    PERFORMER "Teach In"
    FLAGS DCP
    INDEX 01 14:43:47
  TRACK 07 AUDIO
    TITLE "We Need Music"
    PERFORMER "Teach In"
    FLAGS DCP
    INDEX 01 18:36:35
  TRACK 08 AUDIO
    TITLE "Here I'm Coming"
    PERFORMER "Teach In"
    FLAGS DCP
    INDEX 01 22:09:12
  TRACK 09 AUDIO
    TITLE "Remembering"
    PERFORMER "Teach In"
    FLAGS DCP
    INDEX 01 26:28:36
  TRACK 10 AUDIO
    TITLE "The Robot"
    PERFORMER "Teach In"
    FLAGS DCP
    INDEX 01 29:59:16
  TRACK 11 AUDIO
    TITLE "Are You Ready Now"
    PERFORMER "Teach In"
    FLAGS DCP
    INDEX 01 32:55:51
Спасибо RedHotBlues
Время раздачи: С 15:00 до 08:00 Мск., до 5-ти сидирующих
[Профиль] [ЛС]

Создавать темы 13-Авг-2015 10:41 (спустя 7 месяцев 19 дней)

Топик был перенесен из форума Зарубежная в форум Technopop, Eurodance, Disco
sergej644
 
Кто просматривает тему:

Показать сообщения:    

Текущее время: Сегодня 10:52

Часовой пояс: GMT



Вы не можете начинать темы
Вы не можете отвечать на сообщения
Вы не можете редактировать свои сообщения
Вы не можете удалять свои сообщения
Вы не можете голосовать в опросах
Вы не можете прикреплять файлы к сообщениям
Вы не можете скачивать файлы