T. Ark - H.A.P.P.Y. Radio (The 12" Maxi-Singles Collection) (2010) Limited Edition [FLAC|Lossless]<Italo-Disco>

 
Автор Сообщение

sergej644 ®

Пол:

Стаж: 4 года 11 месяцев

Сообщений: 6041

Откуда: Soviet Union



Награды: Нет

Торрент-статистика

Создавать темы 24-Дек-2014 22:38

[Цитировать]

-T. Ark - H.A.P.P.Y. Radio (2010)- Год: 2010
Лейбл: ESonCD
Каталог #: 201003-2
Жанр: Italo-Disco
Продолжительность: 01:09:10
Кодек: FLAC
Битрейт: Lossless
Тип битрейта: image +.cue
Треклист:
01. Under Cover Lover (Extended Version) 6:13
02. Count On Me (Extended Version) 6:31
03. How Old Are You (Mixed By Luis Rodriguez) 6:36
04. Move It 4:34
05. Carry Me (Maxi Version) 5:05
06. H.A.P.P.Y. Radio (Extended Version) 6:20
07. Count On Me (Instrumental Dub Version) 5:09
08. Under Cover Lover (Instrumental) 5:35
09. Count On Me (Single Version) 3:57
10. Under Cover Lover (Radio Version) 3:41
11. Carry Me (Radio Version) 3:13
12. Megamix (Mixed By D.J.CD-Info) 4:48
13. H.A.P.P.Y. Radio (Instrumental) 4:07
14. Peace, Grace And A Serious Bass 3:21

Отчёт ЕАС&#58;

Exact Audio Copy V0.99 prebeta 5 from 4. May 2009
Отчёт EAC об извлечении, выполненном 1. сентября 2010, 19:39
T.Ark / H.A.P.P.Y. Radio
Дисковод: Optiarc DVD RW AD-5200A Adapter: 0 ID: 0
Режим чтения : Достоверность
Использование точного потока : Да
Отключение кэша аудио : Да
Использование указателей C2 : Нет
Коррекция смещения при чтении : 48
Способность читать области Lead-in и Lead-out : Нет
Заполнение пропущенных сэмплов тишиной : Да
Удаление блоков с тишиной в начале и конце : Нет
При вычислениях CRC использовались нулевые сэмплы : Да
Интерфейс : Встроенный Win32-интерфейс для Win NT/2000
Выходной формат : Внутренние WAV-операции
Формат сэмплов : 44.100 Гц; 16 бит; стерео
TOC извлечённого CD
Трек | Старт | Длительность | Начальный сектор | Конечный сектор
---------------------------------------------------------------------
1 | 0:00.00 | 6:12.49 | 0 | 27948
2 | 6:12.49 | 6:30.73 | 27949 | 57271
3 | 12:43.47 | 6:36.29 | 57272 | 87000
4 | 19:20.01 | 4:34.05 | 87001 | 107555
5 | 23:54.06 | 5:04.63 | 107556 | 130418
6 | 28:58.69 | 6:20.31 | 130419 | 158949
7 | 35:19.25 | 5:09.27 | 158950 | 182151
8 | 40:28.52 | 5:34.67 | 182152 | 207268
9 | 46:03.44 | 3:56.69 | 207269 | 225037
10 | 50:00.38 | 3:41.12 | 225038 | 241624
11 | 53:41.50 | 3:12.60 | 241625 | 256084
12 | 56:54.35 | 4:47.48 | 256085 | 277657
13 | 61:42.08 | 4:07.05 | 277658 | 296187
14 | 65:49.13 | 3:21.02 | 296188 | 311264
Характеристики диапазона извлечения и сообщения об ошибках
Выбранный диапазон
Имя файла D:\All\Music\! T.Ark - H.A.P.P.Y. Radio (ESonCD)\T.Ark - H.A.P.P.Y. Radio.wav
Пиковый уровень 100.0 %
Качество диапазона 100.0 %
CRC теста BD17B3D7
CRC копии BD17B3D7
Копирование... OK
Ошибок не произошло
AccurateRip: сводка
Трек 1 нет в базе данных
Трек 2 нет в базе данных
Трек 3 нет в базе данных
Трек 4 нет в базе данных
Трек 5 нет в базе данных
Трек 6 нет в базе данных
Трек 7 нет в базе данных
Трек 8 нет в базе данных
Трек 9 нет в базе данных
Трек 10 нет в базе данных
Трек 11 нет в базе данных
Трек 12 нет в базе данных
Трек 13 нет в базе данных
Трек 14 нет в базе данных
Ни одного трека нет в базе AccurateRip
Конец отчёта

Отчёт auCDtect Task manager&#58;

-----------------------
DON'T MODIFY THIS FILE
-----------------------
PERFORMER: auCDtect Task Manager, ver. 1.5.1RC4 build 1.5.1.5
Copyright (c) 2008-2010 y-soft. All rights reserved
http://y-soft.org
ANALYZER: auCDtect: CD records authenticity detector, version 0.8.2
Copyright (c) 2004 Oleg Berngardt. All rights reserved.
Copyright (c) 2004 Alexander Djourik. All rights reserved.
FILE: T.Ark - H.A.P.P.Y. Radio.flac
  Size: 521335705 Hash: A88001CADEC9123694728BF3E8E25645 Accuracy: -m0
  Conclusion: CDDA 100%
  Signature: 837632390570E7DCBA37CC43F4A7ED3978723BD6

Содержание индексной карты (.CUE&#41;&#58;

REM GENRE Italo-Disco
REM DATE 2010
REM DISCID A610360E
REM COMMENT "ExactAudioCopy v0.99pb5"
PERFORMER "T.Ark"
TITLE "H.A.P.P.Y. Radio"
FILE "T.Ark - H.A.P.P.Y. Radio.flac" WAVE
  TRACK 01 AUDIO
    TITLE "Under Cover Lover (Extended Version)"
    PERFORMER "T.Ark"
    FLAGS DCP
    INDEX 01 00:00:00
  TRACK 02 AUDIO
    TITLE "Count On Me (Extended Version)"
    PERFORMER "T.Ark"
    FLAGS DCP
    INDEX 01 06:12:49
  TRACK 03 AUDIO
    TITLE "How Old Are You (Mixed By Luis Rodriguez)"
    PERFORMER "T.Ark"
    FLAGS DCP
    INDEX 01 12:43:47
  TRACK 04 AUDIO
    TITLE "Move It"
    PERFORMER "T.Ark"
    FLAGS DCP
    INDEX 01 19:20:01
  TRACK 05 AUDIO
    TITLE "Carry Me (Maxi Version)"
    PERFORMER "T.Ark"
    FLAGS DCP
    INDEX 01 23:54:06
  TRACK 06 AUDIO
    TITLE "H.A.P.P.Y. Radio (Extended Version)"
    PERFORMER "T.Ark"
    FLAGS DCP
    INDEX 01 28:58:69
  TRACK 07 AUDIO
    TITLE "Count On Me (Instrumental Dub Version)"
    PERFORMER "T.Ark"
    FLAGS DCP
    INDEX 01 35:19:25
  TRACK 08 AUDIO
    TITLE "Under Cover Lover (Instrumental)"
    PERFORMER "T.Ark"
    FLAGS DCP
    INDEX 01 40:28:52
  TRACK 09 AUDIO
    TITLE "Count On Me (Single Version)"
    PERFORMER "T.Ark"
    FLAGS DCP
    INDEX 01 46:03:44
  TRACK 10 AUDIO
    TITLE "Under Cover Lover (Radio Version)"
    PERFORMER "T.Ark"
    FLAGS DCP
    INDEX 01 50:00:38
  TRACK 11 AUDIO
    TITLE "Carry Me (Radio Version)"
    PERFORMER "T.Ark"
    FLAGS DCP
    INDEX 01 53:41:50
  TRACK 12 AUDIO
    TITLE "Megamix (Mixed By D.J.CD-Info)"
    PERFORMER "T.Ark"
    FLAGS DCP
    INDEX 01 56:54:35
  TRACK 13 AUDIO
    TITLE "H.A.P.P.Y. Radio (Instrumental)"
    PERFORMER "T.Ark"
    FLAGS DCP
    INDEX 01 61:42:08
  TRACK 14 AUDIO
    TITLE "Peace, Grace And A Serious Bass"
    PERFORMER "T.Ark"
    FLAGS DCP
    INDEX 01 65:49:13
[Профиль] [ЛС]

Создавать темы 13-Авг-2015 10:44 (спустя 7 месяцев 20 дней)

Топик был перенесен из форума Зарубежная в форум Technopop, Eurodance, Disco
sergej644
 
Кто просматривает тему:

Показать сообщения:    

Текущее время: Сегодня 12:51

Часовой пояс: GMT



Вы не можете начинать темы
Вы не можете отвечать на сообщения
Вы не можете редактировать свои сообщения
Вы не можете удалять свои сообщения
Вы не можете голосовать в опросах
Вы не можете прикреплять файлы к сообщениям
Вы не можете скачивать файлы