TУ - 124. Посадка на Неву (Роман Новолокин) [2015, Документальный, HDTV 1080i]

 
Автор Сообщение

TorrentFilm ®

Пол:

Стаж: 2 года

Сообщений: 7741



Награды: Нет

Торрент-статистика

Создавать темы 10-Фев-2015 00:00

[Цитировать]

TУ - 124. Посадка на Неву
Год выпуска: 2015
Страна: Россия
Жанр: Документальный
Продолжительность: 00:52:06
Перевод: Не требуется
Режиссер: Роман Новолокин
Описание: В нашем фильме мы расскажем, как пассажирский самолет, терпевший бедствие, сел на воду в самом центре Санкт-Петербурга! Первое в мировой практике приводнение пассажирского самолета! До недавних пор все данные о происшествии были засекречены. Детали можно было узнать только у свидетелей, которых мы разыскивали несколько месяцев. Это произошло 21 августа 1963 года. В тот день планировался обычный рейс - из Таллинна в Москву. На борту - 44 пассажира и 6 членов экипажа. Но через минуту после взлета техник замечает, что передняя стойка шасси убралась не полностью, осталась в полусогнутом положении - ее заклинило. Капитан Ту-124 Виктор Мостовой передает диспетчеру о неполадке. В ответ слышит: готовьтесь к аварийной посадке. Обычно в такой ситуации борт возвращается обратно в аэропорт, пока не поздно. Но в Таллине из-за тумана плохая видимость. Поэтому диспетчеры отправляют самолет в ближайший город, где есть аварийная полоса и летная погода. Им оказывается Ленинград.
Качество: HDTV 1080i
Формат: TS
Видео кодек: H.264
Аудио кодек: MPEG Audio. AC-3
Видео: MPEG4 Video (H264) 1920x1080, ~ 4032 Кбит/сек, 25.00fps 0.078 bit/pixel
Аудио#1: MPEG Audio, 2 канала, 48,0 КГц, ~128 kbps
Аудио#1: AC-3, 6 канала, 48,0 КГц, ~192 kbps
Раздача группы:
Отдельное спасибо zrjhmvyt за предоставление материала.

MI

ОбщееИдентификатор : 1 (0x1)Полное имя : F:\Posadka.na.Nevu.2015.HDTV.(1080i).ExKinoRay.tsФормат : MPEG-TSРазмер файла : 1,67 ГбайтПродолжительность : 52 м.Общий поток : 4581 Кбит/сек
ВидеоИдентификатор : 256 (0x100)Идентификатор меню : 1 (0x1)Формат : AVCФормат/Информация : Advanced Video CodecПрофиль формата : High@L4.0Параметр CABAC формата : ДаПараметр ReFrames формата : 4 кадраИдентификатор кодека : 27Продолжительность : 52 м.Битрейт : 4032 Кбит/секШирина : 1920 пикс.Высота : 1080 пикс.Соотношение сторон : 16:9Частота кадров : 25,000 кадр/секЦветовое пространство : YUVПодвыборка цветности : 4:2:0Битовая глубина : 8 битТип развёртки : ЧересстрочнаяПорядок развёртки : Верхнее поле первоеБит/(Пиксели*Кадры) : 0.078Размер потока : 1,47 Гбайт (88%)Основные цвета : BT.709-5, BT.1361, IEC 61966-2-4, SMPTE RP177Характеристики трансфера : BT.709-5, BT.1361Коэффициенты матрицы : BT.709-5, BT.1361, IEC 61966-2-4 709, SMPTE RP177
Аудио #1Идентификатор : 257 (0x101)Идентификатор меню : 1 (0x1)Формат : AC-3Формат/Информация : Audio Coding 3Расширение режима : CM (complete main)Идентификатор кодека : 129Продолжительность : 52 м.Вид битрейта : ПостоянныйБитрейт : 192 Кбит/секКаналы : 6 каналовРасположение каналов : Front: L C R, Side: L R, LFEЧастота : 48,0 КГцБитовая глубина : 16 битМетод сжатия : С потерямиЗадержка видео : -200 мс.Размер потока : 71,7 Мбайт (4%)
Аудио #2Идентификатор : 258 (0x102)Идентификатор меню : 1 (0x1)Формат : MPEG AudioВерсия формата : Version 1Профиль формата : Layer 2Идентификатор кодека : 3Продолжительность : 52 м.Вид битрейта : ПостоянныйБитрейт : 128 Кбит/секКаналы : 2 каналаЧастота : 48,0 КГцМетод сжатия : С потерямиЗадержка видео : 22 мс.Размер потока : 47,8 Мбайт (3%)

Скриншоты


[Профиль] [ЛС]
Кто просматривает тему:

Показать сообщения:    

Текущее время: Сегодня 10:00

Часовой пояс: GMT



Вы не можете начинать темы
Вы не можете отвечать на сообщения
Вы не можете редактировать свои сообщения
Вы не можете удалять свои сообщения
Вы не можете голосовать в опросах
Вы не можете прикреплять файлы к сообщениям
Вы не можете скачивать файлы