(Rock,Rock'n'Roll) Suzi Quatro - The Girl From Detroit City (4CD, Cherry Red, EU, France) (4CD) - 2014, FLAC (image + .cue), lossless

 
Автор Сообщение

sergej644 ®

Пол:

Стаж: 4 года 11 месяцев

Сообщений: 6046

Откуда: Soviet Union



Награды: Нет

Торрент-статистика

Создавать темы 01-Дек-2014 16:43

[Цитировать]

--Suzi Quatro - The Girl From Detroit City (4CD, Cherry Red, EU, France) (4CD)
Страна: USA
Страна производитель диска: France
Жанр: Rock,Glam Rock,Rock'N'Roll
Год выпуска: 2014
Издатель: (Лейбл) Cherry Red Records
Номер по каталогу: GLAMBOX150
Формат: FLAC
Тип рипа: (Image+.cue)
Битрейт аудио: lossless
Продолжительность: 05:05:01
Полиграфия: присутствует

CD 1 | 01:16:40

01.What A Way To Die (With Pleasure Seekers) (02:24)
02.Light Of Love (With Pleasure Seekers) (03:01)
03.Locked In Your Love (With Pleasure Seekers) (02:33)
04.Rolling Stone (02:46)
05.Can The Can (03:35)
06.Ain't Ya Something Honey (04:07)
07.48 Crash (03:55)
08.All Shook Up (03:50)
09.Glycerine Queen (03:49)
10.Daytona Demon (04:02)
11.Roman Fingers (03:48)
12.Devil Gate Drive (03:48)
13.In The Morning (02:37)
14.Too Big (03:21)
15.The Wild One (Single Version) (02:53)
16.Your Mama Won't Like Me (03:59)
17.I Bit Off More Than I Could Chew (03:44)
18.You Can Make Me Want You (03:34)
19.Michael (03:41)
20.I May Be Too Young (02:58)
21.Half As Much As Me (04:14)
22.American Lady (Alternative Version) (03:51)

лог создания рипа

Exact Audio Copy V1.0 beta 3 from 29. August 2011
EAC extraction logfile from 19. November 2014, 21:10
Suzi Quatro / The Girl From Detroit City CD1 (GLAMBOX 150)
Used drive  : ATAPI   iHAS124   B   Adapter: 1  ID: 0
Read mode               : Secure
Utilize accurate stream : Yes
Defeat audio cache      : Yes
Make use of C2 pointers : No
Read offset correction                      : 6
Overread into Lead-In and Lead-Out          : No
Fill up missing offset samples with silence : Yes
Delete leading and trailing silent blocks   : No
Null samples used in CRC calculations       : Yes
Used interface                              : Installed external ASPI interface
Used output format              : User Defined Encoder
Selected bitrate                : 128 kBit/s
Quality                         : High
Add ID3 tag                     : Yes
Command line compressor         : C:\Program Files (x86)\Exact Audio Copy\Flac\flac.exe
Additional command line options : -V -8 -T "Date=%year%" -T "Genre=%genre%" %source%
TOC of the extracted CD
     Track |   Start  |  Length  | Start sector | End sector
    ---------------------------------------------------------
        1  |  0:00.00 |  2:24.46 |         0    |    10845
        2  |  2:24.46 |  3:01.35 |     10846    |    24455
        3  |  5:26.06 |  2:33.67 |     24456    |    35997
        4  |  7:59.73 |  2:46.47 |     35998    |    48494
        5  | 10:46.45 |  3:35.59 |     48495    |    64678
        6  | 14:22.29 |  4:07.45 |     64679    |    83248
        7  | 18:29.74 |  3:55.12 |     83249    |   100885
        8  | 22:25.11 |  3:50.37 |    100886    |   118172
        9  | 26:15.48 |  3:49.06 |    118173    |   135353
       10  | 30:04.54 |  4:02.43 |    135354    |   153546
       11  | 34:07.22 |  3:48.33 |    153547    |   170679
       12  | 37:55.55 |  3:48.44 |    170680    |   187823
       13  | 41:44.24 |  2:37.24 |    187824    |   199622
       14  | 44:21.48 |  3:21.67 |    199623    |   214764
       15  | 47:43.40 |  2:53.17 |    214765    |   227756
       16  | 50:36.57 |  3:59.53 |    227757    |   245734
       17  | 54:36.35 |  3:44.00 |    245735    |   262534
       18  | 58:20.35 |  3:34.25 |    262535    |   278609
       19  | 61:54.60 |  3:41.68 |    278610    |   295252
       20  | 65:36.53 |  2:58.07 |    295253    |   308609
       21  | 68:34.60 |  4:14.68 |    308610    |   327727
       22  | 72:49.53 |  3:51.14 |    327728    |   345066
Range status and errors
Selected range
     Filename G:\CD\Suzi Quatro - The Girl From Detroit City CD1.wav
     Peak level 97.7 %
     Extraction speed 4.9 X
     Range quality 99.9 %
     Test CRC CA17FEDE
     Copy CRC CA17FEDE
     Copy OK
No errors occurred
AccurateRip summary
Track  1  not present in database
Track  2  not present in database
Track  3  not present in database
Track  4  not present in database
Track  5  not present in database
Track  6  not present in database
Track  7  not present in database
Track  8  not present in database
Track  9  not present in database
Track 10  not present in database
Track 11  not present in database
Track 12  not present in database
Track 13  not present in database
Track 14  not present in database
Track 15  not present in database
Track 16  not present in database
Track 17  not present in database
Track 18  not present in database
Track 19  not present in database
Track 20  not present in database
Track 21  not present in database
Track 22  not present in database
None of the tracks are present in the AccurateRip database
End of status report
---- CUETools DB Plugin V2.1.3
[CTDB TOCID: kEeO4QAkdLDSpjf6PeCCr7VbAvc-] disk not present in database, Submit result: kEeO4QAkdLDSpjf6PeCCr7VbAvc- has been uploaded
==== Log checksum C87A944389CB9AA8C462FD0CE6B4024484008B2AD2647EFEEA72266F40931598 ====

содержание индексной карты *cue

REM GENRE "Glam Rock"
REM DATE 2014
REM DISCID 4511F816
REM COMMENT "ExactAudioCopy v1.0b3"
PERFORMER "Suzi Quatro"
TITLE "The Girl From Detroit City CD1 (GLAMBOX 150)"
FILE "Suzi Quatro - The Girl From Detroit City CD1.flac" WAVE
  TRACK 01 AUDIO
    TITLE "What A Way To Die (With Pleasure Seekers)"
    PERFORMER "Suzi Quatro"
    ISRC GBBLY1402595
    INDEX 01 00:00:00
  TRACK 02 AUDIO
    TITLE "Light Of Love (With Pleasure Seekers)"
    PERFORMER "Suzi Quatro"
    ISRC GBBLY1402596
    INDEX 01 02:24:46
  TRACK 03 AUDIO
    TITLE "Locked In Your Love (With Pleasure Seekers)"
    PERFORMER "Suzi Quatro"
    ISRC GBBLY1402597
    INDEX 01 05:26:06
  TRACK 04 AUDIO
    TITLE "Rolling Stone"
    PERFORMER "Suzi Quatro"
    ISRC GBAYE1301616
    INDEX 01 07:59:73
  TRACK 05 AUDIO
    TITLE "Can The Can"
    PERFORMER "Suzi Quatro"
    ISRC GBAYE1301617
    INDEX 01 10:46:45
  TRACK 06 AUDIO
    TITLE "Ain't Ya Something Honey"
    PERFORMER "Suzi Quatro"
    ISRC GBAYE1301618
    INDEX 01 14:22:29
  TRACK 07 AUDIO
    TITLE "48 Crash"
    PERFORMER "Suzi Quatro"
    ISRC GBAYE1301619
    INDEX 01 18:29:74
  TRACK 08 AUDIO
    TITLE "All Shook Up"
    PERFORMER "Suzi Quatro"
    ISRC GBAYE1301620
    INDEX 01 22:25:11
  TRACK 09 AUDIO
    TITLE "Glycerine Queen"
    PERFORMER "Suzi Quatro"
    ISRC GBAYE1301621
    INDEX 01 26:15:48
  TRACK 10 AUDIO
    TITLE "Daytona Demon"
    PERFORMER "Suzi Quatro"
    ISRC GBAYE1301622
    INDEX 01 30:04:54
  TRACK 11 AUDIO
    TITLE "Roman Fingers"
    PERFORMER "Suzi Quatro"
    ISRC GBAYE1301623
    INDEX 01 34:07:22
  TRACK 12 AUDIO
    TITLE "Devil Gate Drive"
    PERFORMER "Suzi Quatro"
    ISRC GBAYE1301624
    INDEX 01 37:55:55
  TRACK 13 AUDIO
    TITLE "In The Morning"
    PERFORMER "Suzi Quatro"
    ISRC GBAYE1301625
    INDEX 01 41:44:24
  TRACK 14 AUDIO
    TITLE "Too Big"
    PERFORMER "Suzi Quatro"
    ISRC GBAYE1301626
    INDEX 01 44:21:48
  TRACK 15 AUDIO
    TITLE "The Wild One (Single Version)"
    PERFORMER "Suzi Quatro"
    ISRC GBAYE1301627
    INDEX 01 47:43:40
  TRACK 16 AUDIO
    TITLE "Your Mama Won't Like Me"
    PERFORMER "Suzi Quatro"
    ISRC GBAYE1301628
    INDEX 01 50:36:57
  TRACK 17 AUDIO
    TITLE "I Bit Off More Than I Could Chew"
    PERFORMER "Suzi Quatro"
    ISRC GBAYE1301629
    INDEX 01 54:36:35
  TRACK 18 AUDIO
    TITLE "You Can Make Me Want You"
    PERFORMER "Suzi Quatro"
    ISRC GBAYE1301630
    INDEX 01 58:20:35
  TRACK 19 AUDIO
    TITLE "Michael"
    PERFORMER "Suzi Quatro"
    ISRC GBAYE1301631
    INDEX 01 61:54:60
  TRACK 20 AUDIO
    TITLE "I May Be Too Young"
    PERFORMER "Suzi Quatro"
    ISRC GBAYE1301632
    INDEX 01 65:36:53
  TRACK 21 AUDIO
    TITLE "Half As Much As Me"
    PERFORMER "Suzi Quatro"
    ISRC GBAYE1301634
    INDEX 01 68:34:60
  TRACK 22 AUDIO
    TITLE "American Lady (Alternative Version)"
    PERFORMER "Suzi Quatro"
    ISRC GBAYE1301635
    INDEX 01 72:49:53

CD 2 | 01:16:46

01.Tear Me Apart (03:00)
02.If You Can't Give Me Love (03:55)
03.Suicide (04:07)
04.The Race Is On (04:03)
05.Stumblin' In (with Chris Norman) (03:57)
06.I've Never Been In Love (03:02)
07.Mind Demons (02:28)
08.She's In Love With You (03:32)
09.Hollywood (02:59)
10.Mamas Boy (03:37)
11.Love Hurts (02:47)
12.Rock Hard (03:20)
13.Lonely Is The Hardest (03:48)
14.Ego In The Night (03:37)
15.Lipstick (04:10)
16.Glad All Over (02:50)
17.Heart Of Stone (03:25)
18.Main Attraction (03:15)
19.Two Miles Out Of Georgia (03:29)
20.Can I Be Your Girl? (03:51)
21.Good Girl (Looking For A Bad Time) (03:31)
22.Wild Thing (with Reg Presley) (03:53)

лог создания рипа

Exact Audio Copy V1.0 beta 3 from 29. August 2011
EAC extraction logfile from 19. November 2014, 21:38
Suzi Quatro / The Girl From Detroit City CD2 (GLAMBOX 150)
Used drive  : ATAPI   iHAS124   B   Adapter: 1  ID: 0
Read mode               : Secure
Utilize accurate stream : Yes
Defeat audio cache      : Yes
Make use of C2 pointers : No
Read offset correction                      : 6
Overread into Lead-In and Lead-Out          : No
Fill up missing offset samples with silence : Yes
Delete leading and trailing silent blocks   : No
Null samples used in CRC calculations       : Yes
Used interface                              : Installed external ASPI interface
Used output format              : User Defined Encoder
Selected bitrate                : 128 kBit/s
Quality                         : High
Add ID3 tag                     : Yes
Command line compressor         : C:\Program Files (x86)\Exact Audio Copy\Flac\flac.exe
Additional command line options : -V -8 -T "Date=%year%" -T "Genre=%genre%" %source%
TOC of the extracted CD
     Track |   Start  |  Length  | Start sector | End sector
    ---------------------------------------------------------
        1  |  0:00.00 |  3:00.51 |         0    |    13550
        2  |  3:00.51 |  3:55.42 |     13551    |    31217
        3  |  6:56.18 |  4:07.21 |     31218    |    49763
        4  | 11:03.39 |  4:03.46 |     49764    |    68034
        5  | 15:07.10 |  3:57.51 |     68035    |    85860
        6  | 19:04.61 |  3:02.45 |     85861    |    99555
        7  | 22:07.31 |  2:28.07 |     99556    |   110662
        8  | 24:35.38 |  3:32.63 |    110663    |   126625
        9  | 28:08.26 |  2:59.00 |    126626    |   140050
       10  | 31:07.26 |  3:37.45 |    140051    |   156370
       11  | 34:44.71 |  2:47.30 |    156371    |   168925
       12  | 37:32.26 |  3:20.69 |    168926    |   183994
       13  | 40:53.20 |  3:48.11 |    183995    |   201105
       14  | 44:41.31 |  3:37.40 |    201106    |   217420
       15  | 48:18.71 |  4:10.58 |    217421    |   236228
       16  | 52:29.54 |  2:50.20 |    236229    |   248998
       17  | 55:19.74 |  3:25.17 |    248999    |   264390
       18  | 58:45.16 |  3:15.18 |    264391    |   279033
       19  | 62:00.34 |  3:29.50 |    279034    |   294758
       20  | 65:30.09 |  3:51.54 |    294759    |   312137
       21  | 69:21.63 |  3:31.35 |    312138    |   327997
       22  | 72:53.23 |  3:53.13 |    327998    |   345485
Range status and errors
Selected range
     Filename G:\CD\Suzi Quatro - The Girl From Detroit City CD2.wav
     Peak level 97.7 %
     Extraction speed 6.4 X
     Range quality 99.9 %
     Test CRC AFBFEB95
     Copy CRC AFBFEB95
     Copy OK
No errors occurred
AccurateRip summary
Track  1  not present in database
Track  2  not present in database
Track  3  not present in database
Track  4  not present in database
Track  5  not present in database
Track  6  not present in database
Track  7  not present in database
Track  8  not present in database
Track  9  not present in database
Track 10  not present in database
Track 11  not present in database
Track 12  not present in database
Track 13  not present in database
Track 14  not present in database
Track 15  not present in database
Track 16  not present in database
Track 17  not present in database
Track 18  not present in database
Track 19  not present in database
Track 20  not present in database
Track 21  not present in database
Track 22  not present in database
None of the tracks are present in the AccurateRip database
End of status report
---- CUETools DB Plugin V2.1.3
[CTDB TOCID: 7bX7eLpwDwWPLO0ykQgBbYgiVo8-] disk not present in database, Submit result: 7bX7eLpwDwWPLO0ykQgBbYgiVo8- has been uploaded
==== Log checksum 2451536218446236359CBB314AF29057BB1A7482281BEFCC59D4C7140C0134B6 ====

содержание индексной карты *cue

REM GENRE "Glam Rock"
REM DATE 2014
REM DISCID 4311FE16
REM COMMENT "ExactAudioCopy v1.0b3"
PERFORMER "Suzi Quatro"
TITLE "The Girl From Detroit City CD2 (GLAMBOX 150)"
FILE "Suzi Quatro - The Girl From Detroit City CD2.flac" WAVE
  TRACK 01 AUDIO
    TITLE "Tear Me Apart"
    PERFORMER "Suzi Quatro"
    ISRC GBAYE1301633
    INDEX 01 00:00:00
  TRACK 02 AUDIO
    TITLE "If You Can't Give Me Love"
    PERFORMER "Suzi Quatro"
    ISRC GBAYE1301636
    INDEX 01 03:00:51
  TRACK 03 AUDIO
    TITLE "Suicide"
    PERFORMER "Suzi Quatro"
    ISRC GBAYE1301637
    INDEX 01 06:56:18
  TRACK 04 AUDIO
    TITLE "The Race Is On"
    PERFORMER "Suzi Quatro"
    ISRC GBAYE1301638
    INDEX 01 11:03:39
  TRACK 05 AUDIO
    TITLE "Stumblin' In (with Chris Norman)"
    PERFORMER "Suzi Quatro"
    ISRC DEA817800048
    INDEX 01 15:07:10
  TRACK 06 AUDIO
    TITLE "I've Never Been In Love"
    PERFORMER "Suzi Quatro"
    ISRC GBAYE1301639
    INDEX 01 19:04:61
  TRACK 07 AUDIO
    TITLE "Mind Demons"
    PERFORMER "Suzi Quatro"
    ISRC GBAYE1301640
    INDEX 01 22:07:31
  TRACK 08 AUDIO
    TITLE "She's In Love With You"
    PERFORMER "Suzi Quatro"
    ISRC GBAYE1301641
    INDEX 01 24:35:38
  TRACK 09 AUDIO
    TITLE "Hollywood"
    PERFORMER "Suzi Quatro"
    ISRC GBAYE1301642
    INDEX 01 28:08:26
  TRACK 10 AUDIO
    TITLE "Mamas Boy"
    PERFORMER "Suzi Quatro"
    ISRC GBAYE1301643
    INDEX 01 31:07:26
  TRACK 11 AUDIO
    TITLE "Love Hurts"
    PERFORMER "Suzi Quatro"
    ISRC GBAYE1301644
    INDEX 01 34:44:71
  TRACK 12 AUDIO
    TITLE "Rock Hard"
    PERFORMER "Suzi Quatro"
    ISRC GBBLY1200472
    INDEX 01 37:32:26
  TRACK 13 AUDIO
    TITLE "Lonely Is The Hardest"
    PERFORMER "Suzi Quatro"
    ISRC GBBLY1200480
    INDEX 01 40:53:20
  TRACK 14 AUDIO
    TITLE "Ego In The Night"
    PERFORMER "Suzi Quatro"
    ISRC GBBLY1200479
    INDEX 01 44:41:31
  TRACK 15 AUDIO
    TITLE "Lipstick"
    PERFORMER "Suzi Quatro"
    ISRC GBBLY1200477
    INDEX 01 48:18:71
  TRACK 16 AUDIO
    TITLE "Glad All Over"
    PERFORMER "Suzi Quatro"
    ISRC GBBLY1200473
    INDEX 01 52:29:54
  TRACK 17 AUDIO
    TITLE "Heart Of Stone"
    PERFORMER "Suzi Quatro"
    INDEX 01 55:19:74
  TRACK 18 AUDIO
    TITLE "Main Attraction"
    PERFORMER "Suzi Quatro"
    INDEX 01 58:45:16
  TRACK 19 AUDIO
    TITLE "Two Miles Out Of Georgia"
    PERFORMER "Suzi Quatro"
    INDEX 01 62:00:34
  TRACK 20 AUDIO
    TITLE "Can I Be Your Girl?"
    PERFORMER "Suzi Quatro"
    ISRC GBBLY1200485
    INDEX 01 65:30:09
  TRACK 21 AUDIO
    TITLE "Good Girl (Looking For A Bad Time)"
    PERFORMER "Suzi Quatro"
    ISRC GBBLY1200490
    INDEX 01 69:21:63
  TRACK 22 AUDIO
    TITLE "Wild Thing (with Reg Presley)"
    PERFORMER "Suzi Quatro"
    ISRC GBBLY1400796
    INDEX 01 72:53:23

CD 3 | 01:15:51

01.I Got The Sun In The Morning (04:53)
02.Moonshine Lullaby (03:48)
03.If You Can't Give Me Love (Piano Version) (05:07)
04.Baby You're A Star (03:47)
05.Kiss Me Goodbye (04:09)
06.Back To The Drive (04:33)
07.I'll Walk Through The Fire With You (04:29)
08.No Choice (05:33)
09.I Don't Do Gentle (04:25)
10.Fifteen Minutes Of Fame (03:52)
11.Whatever Love Is (04:44)
12.Strict Machine (03:10)
13.Breaking Dishes (04:01)
14.A Girl Like Me (04:31)
15.Singing With Angels (03:57)
16.Does Your Mama Know (with Andy Scott) (02:57)
17.The Cost Of Living (03:40)
18.Girl From Detroit City (04:07)

лог создания рипа

Exact Audio Copy V1.0 beta 3 from 29. August 2011
EAC extraction logfile from 20. November 2014, 5:42
Suzi Quatro / The Girl From Detroit City CD3 (GLAMBOX 150)
Used drive  : ATAPI   iHAS124   B   Adapter: 1  ID: 0
Read mode               : Secure
Utilize accurate stream : Yes
Defeat audio cache      : Yes
Make use of C2 pointers : No
Read offset correction                      : 6
Overread into Lead-In and Lead-Out          : No
Fill up missing offset samples with silence : Yes
Delete leading and trailing silent blocks   : No
Null samples used in CRC calculations       : Yes
Used interface                              : Installed external ASPI interface
Used output format              : User Defined Encoder
Selected bitrate                : 128 kBit/s
Quality                         : High
Add ID3 tag                     : Yes
Command line compressor         : C:\Program Files (x86)\Exact Audio Copy\Flac\flac.exe
Additional command line options : -V -8 -T "Date=%year%" -T "Genre=%genre%" %source%
TOC of the extracted CD
     Track |   Start  |  Length  | Start sector | End sector
    ---------------------------------------------------------
        1  |  0:00.00 |  4:53.74 |         0    |    22048
        2  |  4:53.74 |  3:48.12 |     22049    |    39160
        3  |  8:42.11 |  5:07.69 |     39161    |    62254
        4  | 13:50.05 |  3:47.45 |     62255    |    79324
        5  | 17:37.50 |  4:09.06 |     79325    |    98005
        6  | 21:46.56 |  4:33.05 |     98006    |   118485
        7  | 26:19.61 |  4:29.64 |    118486    |   138724
        8  | 30:49.50 |  5:33.32 |    138725    |   163731
        9  | 36:23.07 |  4:25.47 |    163732    |   183653
       10  | 40:48.54 |  3:52.35 |    183654    |   201088
       11  | 44:41.14 |  4:44.09 |    201089    |   222397
       12  | 49:25.23 |  3:10.45 |    222398    |   236692
       13  | 52:35.68 |  4:01.65 |    236693    |   254832
       14  | 56:37.58 |  4:31.46 |    254833    |   275203
       15  | 61:09.29 |  3:57.36 |    275204    |   293014
       16  | 65:06.65 |  2:57.18 |    293015    |   306307
       17  | 68:04.08 |  3:40.39 |    306308    |   322846
       18  | 71:44.47 |  4:07.12 |    322847    |   341383
Range status and errors
Selected range
     Filename G:\CD\Suzi Quatro - The Girl From Detroit City CD3.wav
     Peak level 97.7 %
     Extraction speed 6.4 X
     Range quality 100.0 %
     Test CRC 6A7372E2
     Copy CRC 6A7372E2
     Copy OK
No errors occurred
AccurateRip summary
Track  1  not present in database
Track  2  not present in database
Track  3  not present in database
Track  4  not present in database
Track  5  not present in database
Track  6  not present in database
Track  7  not present in database
Track  8  not present in database
Track  9  not present in database
Track 10  not present in database
Track 11  not present in database
Track 12  not present in database
Track 13  not present in database
Track 14  not present in database
Track 15  not present in database
Track 16  not present in database
Track 17  not present in database
Track 18  not present in database
None of the tracks are present in the AccurateRip database
End of status report
---- CUETools DB Plugin V2.1.3
[CTDB TOCID: DmM7xkN89lUE4jTAKr5yQUe7U1k-] found, Submit result: already submitted
[128069f5] (1/1) Accurately ripped
==== Log checksum 74509D3B813E8317CCA6EC78BA13D8F8BBE18A209DA1491932589C6AFEB9665A ====

содержание индексной карты *cue

REM GENRE "Glam Rock"
REM DATE 2014
REM DISCID 1611C712
REM COMMENT "ExactAudioCopy v1.0b3"
PERFORMER "Suzi Quatro"
TITLE "The Girl From Detroit City CD3 (GLAMBOX 150)"
FILE "Suzi Quatro - The Girl From Detroit City CD3.flac" WAVE
  TRACK 01 AUDIO
    TITLE "I Got The Sun In The Morning"
    PERFORMER "Suzi Quatro"
    ISRC GBBKB8622414
    INDEX 01 00:00:00
  TRACK 02 AUDIO
    TITLE "Moonshine Lullaby"
    PERFORMER "Suzi Quatro"
    ISRC GBBKB8622409
    INDEX 01 04:53:74
  TRACK 03 AUDIO
    TITLE "If You Can't Give Me Love (Piano Version)"
    PERFORMER "Suzi Quatro"
    ISRC GBAYE1301615
    INDEX 01 08:42:11
  TRACK 04 AUDIO
    TITLE "Baby You're A Star"
    PERFORMER "Suzi Quatro"
    ISRC GBBLY1400797
    INDEX 01 13:50:05
  TRACK 05 AUDIO
    TITLE "Kiss Me Goodbye"
    PERFORMER "Suzi Quatro"
    ISRC GBBLY1400798
    INDEX 01 17:37:50
  TRACK 06 AUDIO
    TITLE "Back To The Drive"
    PERFORMER "Suzi Quatro"
    ISRC GBBLY1400799
    INDEX 01 21:46:56
  TRACK 07 AUDIO
    TITLE "I'll Walk Through The Fire With You"
    PERFORMER "Suzi Quatro"
    ISRC GBBLY1400800
    INDEX 01 26:19:61
  TRACK 08 AUDIO
    TITLE "No Choice"
    PERFORMER "Suzi Quatro"
    ISRC GBBLY1400801
    INDEX 01 30:49:50
  TRACK 09 AUDIO
    TITLE "I Don't Do Gentle"
    PERFORMER "Suzi Quatro"
    ISRC GBBLY1400802
    INDEX 01 36:23:07
  TRACK 10 AUDIO
    TITLE "Fifteen Minutes Of Fame"
    PERFORMER "Suzi Quatro"
    ISRC GBBLY1400803
    INDEX 01 40:48:54
  TRACK 11 AUDIO
    TITLE "Whatever Love Is"
    PERFORMER "Suzi Quatro"
    ISRC GBBLY1102001
    INDEX 01 44:41:14
  TRACK 12 AUDIO
    TITLE "Strict Machine"
    PERFORMER "Suzi Quatro"
    ISRC GBBLY1102003
    INDEX 01 49:25:23
  TRACK 13 AUDIO
    TITLE "Breaking Dishes"
    PERFORMER "Suzi Quatro"
    ISRC GBBLY1102004
    INDEX 01 52:35:68
  TRACK 14 AUDIO
    TITLE "A Girl Like Me"
    PERFORMER "Suzi Quatro"
    ISRC GBBLY1102000
    INDEX 01 56:37:58
  TRACK 15 AUDIO
    TITLE "Singing With Angels"
    PERFORMER "Suzi Quatro"
    ISRC GBBLY1102010
    INDEX 01 61:09:29
  TRACK 16 AUDIO
    TITLE "Does Your Mama Know (with Andy Scott)"
    PERFORMER "Suzi Quatro"
    ISRC GBBLY1102290
    INDEX 01 65:06:65
  TRACK 17 AUDIO
    TITLE "The Cost Of Living"
    PERFORMER "Suzi Quatro"
    ISRC GBBLY1403051
    INDEX 01 68:04:08
  TRACK 18 AUDIO
    TITLE "Girl From Detroit City"
    PERFORMER "Suzi Quatro"
    ISRC GBBLY1403052
    INDEX 01 71:44:47

CD 4 | 01:15:42

01.Curly Hair For Sale (03:09)
02.Sugar Flash Rapper (03:33)
03.Ain't Got No Home (02:20)
04.Sweet Nothings (02:22)
05.Wild In The Night (03:17)
06.Don't Let Me Be Misunderstood (02:40)
07.What Goes Around (Demo Version) (03:09)
08.Love And War (03:35)
09.Walking Through The Changes (03:57)
10.Warm Leatherette (03:26)
11.Intimate Strangers (04:23)
12.And So To Bed (03:32)
13.Sometimes Love Is Letting Go (04:27)
14.Flying To My Destiny (04:35)
15.Free The Butterfly (05:05)
16.Ambition (05:34)
17.If There Ever Was A Reason (04:21)
18.Desperado (with Jeff Beck) (03:22)
19.Dancing In The Wind (04:50)
20.20-No Choice (Demo Version) (03:56)

лог создания рипа

Exact Audio Copy V1.0 beta 3 from 29. August 2011
EAC extraction logfile from 19. November 2014, 23:24
Suzi Quatro / The Girl From Detroit City CD4 (GLAMBOX 150)
Used drive  : ATAPI   iHAS124   B   Adapter: 1  ID: 0
Read mode               : Secure
Utilize accurate stream : Yes
Defeat audio cache      : Yes
Make use of C2 pointers : No
Read offset correction                      : 6
Overread into Lead-In and Lead-Out          : No
Fill up missing offset samples with silence : Yes
Delete leading and trailing silent blocks   : No
Null samples used in CRC calculations       : Yes
Used interface                              : Installed external ASPI interface
Used output format              : User Defined Encoder
Selected bitrate                : 128 kBit/s
Quality                         : High
Add ID3 tag                     : Yes
Command line compressor         : C:\Program Files (x86)\Exact Audio Copy\Flac\flac.exe
Additional command line options : -V -8 -T "Date=%year%" -T "Genre=%genre%" %source%
TOC of the extracted CD
     Track |   Start  |  Length  | Start sector | End sector
    ---------------------------------------------------------
        1  |  0:00.00 |  3:09.10 |         0    |    14184
        2  |  3:09.10 |  3:33.33 |     14185    |    30192
        3  |  6:42.43 |  2:20.57 |     30193    |    40749
        4  |  9:03.25 |  2:22.34 |     40750    |    51433
        5  | 11:25.59 |  3:17.44 |     51434    |    66252
        6  | 14:43.28 |  2:40.53 |     66253    |    78305
        7  | 17:24.06 |  3:09.49 |     78306    |    92529
        8  | 20:33.55 |  3:35.07 |     92530    |   108661
        9  | 24:08.62 |  3:57.04 |    108662    |   126440
       10  | 28:05.66 |  3:26.11 |    126441    |   141901
       11  | 31:32.02 |  4:23.51 |    141902    |   161677
       12  | 35:55.53 |  3:32.33 |    161678    |   177610
       13  | 39:28.11 |  4:27.40 |    177611    |   197675
       14  | 43:55.51 |  4:35.38 |    197676    |   218338
       15  | 48:31.14 |  5:05.74 |    218339    |   241287
       16  | 53:37.13 |  5:34.70 |    241288    |   266407
       17  | 59:12.08 |  4:21.60 |    266408    |   286042
       18  | 63:33.68 |  3:22.19 |    286043    |   301211
       19  | 66:56.12 |  4:50.05 |    301212    |   322966
       20  | 71:46.17 |  3:56.48 |    322967    |   340714
Range status and errors
Selected range
     Filename G:\CD\Suzi Quatro - The Girl From Detroit City CD4.wav
     Peak level 97.7 %
     Extraction speed 6.4 X
     Range quality 100.0 %
     Test CRC 58B5D42B
     Copy CRC 58B5D42B
     Copy OK
No errors occurred
AccurateRip summary
Track  1  not present in database
Track  2  not present in database
Track  3  not present in database
Track  4  not present in database
Track  5  not present in database
Track  6  not present in database
Track  7  not present in database
Track  8  not present in database
Track  9  not present in database
Track 10  not present in database
Track 11  not present in database
Track 12  not present in database
Track 13  not present in database
Track 14  not present in database
Track 15  not present in database
Track 16  not present in database
Track 17  not present in database
Track 18  not present in database
Track 19  not present in database
Track 20  not present in database
None of the tracks are present in the AccurateRip database
End of status report
---- CUETools DB Plugin V2.1.3
[CTDB TOCID: 3ekfVgdLrnI3PV7zNJzxx3zVjpg-] disk not present in database, Submit result: 3ekfVgdLrnI3PV7zNJzxx3zVjpg- has been uploaded
==== Log checksum 5D6B683E3D9CFD9C0770A86C82B0668EB280FAAFF79BE571C2EECEC942938180 ====

содержание индексной карты *cue

REM GENRE "Glam Rock"
REM DATE 2014
REM DISCID 2311BE14
REM COMMENT "ExactAudioCopy v1.0b3"
PERFORMER "Suzi Quatro"
TITLE "The Girl From Detroit City CD4 (GLAMBOX 150)"
FILE "Suzi Quatro - The Girl From Detroit City CD4.flac" WAVE
  TRACK 01 AUDIO
    TITLE "Curly Hair For Sale"
    PERFORMER "Suzi Quatro"
    ISRC GBBLY1400804
    INDEX 01 00:00:00
  TRACK 02 AUDIO
    TITLE "Sugar Flash Rapper"
    PERFORMER "Suzi Quatro"
    ISRC GBBLY1400805
    INDEX 01 03:09:10
  TRACK 03 AUDIO
    TITLE "Ain't Got No Home"
    PERFORMER "Suzi Quatro"
    ISRC GBAYE1301645
    INDEX 01 06:42:43
  TRACK 04 AUDIO
    TITLE "Sweet Nothings"
    PERFORMER "Suzi Quatro"
    ISRC GBBLY1400806
    INDEX 01 09:03:25
  TRACK 05 AUDIO
    TITLE "Wild In The Night"
    PERFORMER "Suzi Quatro"
    ISRC GBBLY1400807
    INDEX 01 11:25:59
  TRACK 06 AUDIO
    TITLE "Don't Let Me Be Misunderstood"
    PERFORMER "Suzi Quatro"
    ISRC GBBLY1400808
    INDEX 01 14:43:28
  TRACK 07 AUDIO
    TITLE "What Goes Around (Demo Version)"
    PERFORMER "Suzi Quatro"
    ISRC GBBLY1400809
    INDEX 01 17:24:06
  TRACK 08 AUDIO
    TITLE "Love And War"
    PERFORMER "Suzi Quatro"
    ISRC GBBLY1400810
    INDEX 01 20:33:55
  TRACK 09 AUDIO
    TITLE "Walking Through The Changes"
    PERFORMER "Suzi Quatro"
    ISRC GBBLY1400811
    INDEX 01 24:08:62
  TRACK 10 AUDIO
    TITLE "Warm Leatherette"
    PERFORMER "Suzi Quatro"
    ISRC GBBLY1402286
    INDEX 01 28:05:66
  TRACK 11 AUDIO
    TITLE "Intimate Strangers"
    PERFORMER "Suzi Quatro"
    ISRC GBBLY1400812
    INDEX 01 31:32:02
  TRACK 12 AUDIO
    TITLE "And So To Bed"
    PERFORMER "Suzi Quatro"
    ISRC GBBLY1402287
    INDEX 01 35:55:53
  TRACK 13 AUDIO
    TITLE "Sometimes Love Is Letting Go"
    PERFORMER "Suzi Quatro"
    ISRC GBBLY1400813
    INDEX 01 39:28:11
  TRACK 14 AUDIO
    TITLE "Flying To My Destiny"
    PERFORMER "Suzi Quatro"
    ISRC GBBLY1400814
    INDEX 01 43:55:51
  TRACK 15 AUDIO
    TITLE "Free The Butterfly"
    PERFORMER "Suzi Quatro"
    ISRC GBBLY1400815
    INDEX 01 48:31:14
  TRACK 16 AUDIO
    TITLE "Ambition"
    PERFORMER "Suzi Quatro"
    ISRC GBBLY1402288
    INDEX 01 53:37:13
  TRACK 17 AUDIO
    TITLE "If There Ever Was A Reason"
    PERFORMER "Suzi Quatro"
    ISRC GBBLY1402289
    INDEX 01 59:12:08
  TRACK 18 AUDIO
    TITLE "Desperado (with Jeff Beck)"
    PERFORMER "Suzi Quatro"
    ISRC GBBLY1400816
    INDEX 01 63:33:68
  TRACK 19 AUDIO
    TITLE "Dancing In The Wind"
    PERFORMER "Suzi Quatro"
    ISRC GBBLY1400817
    INDEX 01 66:56:12
  TRACK 20 AUDIO
    TITLE "20-No Choice (Demo Version)"
    PERFORMER "Suzi Quatro"
    ISRC GBBLY1400818
    INDEX 01 71:46:17
--Не забываем говорить --
[Профиль] [ЛС]
Кто просматривает тему:

Показать сообщения:    

Текущее время: Сегодня 03:24

Часовой пояс: GMT



Вы не можете начинать темы
Вы не можете отвечать на сообщения
Вы не можете редактировать свои сообщения
Вы не можете удалять свои сообщения
Вы не можете голосовать в опросах
Вы не можете прикреплять файлы к сообщениям
Вы не можете скачивать файлы