SuperПерцы / СуперПерцы / Четкие пацаны / Superbad (Грег Моттола / Greg Mottola) [2007, США, Комедия, BDRip] [Расширенная версия / Unrated] Dub (со вставками DVO) + Original Eng + subs (Rus, Eng)

 
Автор Сообщение

TorrentFilm ®

Пол:

Стаж: 2 года

Сообщений: 7741



Награды: Нет

Торрент-статистика

Создавать темы 24-Сен-2015 00:10

[Цитировать]

SuperПерцы / СуперПерцы / Четкие пацаны / Superbad [Расширенная версия / Unrated]- Год выпуска: 2007
Страна: США
Жанр: Комедия
Продолжительность: 01:58:40
Перевод: Профессиональный (Дублированный) (на расширенные моменты вставки из DVO)
+ Оригинальная звуковая дорожка
Субтитры: Русские, английские (внешние srt*)-Режиссер: Грег Моттола / Greg Mottola
В ролях: Джона Хилл, Майкл Сера, Кристофер Минц-Плассе, Билл Хэйдер, Сет Роген, Марта МакАйсак, Эмма Стоун, Авива, Джо Ло Труглио, Кевин Корригэн
О фильме: Популярность двух друзей - старшеклассников, вступивших в фазу половой зрелости, оставляет желать лучшего. Впереди взрослая жизнь в колледже без поддержки закадычного друга, и безрадостные перспективы остаться девственниками, если не предпринять радикальные меры. Сет и Эван решаются взять организацию выпускной вечеринки в свои руки. Обеспечив алкоголем школьную братию, они надеются снискать благосклонность опьяневших девушек, и продвинуться по части секса от теории к практике… Но дела начинают идти вкривь и вкось, и расположенность девушек к их персонам начинает заботить Сета и Эвана меньше всего. Супер-перцам придется попотеть. А ты готов действовать?-Релиз:
Автор: Vиkt0R
Качество: BDRip (источник: HANSMER / BD-Remux / 1080p)
Формат: AVI
Видео: 704x384 (1.83:1), 23.976 fps, XviD build 50 ~1858 kbps avg, 0.29 bit/pixel
Аудио #1: 48 kHz, AC3 Dolby Digital, 3/2 (L,C,R,l,r) + LFE ch, ~384.00 kbps avg rus
Аудио #2: 48 kHz, AC3 Dolby Digital, 3/2 (L,C,R,l,r) + LFE ch, ~384.00 kbps avg eng
Размер: 2234.97 Mb (1/2 DVD)
Скачать: Семпл-

Кадры из фильма


-

Mi

Формат : AVI
Формат/Информация : Audio Video Interleave
Профиль формата : OpenDML
Размер файла : 2,18 Гбайт
Продолжительность : 1 ч. 58 м.
Общий поток : 2633 Кбит/сек
Название фильма : Superbad [Unrated] (2007) BDRip
Режиссёр : Vиkt0R
Жанр : Comedy
Программа кодирования : VirtualDubModRus 1.5.10.2 (build 2542/release)
Правообладатель : HQCLUB
Видео
Идентификатор : 0
Формат : MPEG-4 Visual
Профиль формата : Advanced Simple@L5
Параметр BVOP формата : 1
Параметр QPel формата : Нет
Параметр GMC формата : Без точки перехода
Параметр матрицы формата : Выборочная
Идентификатор кодека : XVID
Идентификатор кодека/Подсказка : XviD
Продолжительность : 1 ч. 58 м.
Битрейт : 1847 Кбит/сек
Ширина : 704 пикселя
Высота : 384 пикселя
Соотношение сторон : 1,85:1
Частота кадров : 23,976 кадра/сек
Цветовое пространство : YUV
Субдискретизация насыщенности : 4:2:0
Битовая глубина : 8 бит
Тип развёртки : Прогрессивная
Метод сжатия : С потерями
Бит/(Пиксели*Кадры) : 0.285
Размер потока : 1,53 Гбайт (70%)
Библиотека кодирования : XviD 1.2.1 (UTC 2008-12-04)
Аудио #1
Идентификатор : 1
Формат : AC-3
Формат/Информация : Audio Coding 3
Расширение режима : CM (complete main)
Параметр Endianness формата : Big
Идентификатор кодека : 2000
Продолжительность : 1 ч. 58 м.
Вид битрейта : Постоянный
Битрейт : 384 Кбит/сек
Каналы : 6 каналов
Расположение каналов : Front: L C R, Side: L R, LFE
Частота : 48,0 КГц
Битовая глубина : 16 бит
Метод сжатия : С потерями
Размер потока : 326 Мбайт (15%)
Выравнивание : Разделение по промежуткам
Продолжительность промежутка : 42 мс. (1,00 видеокадр)
Аудио #2
Идентификатор : 2
Формат : AC-3
Формат/Информация : Audio Coding 3
Расширение режима : CM (complete main)
Параметр Endianness формата : Big
Идентификатор кодека : 2000
Продолжительность : 1 ч. 58 м.
Вид битрейта : Постоянный
Битрейт : 384 Кбит/сек
Каналы : 6 каналов
Расположение каналов : Front: L C R, Side: L R, LFE
Частота : 48,0 КГц
Битовая глубина : 16 бит
Метод сжатия : С потерями
Размер потока : 326 Мбайт (15%)
Выравнивание : Разделение по промежуткам
Продолжительность промежутка : 42 мс. (1,00 видеокадр)
-
[Профиль] [ЛС]
Кто просматривает тему:

Показать сообщения:    

Текущее время: Сегодня 04:16

Часовой пояс: GMT



Вы не можете начинать темы
Вы не можете отвечать на сообщения
Вы не можете редактировать свои сообщения
Вы не можете удалять свои сообщения
Вы не можете голосовать в опросах
Вы не можете прикреплять файлы к сообщениям
Вы не можете скачивать файлы