(Rock, Rock'N'Roll) Status Quo - Whatever You Want The Very Best Of Status Quo(2CD) - 1997, [FLAC (tracks), lossless]

 
Автор Сообщение

sergej644 ®

Пол:

Стаж: 4 года 11 месяцев

Сообщений: 6043

Откуда: Soviet Union



Награды: Нет

Торрент-статистика

Создавать темы 12-Окт-2014 18:13

[Цитировать]

--Status Quo - Whatever You Want The Very Best Of Status Quo(2CD)
Страна: UK
Жанр: Rock, Rock'N'Roll
Год выпуска: 1997
Формат: FLAC (tracks)
Битрейт аудио: lossless
Продолжительность: 02:30:34
--

Disc 1 | 01:16:01

01. Pictures Of Matchstick Men (03:10)
02. Ice In The Sun (02:01)
03. Down The Dustpipe (02:03)
04. In My Chair (03:10)
05. Paper Plane (02:56)
06. Mean Girl (03:59)
07. Caroline (03:43)
08. Break The Rules (03:39)
09. Down Down (03:50)
10. Roll Over Lay Down (05:41)
11. Rain (04:34)
12. Mystery Song (03:58)
13. Wild Side Of Life (03:16)
14. Rockin' All Over The World (03:32)
15. Again And Again (03:42)
16. Whatever You Want (04:02)
17. Living On An Island (03:47)
18. What You're Proposing (03:51)
19. Lies (03:54)
20. Don't Drive My Car (04:13)
21. Something About You Baby I Like (02:50)

Disc 2 | 01:14:32

01. Rock 'n' Roll (04:04)
02. Dear John (03:13)
03. Ol' Rag Blues (02:48)
04. A Mess Of The Blues (03:20)
05. Marguerita Time (03:28)
06. Going Down Town Tonight (03:37)
07. The Wanderer (03:29)
08. Rollin' Home (04:00)
09. Red Sky (04:10)
10. In The Army Now (03:54)
11. Dreamin' (03:04)
12. Ain't Complaining (03:59)
13. Burning Bridges (03:53)
14. Anniversary Waltz Part 1 (Medley) (05:32)
15. Anniversary Waltz Part 2 (Medley) (05:29)
16. I Didn't Mean It (03:24)
17. When You Walk In The Room (03:04)
18. Fun Fun Fun (Feat Beach Boys) (03:05)
19. Don't Stop (03:43)
20. All Around My Hat (with Maddy Prior) (03:07)

лог создания рипа

CD 1

Exact Audio Copy V1.0 beta 3 from 29. August 2011
EAC extraction logfile from 15. August 2014, 21:17
Status Quo / Whatever You Want The Very Best Of Status Quo Disc 1
Used drive  : HL-DT-STDVDRAM GH24NS90   Adapter: 1  ID: 0
Read mode               : Secure
Utilize accurate stream : Yes
Defeat audio cache      : No
Make use of C2 pointers : Yes
Read offset correction                      : 6
Overread into Lead-In and Lead-Out          : No
Fill up missing offset samples with silence : Yes
Delete leading and trailing silent blocks   : No
Null samples used in CRC calculations       : Yes
Used interface                              : Native Win32 interface for Win NT & 2000
Gap handling                                : Appended to previous track
Used output format              : User Defined Encoder
Selected bitrate                : 1024 kBit/s
Quality                         : High
Add ID3 tag                     : Yes
Command line compressor         : C:\Program Files (x86)\FLAC\metaflac.exe
Additional command line options : -8
TOC of the extracted CD
     Track |   Start  |  Length  | Start sector | End sector
    ---------------------------------------------------------
        1  |  0:00.00 |  3:10.17 |         0    |    14266
        2  |  3:10.17 |  2:01.23 |     14267    |    23364
        3  |  5:11.40 |  2:03.22 |     23365    |    32611
        4  |  7:14.62 |  3:10.35 |     32612    |    46896
        5  | 10:25.22 |  2:55.70 |     46897    |    60091
        6  | 13:21.17 |  3:59.18 |     60092    |    78034
        7  | 17:20.35 |  3:43.17 |     78035    |    94776
        8  | 21:03.52 |  3:39.50 |     94777    |   111251
        9  | 24:43.27 |  3:50.43 |    111252    |   128544
       10  | 28:33.70 |  5:41.55 |    128545    |   154174
       11  | 34:15.50 |  4:34.30 |    154175    |   174754
       12  | 38:50.05 |  3:58.50 |    174755    |   192654
       13  | 42:48.55 |  3:16.65 |    192655    |   207419
       14  | 46:05.45 |  3:32.50 |    207420    |   223369
       15  | 49:38.20 |  3:42.37 |    223370    |   240056
       16  | 53:20.57 |  4:01.70 |    240057    |   258201
       17  | 57:22.52 |  3:47.03 |    258202    |   275229
       18  | 61:09.55 |  3:51.65 |    275230    |   292619
       19  | 65:01.45 |  3:54.42 |    292620    |   310211
       20  | 68:56.12 |  4:13.50 |    310212    |   329236
       21  | 73:09.62 |  2:50.38 |    329237    |   342024
Track  1
     Filename C:\Exact Audio Copy\Status Quo\Whatever You Want The Very Best Of Status Quo Disc 1\01 Pictures Of Matchstick Men.wav
     Pre-gap length  0:00:02.00
     Peak level 95.4 %
     Extraction speed 3.9 X
     Track quality 99.8 %
     Test CRC CAA1A322
     Copy CRC CAA1A322
     Accurately ripped (confidence 9)  [0727EDE1]  (AR v2)
     Copy OK
Track  2
     Filename C:\Exact Audio Copy\Status Quo\Whatever You Want The Very Best Of Status Quo Disc 1\02 Ice In The Sun.wav
     Pre-gap length  0:00:01.55
     Peak level 99.9 %
     Extraction speed 4.2 X
     Track quality 100.0 %
     Test CRC 3C2A7E63
     Copy CRC 3C2A7E63
     Accurately ripped (confidence 9)  [917B693D]  (AR v2)
     Copy OK
Track  3
     Filename C:\Exact Audio Copy\Status Quo\Whatever You Want The Very Best Of Status Quo Disc 1\03 Down The Dustpipe.wav
     Pre-gap length  0:00:01.55
     Peak level 99.9 %
     Extraction speed 4.4 X
     Track quality 99.8 %
     Test CRC 19C713F0
     Copy CRC 19C713F0
     Accurately ripped (confidence 9)  [4A4E14A9]  (AR v2)
     Copy OK
Track  4
     Filename C:\Exact Audio Copy\Status Quo\Whatever You Want The Very Best Of Status Quo Disc 1\04 In My Chair.wav
     Pre-gap length  0:00:01.55
     Peak level 99.9 %
     Extraction speed 4.7 X
     Track quality 100.0 %
     Test CRC 501E5B13
     Copy CRC 501E5B13
     Accurately ripped (confidence 9)  [6B58E6CF]  (AR v2)
     Copy OK
Track  5
     Filename C:\Exact Audio Copy\Status Quo\Whatever You Want The Very Best Of Status Quo Disc 1\05 Paper Plane.wav
     Pre-gap length  0:00:01.55
     Peak level 99.9 %
     Extraction speed 5.2 X
     Track quality 100.0 %
     Test CRC 530563F7
     Copy CRC 530563F7
     Accurately ripped (confidence 9)  [082E392B]  (AR v2)
     Copy OK
Track  6
     Filename C:\Exact Audio Copy\Status Quo\Whatever You Want The Very Best Of Status Quo Disc 1\06 Mean Girl.wav
     Pre-gap length  0:00:01.55
     Peak level 99.9 %
     Extraction speed 5.3 X
     Track quality 100.0 %
     Test CRC 52849C67
     Copy CRC 52849C67
     Accurately ripped (confidence 9)  [A6880096]  (AR v2)
     Copy OK
Track  7
     Filename C:\Exact Audio Copy\Status Quo\Whatever You Want The Very Best Of Status Quo Disc 1\07 Caroline.wav
     Pre-gap length  0:00:01.58
     Peak level 99.9 %
     Extraction speed 5.6 X
     Track quality 100.0 %
     Test CRC 26455DAB
     Copy CRC 26455DAB
     Accurately ripped (confidence 9)  [0C9E6AE1]  (AR v2)
     Copy OK
Track  8
     Filename C:\Exact Audio Copy\Status Quo\Whatever You Want The Very Best Of Status Quo Disc 1\08 Break The Rules.wav
     Pre-gap length  0:00:01.55
     Peak level 99.9 %
     Extraction speed 6.1 X
     Track quality 100.0 %
     Test CRC A63CDE21
     Copy CRC A63CDE21
     Accurately ripped (confidence 9)  [C3F6E806]  (AR v2)
     Copy OK
Track  9
     Filename C:\Exact Audio Copy\Status Quo\Whatever You Want The Very Best Of Status Quo Disc 1\09 Down Down.wav
     Pre-gap length  0:00:01.55
     Peak level 99.9 %
     Extraction speed 6.2 X
     Track quality 100.0 %
     Test CRC 8E3BADD5
     Copy CRC 8E3BADD5
     Accurately ripped (confidence 9)  [4E049D73]  (AR v2)
     Copy OK
Track 10
     Filename C:\Exact Audio Copy\Status Quo\Whatever You Want The Very Best Of Status Quo Disc 1\10 Roll Over Lay Down.wav
     Pre-gap length  0:00:01.55
     Peak level 99.9 %
     Extraction speed 6.7 X
     Track quality 100.0 %
     Test CRC 4F55EAA9
     Copy CRC 4F55EAA9
     Accurately ripped (confidence 9)  [A5A65ADC]  (AR v2)
     Copy OK
Track 11
     Filename C:\Exact Audio Copy\Status Quo\Whatever You Want The Very Best Of Status Quo Disc 1\11 Rain.wav
     Pre-gap length  0:00:01.55
     Peak level 99.9 %
     Extraction speed 6.8 X
     Track quality 99.9 %
     Test CRC 49BC3973
     Copy CRC 49BC3973
     Accurately ripped (confidence 9)  [D6015B4A]  (AR v2)
     Copy OK
Track 12
     Filename C:\Exact Audio Copy\Status Quo\Whatever You Want The Very Best Of Status Quo Disc 1\12 Mystery Song.wav
     Pre-gap length  0:00:01.55
     Peak level 99.9 %
     Extraction speed 7.0 X
     Track quality 99.9 %
     Test CRC 16F4F8C9
     Copy CRC 16F4F8C9
     Accurately ripped (confidence 9)  [B8F604F6]  (AR v2)
     Copy OK
Track 13
     Filename C:\Exact Audio Copy\Status Quo\Whatever You Want The Very Best Of Status Quo Disc 1\13 Wild Side Of Life.wav
     Pre-gap length  0:00:01.55
     Peak level 99.9 %
     Extraction speed 7.2 X
     Track quality 100.0 %
     Test CRC C58B349E
     Copy CRC C58B349E
     Accurately ripped (confidence 9)  [901BB6CC]  (AR v2)
     Copy OK
Track 14
     Filename C:\Exact Audio Copy\Status Quo\Whatever You Want The Very Best Of Status Quo Disc 1\14 Rockin' All Over The World.wav
     Pre-gap length  0:00:01.55
     Peak level 99.9 %
     Extraction speed 7.8 X
     Track quality 100.0 %
     Test CRC 98EF7506
     Copy CRC 98EF7506
     Accurately ripped (confidence 9)  [FA90B07E]  (AR v2)
     Copy OK
Track 15
     Filename C:\Exact Audio Copy\Status Quo\Whatever You Want The Very Best Of Status Quo Disc 1\15 Again And Again.wav
     Pre-gap length  0:00:01.55
     Peak level 99.6 %
     Extraction speed 8.0 X
     Track quality 100.0 %
     Test CRC 8FD5D310
     Copy CRC 8FD5D310
     Accurately ripped (confidence 9)  [83792175]  (AR v2)
     Copy OK
Track 16
     Filename C:\Exact Audio Copy\Status Quo\Whatever You Want The Very Best Of Status Quo Disc 1\16 Whatever You Want.wav
     Pre-gap length  0:00:01.55
     Peak level 99.9 %
     Extraction speed 8.2 X
     Track quality 100.0 %
     Test CRC F70070A5
     Copy CRC F70070A5
     Accurately ripped (confidence 9)  [777E54A7]  (AR v2)
     Copy OK
Track 17
     Filename C:\Exact Audio Copy\Status Quo\Whatever You Want The Very Best Of Status Quo Disc 1\17 Living On An Island.wav
     Pre-gap length  0:00:01.55
     Peak level 97.8 %
     Extraction speed 8.1 X
     Track quality 100.0 %
     Test CRC 66285DE9
     Copy CRC 66285DE9
     Accurately ripped (confidence 9)  [B39D227B]  (AR v2)
     Copy OK
Track 18
     Filename C:\Exact Audio Copy\Status Quo\Whatever You Want The Very Best Of Status Quo Disc 1\18 What You're Proposing.wav
     Pre-gap length  0:00:01.55
     Peak level 99.9 %
     Extraction speed 8.3 X
     Track quality 100.0 %
     Test CRC D808D6D7
     Copy CRC D808D6D7
     Accurately ripped (confidence 9)  [5E5302CB]  (AR v2)
     Copy OK
Track 19
     Filename C:\Exact Audio Copy\Status Quo\Whatever You Want The Very Best Of Status Quo Disc 1\19 Lies.wav
     Pre-gap length  0:00:01.55
     Peak level 99.9 %
     Extraction speed 8.4 X
     Track quality 99.9 %
     Test CRC B7BC8BD0
     Copy CRC B7BC8BD0
     Accurately ripped (confidence 9)  [D6B8493E]  (AR v2)
     Copy OK
Track 20
     Filename C:\Exact Audio Copy\Status Quo\Whatever You Want The Very Best Of Status Quo Disc 1\20 Don't Drive My Car.wav
     Pre-gap length  0:00:01.55
     Peak level 99.9 %
     Extraction speed 8.6 X
     Track quality 99.9 %
     Test CRC 92EFD44B
     Copy CRC 92EFD44B
     Accurately ripped (confidence 9)  [9EDFEB56]  (AR v2)
     Copy OK
Track 21
     Filename C:\Exact Audio Copy\Status Quo\Whatever You Want The Very Best Of Status Quo Disc 1\21 Something About You Baby I Like.wav
     Pre-gap length  0:00:01.55
     Peak level 99.9 %
     Extraction speed 8.5 X
     Track quality 99.8 %
     Test CRC 53593F1A
     Copy CRC 53593F1A
     Accurately ripped (confidence 9)  [E5425D11]  (AR v2)
     Copy OK
All tracks accurately ripped
No errors occurred
End of status report

CD 2

Exact Audio Copy V1.0 beta 3 from 29. August 2011
EAC extraction logfile from 15. August 2014, 21:42
Status Quo / Whatever You Want The Very Best Of Status Quo Disc 2
Used drive  : HL-DT-STDVDRAM GH24NS90   Adapter: 1  ID: 0
Read mode               : Secure
Utilize accurate stream : Yes
Defeat audio cache      : No
Make use of C2 pointers : Yes
Read offset correction                      : 6
Overread into Lead-In and Lead-Out          : No
Fill up missing offset samples with silence : Yes
Delete leading and trailing silent blocks   : No
Null samples used in CRC calculations       : Yes
Used interface                              : Native Win32 interface for Win NT & 2000
Gap handling                                : Appended to previous track
Used output format              : User Defined Encoder
Selected bitrate                : 1024 kBit/s
Quality                         : High
Add ID3 tag                     : Yes
Command line compressor         : C:\Program Files (x86)\FLAC\metaflac.exe
Additional command line options : -8
TOC of the extracted CD
     Track |   Start  |  Length  | Start sector | End sector
    ---------------------------------------------------------
        1  |  0:00.00 |  4:04.15 |         0    |    18314
        2  |  4:04.15 |  3:13.10 |     18315    |    32799
        3  |  7:17.25 |  2:48.40 |     32800    |    45439
        4  | 10:05.65 |  3:20.42 |     45440    |    60481
        5  | 13:26.32 |  3:28.43 |     60482    |    76124
        6  | 16:55.00 |  3:37.15 |     76125    |    92414
        7  | 20:32.15 |  3:28.72 |     92415    |   108086
        8  | 24:01.12 |  4:00.28 |    108087    |   126114
        9  | 28:01.40 |  4:10.65 |    126115    |   144929
       10  | 32:12.30 |  3:54.37 |    144930    |   162516
       11  | 36:06.67 |  3:04.18 |    162517    |   176334
       12  | 39:11.10 |  3:59.05 |    176335    |   194264
       13  | 43:10.15 |  3:53.57 |    194265    |   211796
       14  | 47:03.72 |  5:32.43 |    211797    |   236739
       15  | 52:36.40 |  5:29.52 |    236740    |   261466
       16  | 58:06.17 |  3:24.35 |    261467    |   276801
       17  | 61:30.52 |  3:04.08 |    276802    |   290609
       18  | 64:34.60 |  3:05.65 |    290610    |   304549
       19  | 67:40.50 |  3:43.45 |    304550    |   321319
       20  | 71:24.20 |  3:06.70 |    321320    |   335339
Track  1
     Filename C:\Exact Audio Copy\Status Quo\Whatever You Want The Very Best Of Status Quo Disc 2\01 Rock 'n' Roll.wav
     Pre-gap length  0:00:02.00
     Peak level 99.9 %
     Extraction speed 3.9 X
     Track quality 100.0 %
     Test CRC 6E7BF5AA
     Copy CRC 6E7BF5AA
     Accurately ripped (confidence 11)  [B3C86A20]  (AR v2)
     Copy OK
Track  2
     Filename C:\Exact Audio Copy\Status Quo\Whatever You Want The Very Best Of Status Quo Disc 2\02 Dear John.wav
     Pre-gap length  0:00:01.55
     Peak level 99.9 %
     Extraction speed 4.4 X
     Track quality 100.0 %
     Test CRC DC884844
     Copy CRC DC884844
     Accurately ripped (confidence 11)  [299BCE5F]  (AR v2)
     Copy OK
Track  3
     Filename C:\Exact Audio Copy\Status Quo\Whatever You Want The Very Best Of Status Quo Disc 2\03 Ol' Rag Blues.wav
     Pre-gap length  0:00:01.55
     Peak level 99.9 %
     Extraction speed 4.5 X
     Track quality 100.0 %
     Test CRC C0E9E591
     Copy CRC C0E9E591
     Accurately ripped (confidence 11)  [AFCF194C]  (AR v2)
     Copy OK
Track  4
     Filename C:\Exact Audio Copy\Status Quo\Whatever You Want The Very Best Of Status Quo Disc 2\04 A Mess Of The Blues.wav
     Pre-gap length  0:00:01.55
     Peak level 99.9 %
     Extraction speed 5.0 X
     Track quality 100.0 %
     Test CRC 629FAA84
     Copy CRC 629FAA84
     Accurately ripped (confidence 11)  [563A1352]  (AR v2)
     Copy OK
Track  5
     Filename C:\Exact Audio Copy\Status Quo\Whatever You Want The Very Best Of Status Quo Disc 2\05 Marguerita Time.wav
     Pre-gap length  0:00:01.55
     Peak level 99.9 %
     Extraction speed 5.1 X
     Track quality 100.0 %
     Test CRC 9C4BDD14
     Copy CRC 9C4BDD14
     Accurately ripped (confidence 11)  [721770B9]  (AR v2)
     Copy OK
Track  6
     Filename C:\Exact Audio Copy\Status Quo\Whatever You Want The Very Best Of Status Quo Disc 2\06 Going Down Town Tonight.wav
     Pre-gap length  0:00:01.55
     Peak level 99.9 %
     Extraction speed 5.4 X
     Track quality 100.0 %
     Test CRC 85B402C4
     Copy CRC 85B402C4
     Accurately ripped (confidence 10)  [CF04F2B9]  (AR v2)
     Copy OK
Track  7
     Filename C:\Exact Audio Copy\Status Quo\Whatever You Want The Very Best Of Status Quo Disc 2\07 The Wanderer.wav
     Pre-gap length  0:00:01.55
     Peak level 99.9 %
     Extraction speed 5.6 X
     Track quality 100.0 %
     Test CRC 608E6AA0
     Copy CRC 608E6AA0
     Accurately ripped (confidence 11)  [370AC0E6]  (AR v2)
     Copy OK
Track  8
     Filename C:\Exact Audio Copy\Status Quo\Whatever You Want The Very Best Of Status Quo Disc 2\08 Rollin' Home.wav
     Pre-gap length  0:00:01.57
     Peak level 99.9 %
     Extraction speed 6.1 X
     Track quality 100.0 %
     Test CRC 760D632A
     Copy CRC 760D632A
     Accurately ripped (confidence 11)  [D832901D]  (AR v2)
     Copy OK
Track  9
     Filename C:\Exact Audio Copy\Status Quo\Whatever You Want The Very Best Of Status Quo Disc 2\09 Red Sky.wav
     Pre-gap length  0:00:01.55
     Peak level 99.9 %
     Extraction speed 6.4 X
     Track quality 100.0 %
     Test CRC 90B2DD3C
     Copy CRC 90B2DD3C
     Accurately ripped (confidence 10)  [EAAD7448]  (AR v2)
     Copy OK
Track 10
     Filename C:\Exact Audio Copy\Status Quo\Whatever You Want The Very Best Of Status Quo Disc 2\10 In The Army Now.wav
     Pre-gap length  0:00:01.55
     Peak level 99.9 %
     Extraction speed 6.4 X
     Track quality 100.0 %
     Test CRC 46BDAE4C
     Copy CRC 46BDAE4C
     Accurately ripped (confidence 11)  [79A9E5A3]  (AR v2)
     Copy OK
Track 11
     Filename C:\Exact Audio Copy\Status Quo\Whatever You Want The Very Best Of Status Quo Disc 2\11 Dreamin'.wav
     Pre-gap length  0:00:01.55
     Peak level 99.9 %
     Extraction speed 6.9 X
     Track quality 100.0 %
     Test CRC E9FF3434
     Copy CRC E9FF3434
     Accurately ripped (confidence 10)  [D0938700]  (AR v2)
     Copy OK
Track 12
     Filename C:\Exact Audio Copy\Status Quo\Whatever You Want The Very Best Of Status Quo Disc 2\12 Ain't Complaining.wav
     Pre-gap length  0:00:01.55
     Peak level 99.9 %
     Extraction speed 7.1 X
     Track quality 100.0 %
     Test CRC 301652CD
     Copy CRC 301652CD
     Accurately ripped (confidence 11)  [CD79193E]  (AR v2)
     Copy OK
Track 13
     Filename C:\Exact Audio Copy\Status Quo\Whatever You Want The Very Best Of Status Quo Disc 2\13 Burning Bridges.wav
     Pre-gap length  0:00:01.55
     Peak level 99.9 %
     Extraction speed 7.0 X
     Track quality 100.0 %
     Test CRC 84D5E72F
     Copy CRC 84D5E72F
     Accurately ripped (confidence 11)  [A784DD27]  (AR v2)
     Copy OK
Track 14
     Filename C:\Exact Audio Copy\Status Quo\Whatever You Want The Very Best Of Status Quo Disc 2\14 Anniversary Waltz Part 1 (Medley).wav
     Pre-gap length  0:00:01.55
     Peak level 99.9 %
     Extraction speed 7.4 X
     Track quality 100.0 %
     Test CRC 90FDC761
     Copy CRC 90FDC761
     Accurately ripped (confidence 11)  [4E5F39B2]  (AR v2)
     Copy OK
Track 15
     Filename C:\Exact Audio Copy\Status Quo\Whatever You Want The Very Best Of Status Quo Disc 2\15 Anniversary Waltz Part 2 (Medley).wav
     Pre-gap length  0:00:01.55
     Peak level 99.9 %
     Extraction speed 7.7 X
     Track quality 100.0 %
     Test CRC BC9BAD5F
     Copy CRC BC9BAD5F
     Accurately ripped (confidence 11)  [51D434C6]  (AR v2)
     Copy OK
Track 16
     Filename C:\Exact Audio Copy\Status Quo\Whatever You Want The Very Best Of Status Quo Disc 2\16 I Didn't Mean It.wav
     Pre-gap length  0:00:01.57
     Peak level 97.9 %
     Extraction speed 7.7 X
     Track quality 100.0 %
     Test CRC 4ACB0632
     Copy CRC 4ACB0632
     Accurately ripped (confidence 11)  [92C52BED]  (AR v2)
     Copy OK
Track 17
     Filename C:\Exact Audio Copy\Status Quo\Whatever You Want The Very Best Of Status Quo Disc 2\17 When You Walk In The Room.wav
     Pre-gap length  0:00:01.55
     Peak level 94.3 %
     Extraction speed 7.8 X
     Track quality 100.0 %
     Test CRC CC4CAE5C
     Copy CRC CC4CAE5C
     Accurately ripped (confidence 11)  [1E6ECD99]  (AR v2)
     Copy OK
Track 18
     Filename C:\Exact Audio Copy\Status Quo\Whatever You Want The Very Best Of Status Quo Disc 2\18 Fun Fun Fun (Feat Beach Boys).wav
     Pre-gap length  0:00:01.55
     Peak level 75.1 %
     Extraction speed 8.5 X
     Track quality 100.0 %
     Test CRC 24FEC032
     Copy CRC 24FEC032
     Accurately ripped (confidence 11)  [AE9B55B3]  (AR v2)
     Copy OK
Track 19
     Filename C:\Exact Audio Copy\Status Quo\Whatever You Want The Very Best Of Status Quo Disc 2\19 Don't Stop.wav
     Pre-gap length  0:00:01.55
     Peak level 99.9 %
     Extraction speed 8.2 X
     Track quality 100.0 %
     Test CRC 74002E00
     Copy CRC 74002E00
     Accurately ripped (confidence 11)  [1D0E0E4C]  (AR v2)
     Copy OK
Track 20
     Filename C:\Exact Audio Copy\Status Quo\Whatever You Want The Very Best Of Status Quo Disc 2\20 All Around My Hat (with Maddy Prior).wav
     Pre-gap length  0:00:01.55
     Peak level 99.9 %
     Extraction speed 8.4 X
     Track quality 100.0 %
     Test CRC 30B4BE6B
     Copy CRC 30B4BE6B
     Accurately ripped (confidence 11)  [59BA6A2D]  (AR v2)
     Copy OK
All tracks accurately ripped
No errors occurred
End of status report

содержание индексной карты *cue

CD 1

REM GENRE Rock
REM DATE 1997
REM DISCID 1811D015
REM COMMENT "ExactAudioCopy v1.0b3"
PERFORMER "Status Quo"
TITLE "Whatever You Want The Very Best Of Status Quo Disc 1"
FILE "Status Quo\Whatever You Want The Very Best Of Status Quo Disc 1\01 Pictures Of Matchstick Men.wav" WAVE
  TRACK 01 AUDIO
    TITLE "Pictures Of Matchstick Men"
    PERFORMER "Status Quo"
    INDEX 01 00:00:00
  TRACK 02 AUDIO
    TITLE "Ice In The Sun"
    PERFORMER "Status Quo"
    INDEX 00 03:08:37
FILE "Status Quo\Whatever You Want The Very Best Of Status Quo Disc 1\02 Ice In The Sun.wav" WAVE
    INDEX 01 00:00:00
  TRACK 03 AUDIO
    TITLE "Down The Dustpipe"
    PERFORMER "Status Quo"
    INDEX 00 01:59:43
FILE "Status Quo\Whatever You Want The Very Best Of Status Quo Disc 1\03 Down The Dustpipe.wav" WAVE
    INDEX 01 00:00:00
  TRACK 04 AUDIO
    TITLE "In My Chair"
    PERFORMER "Status Quo"
    INDEX 00 02:01:42
FILE "Status Quo\Whatever You Want The Very Best Of Status Quo Disc 1\04 In My Chair.wav" WAVE
    INDEX 01 00:00:00
  TRACK 05 AUDIO
    TITLE "Paper Plane"
    PERFORMER "Status Quo"
    INDEX 00 03:08:55
FILE "Status Quo\Whatever You Want The Very Best Of Status Quo Disc 1\05 Paper Plane.wav" WAVE
    INDEX 01 00:00:00
  TRACK 06 AUDIO
    TITLE "Mean Girl"
    PERFORMER "Status Quo"
    INDEX 00 02:54:15
FILE "Status Quo\Whatever You Want The Very Best Of Status Quo Disc 1\06 Mean Girl.wav" WAVE
    INDEX 01 00:00:00
  TRACK 07 AUDIO
    TITLE "Caroline"
    PERFORMER "Status Quo"
    INDEX 00 03:57:35
FILE "Status Quo\Whatever You Want The Very Best Of Status Quo Disc 1\07 Caroline.wav" WAVE
    INDEX 01 00:00:00
  TRACK 08 AUDIO
    TITLE "Break The Rules"
    PERFORMER "Status Quo"
    INDEX 00 03:41:37
FILE "Status Quo\Whatever You Want The Very Best Of Status Quo Disc 1\08 Break The Rules.wav" WAVE
    INDEX 01 00:00:00
  TRACK 09 AUDIO
    TITLE "Down Down"
    PERFORMER "Status Quo"
    INDEX 00 03:37:70
FILE "Status Quo\Whatever You Want The Very Best Of Status Quo Disc 1\09 Down Down.wav" WAVE
    INDEX 01 00:00:00
  TRACK 10 AUDIO
    TITLE "Roll Over Lay Down"
    PERFORMER "Status Quo"
    INDEX 00 03:48:63
FILE "Status Quo\Whatever You Want The Very Best Of Status Quo Disc 1\10 Roll Over Lay Down.wav" WAVE
    INDEX 01 00:00:00
  TRACK 11 AUDIO
    TITLE "Rain"
    PERFORMER "Status Quo"
    INDEX 00 05:40:00
FILE "Status Quo\Whatever You Want The Very Best Of Status Quo Disc 1\11 Rain.wav" WAVE
    INDEX 01 00:00:00
  TRACK 12 AUDIO
    TITLE "Mystery Song"
    PERFORMER "Status Quo"
    INDEX 00 04:32:50
FILE "Status Quo\Whatever You Want The Very Best Of Status Quo Disc 1\12 Mystery Song.wav" WAVE
    INDEX 01 00:00:00
  TRACK 13 AUDIO
    TITLE "Wild Side Of Life"
    PERFORMER "Status Quo"
    INDEX 00 03:56:70
FILE "Status Quo\Whatever You Want The Very Best Of Status Quo Disc 1\13 Wild Side Of Life.wav" WAVE
    INDEX 01 00:00:00
  TRACK 14 AUDIO
    TITLE "Rockin' All Over The World"
    PERFORMER "Status Quo"
    INDEX 00 03:15:10
FILE "Status Quo\Whatever You Want The Very Best Of Status Quo Disc 1\14 Rockin' All Over The World.wav" WAVE
    INDEX 01 00:00:00
  TRACK 15 AUDIO
    TITLE "Again And Again"
    PERFORMER "Status Quo"
    INDEX 00 03:30:70
FILE "Status Quo\Whatever You Want The Very Best Of Status Quo Disc 1\15 Again And Again.wav" WAVE
    INDEX 01 00:00:00
  TRACK 16 AUDIO
    TITLE "Whatever You Want"
    PERFORMER "Status Quo"
    INDEX 00 03:40:57
FILE "Status Quo\Whatever You Want The Very Best Of Status Quo Disc 1\16 Whatever You Want.wav" WAVE
    INDEX 01 00:00:00
  TRACK 17 AUDIO
    TITLE "Living On An Island"
    PERFORMER "Status Quo"
    INDEX 00 04:00:15
FILE "Status Quo\Whatever You Want The Very Best Of Status Quo Disc 1\17 Living On An Island.wav" WAVE
    INDEX 01 00:00:00
  TRACK 18 AUDIO
    TITLE "What You're Proposing"
    PERFORMER "Status Quo"
    INDEX 00 03:45:23
FILE "Status Quo\Whatever You Want The Very Best Of Status Quo Disc 1\18 What You're Proposing.wav" WAVE
    INDEX 01 00:00:00
  TRACK 19 AUDIO
    TITLE "Lies"
    PERFORMER "Status Quo"
    INDEX 00 03:50:10
FILE "Status Quo\Whatever You Want The Very Best Of Status Quo Disc 1\19 Lies.wav" WAVE
    INDEX 01 00:00:00
  TRACK 20 AUDIO
    TITLE "Don't Drive My Car"
    PERFORMER "Status Quo"
    INDEX 00 03:52:62
FILE "Status Quo\Whatever You Want The Very Best Of Status Quo Disc 1\20 Don't Drive My Car.wav" WAVE
    INDEX 01 00:00:00
  TRACK 21 AUDIO
    TITLE "Something About You Baby I Like"
    PERFORMER "Status Quo"
    INDEX 00 04:11:70
FILE "Status Quo\Whatever You Want The Very Best Of Status Quo Disc 1\21 Something About You Baby I Like.wav" WAVE
    INDEX 01 00:00:00

CD 2

REM GENRE Rock
REM DATE 1997
REM DISCID 33117714
REM COMMENT "ExactAudioCopy v1.0b3"
PERFORMER "Status Quo"
TITLE "Whatever You Want The Very Best Of Status Quo Disc 2"
FILE "Status Quo\Whatever You Want The Very Best Of Status Quo Disc 2\01 Rock 'n' Roll.wav" WAVE
  TRACK 01 AUDIO
    TITLE "Rock 'n' Roll"
    PERFORMER "Status Quo"
    INDEX 01 00:00:00
  TRACK 02 AUDIO
    TITLE "Dear John"
    PERFORMER "Status Quo"
    INDEX 00 04:02:35
FILE "Status Quo\Whatever You Want The Very Best Of Status Quo Disc 2\02 Dear John.wav" WAVE
    INDEX 01 00:00:00
  TRACK 03 AUDIO
    TITLE "Ol' Rag Blues"
    PERFORMER "Status Quo"
    INDEX 00 03:11:30
FILE "Status Quo\Whatever You Want The Very Best Of Status Quo Disc 2\03 Ol' Rag Blues.wav" WAVE
    INDEX 01 00:00:00
  TRACK 04 AUDIO
    TITLE "A Mess Of The Blues"
    PERFORMER "Status Quo"
    INDEX 00 02:46:60
FILE "Status Quo\Whatever You Want The Very Best Of Status Quo Disc 2\04 A Mess Of The Blues.wav" WAVE
    INDEX 01 00:00:00
  TRACK 05 AUDIO
    TITLE "Marguerita Time"
    PERFORMER "Status Quo"
    INDEX 00 03:18:62
FILE "Status Quo\Whatever You Want The Very Best Of Status Quo Disc 2\05 Marguerita Time.wav" WAVE
    INDEX 01 00:00:00
  TRACK 06 AUDIO
    TITLE "Going Down Town Tonight"
    PERFORMER "Status Quo"
    INDEX 00 03:26:63
FILE "Status Quo\Whatever You Want The Very Best Of Status Quo Disc 2\06 Going Down Town Tonight.wav" WAVE
    INDEX 01 00:00:00
  TRACK 07 AUDIO
    TITLE "The Wanderer"
    PERFORMER "Status Quo"
    INDEX 00 03:35:35
FILE "Status Quo\Whatever You Want The Very Best Of Status Quo Disc 2\07 The Wanderer.wav" WAVE
    INDEX 01 00:00:00
  TRACK 08 AUDIO
    TITLE "Rollin' Home"
    PERFORMER "Status Quo"
    INDEX 00 03:27:15
FILE "Status Quo\Whatever You Want The Very Best Of Status Quo Disc 2\08 Rollin' Home.wav" WAVE
    INDEX 01 00:00:00
  TRACK 09 AUDIO
    TITLE "Red Sky"
    PERFORMER "Status Quo"
    INDEX 00 03:58:48
FILE "Status Quo\Whatever You Want The Very Best Of Status Quo Disc 2\09 Red Sky.wav" WAVE
    INDEX 01 00:00:00
  TRACK 10 AUDIO
    TITLE "In The Army Now"
    PERFORMER "Status Quo"
    INDEX 00 04:09:10
FILE "Status Quo\Whatever You Want The Very Best Of Status Quo Disc 2\10 In The Army Now.wav" WAVE
    INDEX 01 00:00:00
  TRACK 11 AUDIO
    TITLE "Dreamin'"
    PERFORMER "Status Quo"
    INDEX 00 03:52:57
FILE "Status Quo\Whatever You Want The Very Best Of Status Quo Disc 2\11 Dreamin'.wav" WAVE
    INDEX 01 00:00:00
  TRACK 12 AUDIO
    TITLE "Ain't Complaining"
    PERFORMER "Status Quo"
    INDEX 00 03:02:38
FILE "Status Quo\Whatever You Want The Very Best Of Status Quo Disc 2\12 Ain't Complaining.wav" WAVE
    INDEX 01 00:00:00
  TRACK 13 AUDIO
    TITLE "Burning Bridges"
    PERFORMER "Status Quo"
    INDEX 00 03:57:25
FILE "Status Quo\Whatever You Want The Very Best Of Status Quo Disc 2\13 Burning Bridges.wav" WAVE
    INDEX 01 00:00:00
  TRACK 14 AUDIO
    TITLE "Anniversary Waltz Part 1 (Medley)"
    PERFORMER "Status Quo"
    INDEX 00 03:52:02
FILE "Status Quo\Whatever You Want The Very Best Of Status Quo Disc 2\14 Anniversary Waltz Part 1 (Medley).wav" WAVE
    INDEX 01 00:00:00
  TRACK 15 AUDIO
    TITLE "Anniversary Waltz Part 2 (Medley)"
    PERFORMER "Status Quo"
    INDEX 00 05:30:63
FILE "Status Quo\Whatever You Want The Very Best Of Status Quo Disc 2\15 Anniversary Waltz Part 2 (Medley).wav" WAVE
    INDEX 01 00:00:00
  TRACK 16 AUDIO
    TITLE "I Didn't Mean It"
    PERFORMER "Status Quo"
    INDEX 00 05:27:70
FILE "Status Quo\Whatever You Want The Very Best Of Status Quo Disc 2\16 I Didn't Mean It.wav" WAVE
    INDEX 01 00:00:00
  TRACK 17 AUDIO
    TITLE "When You Walk In The Room"
    PERFORMER "Status Quo"
    INDEX 00 03:22:55
FILE "Status Quo\Whatever You Want The Very Best Of Status Quo Disc 2\17 When You Walk In The Room.wav" WAVE
    INDEX 01 00:00:00
  TRACK 18 AUDIO
    TITLE "Fun Fun Fun (Feat Beach Boys)"
    PERFORMER "Status Quo"
    INDEX 00 03:02:28
FILE "Status Quo\Whatever You Want The Very Best Of Status Quo Disc 2\18 Fun Fun Fun (Feat Beach Boys).wav" WAVE
    INDEX 01 00:00:00
  TRACK 19 AUDIO
    TITLE "Don't Stop"
    PERFORMER "Status Quo"
    INDEX 00 03:04:10
FILE "Status Quo\Whatever You Want The Very Best Of Status Quo Disc 2\19 Don't Stop.wav" WAVE
    INDEX 01 00:00:00
  TRACK 20 AUDIO
    TITLE "All Around My Hat (with Maddy Prior)"
    PERFORMER "Status Quo"
    INDEX 00 03:41:65
FILE "Status Quo\Whatever You Want The Very Best Of Status Quo Disc 2\20 All Around My Hat (with Maddy Prior).wav" WAVE
    INDEX 01 00:00:00
[Профиль] [ЛС]
Показать сообщения:    

Текущее время: Сегодня 02:25

Часовой пояс: GMT



Вы не можете начинать темы
Вы не можете отвечать на сообщения
Вы не можете редактировать свои сообщения
Вы не можете удалять свои сообщения
Вы не можете голосовать в опросах
Вы не можете прикреплять файлы к сообщениям
Вы не можете скачивать файлы