(Rock'N'Roll,Pop-Rock) Status Quo - Status + Quo + Live! (4CD Deluxe Edition Box Set) - 2014 [FLAC, image+.cue, lossless]

 
Автор Сообщение

sergej644 ®

Пол:

Стаж: 4 года 11 месяцев

Сообщений: 6043

Откуда: Soviet Union



Награды: Нет

Торрент-статистика

Создавать темы 19-Дек-2015 18:33

[Цитировать]

-Status Quo / Status + Quo + Live! (4CD Deluxe Edition Box Set)-- Год издания: 2014
Страна: UK
Жанр: Rock'N'Roll, Pop-Rock
Продолжительность: 03:18:16-Лейбл издания: Mercury Records Ltd.
Страна-выпуска диска: UK
Номер по каталогу: 37398354
Формат: FLAC
Битрейт аудио: lossless
Тип рипа: image+.cue
Наличие сканов в содержимом раздачи: да
-Status Quo — британская рок-группа, основанная бас-гитаристом Аланом Ланкастером и гитаристом Фрэнсисом Росси в 1962 году в Лондоне, Англия.

Трэклист

1974 - Status Quo Live Australia / 01:02:21

01. Junior's Wailing (04:05)
02. Backwater (04:38)
03. Just Take Me (03:48)
04. Claudie (04:19)
05. Railroad (05:52)
06. Roll Over Lay Down (05:40)
07. Big Fat Mama (05:25)
08. Don't Waste My Time (04:15)
09. Roadhouse Blues Part 1 (08:55)
10. Roadhouse Blues Part 2 (01:38)
11. Caroline (04:17)
12. Drum Solo (03:21)
13. Bye Bye Johnny (06:15)

лог создания рипа

Exact Audio Copy V1.0 beta 3 from 29. August 2011
EAC extraction logfile from 17. October 2014, 22:27
Status Quo / Status Quo Live Australia '74
Used drive  : PLEXTOR BD-R  PX-B950SA   Adapter: 6  ID: 0
Read mode               : Secure
Utilize accurate stream : Yes
Defeat audio cache      : Yes
Make use of C2 pointers : No
Read offset correction                      : 6
Overread into Lead-In and Lead-Out          : No
Fill up missing offset samples with silence : Yes
Delete leading and trailing silent blocks   : No
Null samples used in CRC calculations       : Yes
Used interface                              : Native Win32 interface for Win NT & 2000
Used output format : Internal WAV Routines
Sample format      : 44.100 Hz; 16 Bit; Stereo
TOC of the extracted CD
     Track |   Start  |  Length  | Start sector | End sector
    ---------------------------------------------------------
        1  |  0:00.00 |  4:04.32 |         0    |    18331
        2  |  4:04.32 |  4:37.16 |     18332    |    39122
        3  |  8:41.48 |  3:47.02 |     39123    |    56149
        4  | 12:28.50 |  4:18.54 |     56150    |    75553
        5  | 16:47.29 |  5:51.31 |     75554    |   101909
        6  | 22:38.60 |  5:39.45 |    101910    |   127379
        7  | 28:18.30 |  5:24.10 |    127380    |   151689
        8  | 33:42.40 |  4:14.29 |    151690    |   170768
        9  | 37:56.69 |  8:54.49 |    170769    |   210867
       10  | 46:51.43 |  1:37.62 |    210868    |   218204
       11  | 48:29.30 |  4:16.17 |    218205    |   237421
       12  | 52:45.47 |  3:20.71 |    237422    |   252492
       13  | 56:06.43 |  6:14.29 |    252493    |   280571
Range status and errors
Selected range
     Filename C:\Users\Meijin\Desktop\Lossless Galaxy ALLexxess\Status Quo\2014 Status + Quo + Live! (4CD Box Set Mercury Records)\1974 Australia '74\Status Quo Live Australia '74.wav
     Peak level 97.7 %
     Extraction speed 7.7 X
     Range quality 99.9 %
     Test CRC 7E2582A9
     Copy CRC 7E2582A9
     Copy OK
No errors occurred
AccurateRip summary
Track  1  not present in database
Track  2  not present in database
Track  3  not present in database
Track  4  not present in database
Track  5  not present in database
Track  6  not present in database
Track  7  not present in database
Track  8  not present in database
Track  9  not present in database
Track 10  not present in database
Track 11  not present in database
Track 12  not present in database
Track 13  not present in database
None of the tracks are present in the AccurateRip database
End of status report

содержание индексной карты *cue

REM GENRE "Pop Rock"
REM DATE 2014
REM DISCID 9B0E9C0D
REM COMMENT "ExactAudioCopy v1.0b3"
PERFORMER "Status Quo"
TITLE "Status Quo Live Australia '74 "
FILE "Status Quo Live Australia '74.flac" WAVE
  TRACK 01 AUDIO
    TITLE "Junior's Wailing"
    PERFORMER "Status Quo"
    INDEX 01 00:00:00
  TRACK 02 AUDIO
    TITLE "Backwater"
    PERFORMER "Status Quo"
    INDEX 01 04:04:32
  TRACK 03 AUDIO
    TITLE "Just Take Me"
    PERFORMER "Status Quo"
    INDEX 01 08:41:48
  TRACK 04 AUDIO
    TITLE "Claudie"
    PERFORMER "Status Quo"
    INDEX 01 12:28:50
  TRACK 05 AUDIO
    TITLE "Railroad"
    PERFORMER "Status Quo"
    INDEX 01 16:47:29
  TRACK 06 AUDIO
    TITLE "Roll Over Lay Down"
    PERFORMER "Status Quo"
    INDEX 01 22:38:60
  TRACK 07 AUDIO
    TITLE "Big Fat Mama"
    PERFORMER "Status Quo"
    INDEX 01 28:18:30
  TRACK 08 AUDIO
    TITLE "Don't Waste My Time"
    PERFORMER "Status Quo"
    INDEX 01 33:42:40
  TRACK 09 AUDIO
    TITLE "Roadhouse Blues Part 1"
    PERFORMER "Status Quo"
    INDEX 01 37:56:69
  TRACK 10 AUDIO
    TITLE "Roadhouse Blues Part 2"
    PERFORMER "Status Quo"
    INDEX 01 46:51:43
  TRACK 11 AUDIO
    TITLE "Caroline"
    PERFORMER "Status Quo"
    INDEX 01 48:29:30
  TRACK 12 AUDIO
    TITLE "Drum Solo"
    PERFORMER "Status Quo"
    INDEX 01 52:45:47
  TRACK 13 AUDIO
    TITLE "Bye Bye Johnny"
    PERFORMER "Status Quo"
    INDEX 01 56:06:43

1976 - Quo Live! 2CD

CD 1 / 00:45:42

01. Junior's Wailing (05:22)
02. Backwater / Just Take Me (08:28)
03. Is There A Better Way (04:18)
04. In My Chair (03:35)
05. Little Lady / Most Of The Time (07:07)
06. Forty-Five Hundred Times (16:54)

лог создания рипа

Exact Audio Copy V1.0 beta 3 from 29. August 2011
EAC extraction logfile from 18. October 2014, 11:11
Status Quo / Status Quo Live Quo Live! CD1
Used drive  : PLEXTOR BD-R  PX-B950SA   Adapter: 6  ID: 0
Read mode               : Secure
Utilize accurate stream : Yes
Defeat audio cache      : Yes
Make use of C2 pointers : No
Read offset correction                      : 6
Overread into Lead-In and Lead-Out          : No
Fill up missing offset samples with silence : Yes
Delete leading and trailing silent blocks   : No
Null samples used in CRC calculations       : Yes
Used interface                              : Native Win32 interface for Win NT & 2000
Used output format : Internal WAV Routines
Sample format      : 44.100 Hz; 16 Bit; Stereo
TOC of the extracted CD
     Track |   Start  |  Length  | Start sector | End sector
    ---------------------------------------------------------
        1  |  0:00.00 |  5:21.42 |         0    |    24116
        2  |  5:21.42 |  8:27.45 |     24117    |    62186
        3  | 13:49.12 |  4:17.24 |     62187    |    81485
        4  | 18:06.36 |  3:34.49 |     81486    |    97584
        5  | 21:41.10 |  7:06.21 |     97585    |   129555
        6  | 28:47.31 | 16:53.46 |    129556    |   205576
Range status and errors
Selected range
     Filename C:\Users\Meijin\Desktop\Lossless Galaxy ALLexxess\Status Quo\2014 Status + Quo + Live! (4CD Box Set Mercury Records)\1976 Quo Live! 2CD\CD1\Status Quo Live Quo Live! CD1.wav
     Peak level 97.7 %
     Extraction speed 7.0 X
     Range quality 99.9 %
     Test CRC 812A411E
     Copy CRC 812A411E
     Copy OK
No errors occurred
AccurateRip summary
Track  1  not present in database
Track  2  not present in database
Track  3  not present in database
Track  4  not present in database
Track  5  not present in database
Track  6  not present in database
None of the tracks are present in the AccurateRip database
End of status report

содержание индексной карты *cue

REM GENRE "Pop Rock"
REM DATE 2014
REM DISCID 410AB506
REM COMMENT "ExactAudioCopy v1.0b3"
PERFORMER "Status Quo"
TITLE "Status Quo Live Quo Live! CD1"
FILE "Status Quo Live Quo Live! CD1.flac" WAVE
  TRACK 01 AUDIO
    TITLE "Junior's Wailing"
    PERFORMER "Status Quo"
    INDEX 01 00:00:00
  TRACK 02 AUDIO
    TITLE "Backwater / Just Take Me"
    PERFORMER "Status Quo"
    INDEX 01 05:21:42
  TRACK 03 AUDIO
    TITLE "Is There A Better Way"
    PERFORMER "Status Quo"
    INDEX 01 13:49:12
  TRACK 04 AUDIO
    TITLE "In My Chair"
    PERFORMER "Status Quo"
    INDEX 01 18:06:36
  TRACK 05 AUDIO
    TITLE "Little Lady / Most Of The Time"
    PERFORMER "Status Quo"
    INDEX 01 21:41:10
  TRACK 06 AUDIO
    TITLE "Forty-Five Hundred Times"
    PERFORMER "Status Quo"
    INDEX 01 28:47:31

CD 2 / 00:47:49

01. Roll Over Lay Down (06:06)
02. Big Fat Mama (05:14)
03. Caroline (06:41)
04. Bye Bye Johnny (06:25)
05. Rain (04:58)
06. Don't Waste My Time (04:05)
07. Roadhouse Blues (14:24)

лог создания рипа

Exact Audio Copy V1.0 beta 3 from 29. August 2011
EAC extraction logfile from 18. October 2014, 10:48
Status Quo / Status Quo Live Quo Live! CD2
Used drive  : PLEXTOR BD-R  PX-B950SA   Adapter: 6  ID: 0
Read mode               : Secure
Utilize accurate stream : Yes
Defeat audio cache      : Yes
Make use of C2 pointers : No
Read offset correction                      : 6
Overread into Lead-In and Lead-Out          : No
Fill up missing offset samples with silence : Yes
Delete leading and trailing silent blocks   : No
Null samples used in CRC calculations       : Yes
Used interface                              : Native Win32 interface for Win NT & 2000
Used output format : Internal WAV Routines
Sample format      : 44.100 Hz; 16 Bit; Stereo
TOC of the extracted CD
     Track |   Start  |  Length  | Start sector | End sector
    ---------------------------------------------------------
        1  |  0:00.00 |  6:05.51 |         0    |    27425
        2  |  6:05.51 |  5:13.31 |     27426    |    50931
        3  | 11:19.07 |  6:40.04 |     50932    |    80935
        4  | 17:59.11 |  6:24.23 |     80936    |   109758
        5  | 24:23.34 |  4:57.06 |    109759    |   132039
        6  | 29:20.40 |  4:04.59 |    132040    |   150398
        7  | 33:25.24 | 14:23.09 |    150399    |   215132
Range status and errors
Selected range
     Filename C:\Users\Meijin\Desktop\Lossless Galaxy ALLexxess\Status Quo\2014 Status + Quo + Live! (4CD Box Set Mercury Records)\1976 Quo Live! 2CD\CD2\Status Quo Live Quo Live! CD2.wav
     Peak level 97.7 %
     Extraction speed 7.2 X
     Range quality 100.0 %
     Test CRC 09A94BB3
     Copy CRC 09A94BB3
     Copy OK
No errors occurred
AccurateRip summary
Track  1  not present in database
Track  2  not present in database
Track  3  not present in database
Track  4  not present in database
Track  5  not present in database
Track  6  not present in database
Track  7  not present in database
None of the tracks are present in the AccurateRip database
End of status report

содержание индексной карты *cue

REM GENRE "Pop Rock"
REM DATE 2014
REM DISCID 540B3407
REM COMMENT "ExactAudioCopy v1.0b3"
PERFORMER "Status Quo"
TITLE "Status Quo Live Quo Live! CD2"
FILE "Status Quo Live Quo Live! CD2.flac" WAVE
  TRACK 01 AUDIO
    TITLE "Roll Over Lay Down"
    PERFORMER "Status Quo"
    INDEX 01 00:00:00
  TRACK 02 AUDIO
    TITLE "Big Fat Mama"
    PERFORMER "Status Quo"
    INDEX 01 06:05:51
  TRACK 03 AUDIO
    TITLE "Caroline"
    PERFORMER "Status Quo"
    INDEX 01 11:19:07
  TRACK 04 AUDIO
    TITLE "Bye Bye Johnny"
    PERFORMER "Status Quo"
    INDEX 01 17:59:11
  TRACK 05 AUDIO
    TITLE "Rain"
    PERFORMER "Status Quo"
    INDEX 01 24:23:34
  TRACK 06 AUDIO
    TITLE "Don't Waste My Time"
    PERFORMER "Status Quo"
    INDEX 01 29:20:40
  TRACK 07 AUDIO
    TITLE "Roadhouse Blues"
    PERFORMER "Status Quo"
    INDEX 01 33:25:24

1976 - Status Quo Live Tokyo / 00:42:26

01. Is There A Better Way (04:02)
02. Little Lady (03:04)
03. Most Of The Time (03:38)
04. Rain (04:37)
05. Caroline (04:30)
06. Roll Over Lay Down (06:09)
07. Big Fat Mama (05:16)
08. Don't Waste My Time (04:15)
09. Bye Bye Johnny (06:59)

лог создания рипа

Exact Audio Copy V1.0 beta 3 from 29. August 2011
EAC extraction logfile from 18. October 2014, 10:20
Status Quo / Status Quo Live Tokyo Quo
Used drive  : PLEXTOR BD-R  PX-B950SA   Adapter: 6  ID: 0
Read mode               : Secure
Utilize accurate stream : Yes
Defeat audio cache      : Yes
Make use of C2 pointers : No
Read offset correction                      : 6
Overread into Lead-In and Lead-Out          : No
Fill up missing offset samples with silence : Yes
Delete leading and trailing silent blocks   : No
Null samples used in CRC calculations       : Yes
Used interface                              : Native Win32 interface for Win NT & 2000
Used output format : Internal WAV Routines
Sample format      : 44.100 Hz; 16 Bit; Stereo
TOC of the extracted CD
     Track |   Start  |  Length  | Start sector | End sector
    ---------------------------------------------------------
        1  |  0:00.00 |  4:01.41 |         0    |    18115
        2  |  4:01.41 |  3:03.21 |     18116    |    31861
        3  |  7:04.62 |  3:37.03 |     31862    |    48139
        4  | 10:41.65 |  4:36.43 |     48140    |    68882
        5  | 15:18.33 |  4:29.34 |     68883    |    89091
        6  | 19:47.67 |  6:08.39 |     89092    |   116730
        7  | 25:56.31 |  5:15.55 |    116731    |   140410
        8  | 31:12.11 |  4:14.28 |    140411    |   159488
        9  | 35:26.39 |  6:58.45 |    159489    |   190883
Range status and errors
Selected range
     Filename C:\Users\Meijin\Desktop\Lossless Galaxy ALLexxess\Status Quo\2014 Status + Quo + Live! (4CD Box Set Mercury Records)\1976 Tokyo Quo\Status Quo Live Tokyo Quo.wav
     Peak level 97.7 %
     Extraction speed 6.9 X
     Range quality 99.9 %
     Test CRC 5450E32D
     Copy CRC 5450E32D
     Copy OK
No errors occurred
AccurateRip summary
Track  1  not present in database
Track  2  not present in database
Track  3  not present in database
Track  4  not present in database
Track  5  not present in database
Track  6  not present in database
Track  7  not present in database
Track  8  not present in database
Track  9  not present in database
None of the tracks are present in the AccurateRip database
End of status report

содержание индексной карты *cue

REM GENRE "Pop Rock"
REM DATE 1977
REM DISCID 7609F109
REM COMMENT "ExactAudioCopy v1.0b3"
PERFORMER "Status Quo"
TITLE "Status Quo Live Tokyo Quo"
FILE "Status Quo Live Tokyo Quo.flac" WAVE
  TRACK 01 AUDIO
    TITLE "Is There A Better Way"
    PERFORMER "Status Quo"
    INDEX 01 00:00:00
  TRACK 02 AUDIO
    TITLE "Little Lady"
    PERFORMER "Status Quo"
    INDEX 01 04:01:41
  TRACK 03 AUDIO
    TITLE "Most Of The Time"
    PERFORMER "Status Quo"
    INDEX 01 07:04:62
  TRACK 04 AUDIO
    TITLE "Rain"
    PERFORMER "Status Quo"
    INDEX 01 10:41:65
  TRACK 05 AUDIO
    TITLE "Caroline"
    PERFORMER "Status Quo"
    INDEX 01 15:18:33
  TRACK 06 AUDIO
    TITLE "Roll Over Lay Down"
    PERFORMER "Status Quo"
    INDEX 01 19:47:67
  TRACK 07 AUDIO
    TITLE "Big Fat Mama"
    PERFORMER "Status Quo"
    INDEX 01 25:56:31
  TRACK 08 AUDIO
    TITLE "Don't Waste My Time"
    PERFORMER "Status Quo"
    INDEX 01 31:12:11
  TRACK 09 AUDIO
    TITLE "Bye Bye Johnny"
    PERFORMER "Status Quo"
    INDEX 01 35:26:39
--Не забываем говорить
[Профиль] [ЛС]
Кто просматривает тему:

Показать сообщения:    

Текущее время: Сегодня 14:44

Часовой пояс: GMT



Вы не можете начинать темы
Вы не можете отвечать на сообщения
Вы не можете редактировать свои сообщения
Вы не можете удалять свои сообщения
Вы не можете голосовать в опросах
Вы не можете прикреплять файлы к сообщениям
Вы не можете скачивать файлы