(Euro-Disco) Stars on 45 - The Best of Stars on 45 - 2005, FLAC (image+.cue), lossless

 
Автор Сообщение

sergej644 ®

Пол:

Стаж: 4 года 11 месяцев

Сообщений: 6041

Откуда: Soviet Union



Награды: Нет

Торрент-статистика

Создавать темы 10-Дек-2014 14:42

[Цитировать]

Stars on 45 / The Best of Stars on 45
Жанр: Euro-Disco
Страна-производитель диска: Germany
Год издания: 2005
Издатель (лейбл): Edel Records GmbH
Номер по каталогу: 0163732ERE
Страна: Holland
Аудиокодек: FLAC (*.flac)
Тип рипа: image+.cue
Битрейт аудио: lossless
Продолжительность: 1:15:02
Источник (релизер): Собственный рип
Наличие сканов в содержимом раздачи: да
Треклист:
01. Stars On 45 (Original Single Version)
02. Stars On 45 (Original 12 inch Version)
03. More Stars (Abba Medley) - Single Version
04. More Stars (U.S.A.) - 12-Inch Version
05. Volume III (Star Wars And Others Hits) - 12-Inch Version
06. Stars On Stevie (Wonder) - 12-Inch Version
07. The Greatest Rock'n Roll Band In The World - Single Version
08. The Beatles (Part 2)
09. The Beatles (George Harrison)
10. The Supremes
11. Stars On 45 Proudly Presents The Stars Sisters
12. The Star Sisters: Hooray For Hollywood
13. The Star Sisters: A Tribute To Marilyn Monroe

Лог создания рипа

Exact Audio Copy V1.0 beta 3 from 29. August 2011
Отчёт EAC об извлечении, выполненном 16. декабря 2012, 16:04
Stars On 45 / The Best Of Stars On 45
Дисковод: ATAPI iHAS122 C Adapter: 3 ID: 0
Режим чтения : Достоверность
Использование точного потока : Да
Отключение кэша аудио : Да
Использование указателей C2 : Нет
Коррекция смещения при чтении : 6
Способность читать области Lead-in и Lead-out : Нет
Заполнение пропущенных сэмплов тишиной : Да
Удаление блоков с тишиной в начале и конце : Нет
При вычислениях CRC использовались нулевые сэмплы : Да
Интерфейс : Установленный внешний ASPI-интерфейс
Выходной формат : Пользовательский кодировщик
Выбранный битрейт : 1024 kBit/s
Качество : Высокий
Добавление ID3-тега : Нет
Утилита сжатия : C:\Program Files (x86)\Exact Audio Copy\Flac\flac.exe
Дополнительные параметры : -V -8 -T "Date=%year%" -T "Genre=%genre%" %source%
TOC извлечённого CD
Трек | Старт | Длительность | Начальный сектор | Конечный сектор
---------------------------------------------------------------------
1 | 0:00.00 | 4:46.50 | 0 | 21499
2 | 4:46.50 | 9:46.71 | 21500 | 65520
3 | 14:33.46 | 3:53.16 | 65521 | 83011
4 | 18:26.62 | 6:55.45 | 83012 | 114181
5 | 25:22.32 | 5:16.06 | 114182 | 137887
6 | 30:38.38 | 7:47.15 | 137888 | 172927
7 | 38:25.53 | 5:14.00 | 172928 | 196477
8 | 43:39.53 | 6:26.04 | 196478 | 225431
9 | 50:05.57 | 6:45.08 | 225432 | 255814
10 | 56:50.65 | 6:41.00 | 255815 | 285889
11 | 63:31.65 | 4:00.17 | 285890 | 303906
12 | 67:32.07 | 3:11.28 | 303907 | 318259
13 | 70:43.35 | 4:22.18 | 318260 | 337927
Характеристики диапазона извлечения и сообщения об ошибках
Выбранный диапазон
Имя файла D:\Music\Various - The Best of Stars on 45\Новая папка\flac\Stars On 45 - The Best Of Stars On 45.wav
Пиковый уровень 98.8 %
Скорость извлечения 1.4 X
Качество диапазона 100.0 %
CRC теста 4702DBDE
CRC копии 4702DBDE
Копирование... OK
Ошибок не произошло
AccurateRip: сводка
Трек 1 : извлечено точно (доверие 5) [6C67D31A] (AR v1)
Трек 2 : извлечено точно (доверие 5) [DE259797] (AR v1)
Трек 3 : извлечено точно (доверие 5) [38BDA46F] (AR v1)
Трек 4 : извлечено точно (доверие 5) [AA963882] (AR v1)
Трек 5 : извлечено точно (доверие 5) [76B9FBC6] (AR v1)
Трек 6 : извлечено точно (доверие 5) [7D7ABDF6] (AR v1)
Трек 7 : извлечено точно (доверие 5) [22A3D1A8] (AR v1)
Трек 8 : извлечено точно (доверие 5) [5AFD1761] (AR v1)
Трек 9 : извлечено точно (доверие 5) [1AAFB893] (AR v1)
Трек 10 : извлечено точно (доверие 5) [C31E78DD] (AR v1)
Трек 11 : извлечено точно (доверие 5) [937E25D4] (AR v1)
Трек 12 : извлечено точно (доверие 5) [C7FDA3BA] (AR v1)
Трек 13 : извлечено точно (доверие 5) [198BC769] (AR v1)
Все треки извлечены точно
Конец отчёта
==== Контрольная сумма отчёта 075D7FF158B2CDA539D731255F99E3FE9A3B8CAEF76761EEDCB2D323A18B8EDE ====

Содержание индексной карты (.CUE)

REM GENRE Pop
REM DATE 2005
REM DISCID A111990D
REM COMMENT "ExactAudioCopy v1.0b3"
PERFORMER "Stars On 45"
TITLE "The Best Of Stars On 45"
FILE "Stars On 45 - The Best Of Stars On 45.flac" WAVE
TRACK 01 AUDIO
TITLE "Stars On 45"
PERFORMER "Stars On 45"
INDEX 01 00:00:00
TRACK 02 AUDIO
TITLE "Stars On 45 (12-inch Version)"
PERFORMER "Stars On 45"
INDEX 01 04:46:50
TRACK 03 AUDIO
TITLE "More Stars - ABBA Medley"
PERFORMER "Stars On 45"
INDEX 01 14:33:46
TRACK 04 AUDIO
TITLE "More Stars - U.S.A. (12-inch Version)"
PERFORMER "Stars On 45"
INDEX 01 18:26:62
TRACK 05 AUDIO
TITLE "Volume III - Star Wars And Other Hits (12-inch Version)"
PERFORMER "Stars On 45"
INDEX 01 25:22:32
TRACK 06 AUDIO
TITLE "Stars On Stevie (Wonder) (12-inch Version)"
PERFORMER "Stars On 45"
INDEX 01 30:38:38
TRACK 07 AUDIO
TITLE "The Greatest Rock'n Roll Band In The World"
PERFORMER "Stars On 45"
INDEX 01 38:25:53
TRACK 08 AUDIO
TITLE "The Beatles (Part 2)"
PERFORMER "Stars On 45"
INDEX 01 43:39:53
TRACK 09 AUDIO
TITLE "The Beatles (George Harrison)"
PERFORMER "Stars On 45"
INDEX 01 50:05:57
TRACK 10 AUDIO
TITLE "The Supremes"
PERFORMER "Stars On 45"
INDEX 01 56:50:65
TRACK 11 AUDIO
TITLE "Stars On 54 Proudly Presents The Star Sisters"
PERFORMER "Stars On 45"
INDEX 01 63:31:65
TRACK 12 AUDIO
TITLE "The Star Sisters: Hooray For Hollywood"
PERFORMER "Stars On 45"
INDEX 01 67:32:07
TRACK 13 AUDIO
TITLE "The Star Sisters: A Tribute To Marilyn Monroe"
PERFORMER "Stars On 45"
INDEX 01 70:43:35
Доп. информация:

foobar2000 info

foobar2000 1.1.17 / Dynamic Range Meter 1.1.1
log date: 2012-12-16 16:11:14
--------------------------------------------------------------------------------
Analyzed: Stars On 45 / The Best Of Stars On 45
--------------------------------------------------------------------------------
DR Peak RMS Duration Track
--------------------------------------------------------------------------------
DR6 -0.10 dB -6.89 dB 4:47 01-Stars On 45
DR6 -0.10 dB -7.17 dB 9:47 02-Stars On 45 (12-inch Version)
DR6 -0.10 dB -7.25 dB 3:53 03-More Stars - ABBA Medley
DR6 -0.10 dB -7.27 dB 6:56 04-More Stars - U.S.A. (12-inch Version)
DR6 -0.10 dB -6.87 dB 5:16 05-Volume III - Star Wars And Other Hits (12-inch Version)
DR6 -0.10 dB -7.11 dB 7:47 06-Stars On Stevie (Wonder) (12-inch Version)
DR5 -0.10 dB -6.15 dB 5:14 07-The Greatest Rock'n Roll Band In The World
DR6 -0.10 dB -6.64 dB 6:26 08-The Beatles (Part 2)
DR6 -0.10 dB -6.71 dB 6:45 09-The Beatles (George Harrison)
DR6 -0.10 dB -7.28 dB 6:41 10-The Supremes
DR7 -0.10 dB -8.50 dB 4:00 11-Stars On 54 Proudly Presents The Star Sisters
DR6 -0.10 dB -7.85 dB 3:11 12-The Star Sisters: Hooray For Hollywood
DR7 -0.10 dB -9.31 dB 4:22 13-The Star Sisters: A Tribute To Marilyn Monroe
--------------------------------------------------------------------------------
Number of tracks: 13
Official DR value: DR6
Samplerate: 44100 Hz
Channels: 2
Bits per sample: 16
Bitrate: 1011 kbps
Codec: FLAC
================================================================================

Об исполнителе (группе)

звестно имя Япп Эггермонт (Japp Eggermont), одного из участников команды The Monotones. Зато если сказать, что этот датский товарищ в далеком 1981 году решил выпустить 12-inch. бутлег с попурри на песни легендарных "Битлз", адаптировав вечные хиты ливерпульской четверки под стиль диско, и назвал свой проект The Stars On 45, который в свое время был безумно популярен в СССР (Всесоюзная фирма грамзаписи "Мелодия" выпустила аж две виниловых пластинки в 1982 и 1983 годах), многие скажут многозначительное "А-а-а-а!!!"
В 1983 году сей господин начинает активно раскручивать других исполнителей, нещадно эксплуатируя обкатанного конька - жанр попурри. Одними из таких были Patricia Paay (настоящее имя Patricia Anglaia Margareth Paaij, 1949 г.р.), певшая ранее в голландской группе Heart, ее сестра Yvonne Keeley (1952 г.р.), выпустившая в 1977 году удачный сингл "If I Had Words", а в последствии ставшая моделью (и не только подиума!), и Sylvana Maanurdin, о которой известно только то, что во время работы над первой пластинкой она умудрилась выйти замуж и сменить фамилию, став фрау Van Veen.
В этом составе барышни, назвавшись с легкой руки Эггермонта The Star Sisters, записали в 1983 году пластинку "Tonight 20.00 Hrs". Первая сторона диска включала попурри на темы известных свингов и буги-вуги, а на вторую сторону уместились три композиции Эггермонта, Мартина Дюзера (Martin Duiser) и Питера Виллема Шона (Piter Willem Schön).
Дамочки собирались вместе еще пару раз: в 1984-м они выпустили диск "Hooray For Hollywood" под руководством того же Яппа Эггермонта, а в 1985-м записали LP "Danger", который спродюсировали сами.
В 1996-м Патрисия выпустила сольный альбом в стиле диско - "Good For Gold". Сейчас она занимается поиском молодых талантов, выпускает свою косметическую линию (кстати, весьма недурственную, как говорят специалисты), работает на ТВ и выступает по большим праздникам на публике. Ивонн время от времени помогает сестре, иногда снимается в кино и выпускает какой-то гламурный журнал. А дальнейшая судьба Сильваны тщательно скрыта от посторонних глаз.
Все диски The Star Sisters регулярно переиздаются в Голландии.
[Профиль] [ЛС]

Создавать темы 13-Авг-2015 10:44 (спустя 8 месяцев 2 дня)

Топик был перенесен из форума Зарубежная в форум Technopop, Eurodance, Disco
sergej644
 
Показать сообщения:    

Текущее время: Сегодня 16:58

Часовой пояс: GMT



Вы не можете начинать темы
Вы не можете отвечать на сообщения
Вы не можете редактировать свои сообщения
Вы не можете удалять свои сообщения
Вы не можете голосовать в опросах
Вы не можете прикреплять файлы к сообщениям
Вы не можете скачивать файлы