Stars on 45 proudly presents: Star Sisters - Tonight! 20:00 hrs (2007) [FLAC|Lossless]<Disco, Retro>

 
Автор Сообщение

sergej644 ®

Пол:

Стаж: 4 года 11 месяцев

Сообщений: 6035

Откуда: Soviet Union



Награды: Нет

Торрент-статистика

Создавать темы 24-Дек-2014 23:03

[Цитировать]

-Stars on 45 proudly presents: Star Sisters - Tonight! 20:00 hrs (2007)- Лейбл: Red Bullet
Каталог: RB 66.198
Год: 2007
Жанр: Disco, Retro
Продолжительность: 00:41:10
Кодек: FLAC (image+.cue)
Битрейт: Lossless
Треклист:
01. Star Sisters - Remix
02. A Tribute To Marilyn Monroe
03. Alexander's Ragtime Band
04. Cry Me A River
05. Hooray For Hollywood
06. Lullaby Of Broadway
07. Showbusiness
08. Proudly Presents The Star Sisters (Originel Single Version 1983)
09. Proudly Presents The Star Sisters Part 2

Отчёт ЕАС&#58;

Exact Audio Copy V1.0 beta 3 from 29. August 2011
EAC extraction logfile from 14. April 2014, 14:34
The Star Sisters / Tonight! 20:00 hrs. Remix 2007
Used drive  : SAMSUNG DVD-ROM SD-616E   Adapter: 3  ID: 0
Read mode               : Secure
Utilize accurate stream : Yes
Defeat audio cache      : Yes
Make use of C2 pointers : No
Read offset correction                      : 12
Overread into Lead-In and Lead-Out          : No
Fill up missing offset samples with silence : Yes
Delete leading and trailing silent blocks   : No
Null samples used in CRC calculations       : Yes
Used interface                              : Native Win32 interface for Win NT & 2000
Used output format              : User Defined Encoder
Selected bitrate                : 768 kBit/s
Quality                         : High
Add ID3 tag                     : No
Command line compressor         : C:\Program Files\Exact Audio Copy\FLAC\FLAC.EXE
Additional command line options : -6 -V -T "ARTIST=%artist%" -T "TITLE=%title%" -T "ALBUM=%albumtitle%" -T "DATE=%year%" -T "TRACKNUMBER=%tracknr%" -T "GENRE=%genre%" -T "COMMENT=%comment%" -T "BAND=%albuminterpret%" -T "ALBUMARTIST=%albuminterpret%" -T "COMPOSER=%composer%" %haslyrics%--tag-from-file=LYRICS="%lyricsfile%"%haslyrics% -T "DISCNUMBER=%cdnumber%" -T "TOTALDISCS=%totalcds%" -T "TOTALTRACKS=%numtracks%" %hascover%--picture="%coverfile%"%hascover% %source% -o %dest%
TOC of the extracted CD
     Track |   Start  |  Length  | Start sector | End sector
    ---------------------------------------------------------
        1  |  0:00.00 |  3:44.37 |         0    |    16836
        2  |  3:44.37 |  4:23.52 |     16837    |    36613
        3  |  8:08.14 |  3:07.44 |     36614    |    50682
        4  | 11:15.58 |  3:53.57 |     50683    |    68214
        5  | 15:09.40 |  3:14.06 |     68215    |    82770
        6  | 18:23.46 |  2:46.49 |     82771    |    95269
        7  | 21:10.20 |  3:02.53 |     95270    |   108972
        8  | 24:12.73 |  4:01.10 |    108973    |   127057
        9  | 28:14.08 | 12:56.48 |    127058    |   185305
Range status and errors
Selected range
     Filename C:\Documents and Settings\Borya\Desktop\starsis\The Star Sisters - Tonight! 20-00 hrs. Remix 2007.wav
     Peak level 97.0 %
     Extraction speed 1.1 X
     Range quality 99.9 %
     Test CRC 021A90D2
     Copy CRC 021A90D2
     Copy OK
No errors occurred
AccurateRip summary
Track  1  accurately ripped (confidence 1)  [2B468BFE]  (AR v1)
Track  2  accurately ripped (confidence 1)  [7326FD1E]  (AR v1)
Track  3  accurately ripped (confidence 1)  [76DE84AF]  (AR v1)
Track  4  accurately ripped (confidence 1)  [7A49DFD5]  (AR v1)
Track  5  accurately ripped (confidence 1)  [92595B62]  (AR v1)
Track  6  accurately ripped (confidence 1)  [D90BA206]  (AR v1)
Track  7  accurately ripped (confidence 1)  [F45CC614]  (AR v1)
Track  8  accurately ripped (confidence 1)  [481F2DB8]  (AR v1)
Track  9  accurately ripped (confidence 1)  [CFD7BC57]  (AR v1)
All tracks accurately ripped
End of status report
==== Log checksum 373FFFC26A2E5C3F0CB557ABAE65F5BC197F925905C9C65EE27DCA214279A496 ====

Отчёт auCDtect Task manager&#58;

-----------------------
DON'T MODIFY THIS FILE
-----------------------
PERFORMER: auCDtect Task Manager, ver. 1.5.1RC4 build 1.5.1.5
Copyright (c) 2008-2010 y-soft. All rights reserved
http://y-soft.org
ANALYZER: auCDtect: CD records authenticity detector, version 0.8.2
Copyright (c) 2004 Oleg Berngardt. All rights reserved.
Copyright (c) 2004 Alexander Djourik. All rights reserved.
FILE: The Star Sisters - Tonight! 20-00 hrs. Remix 2007.flac
  Size: 268243817 Hash: 197AC78774203174CD2025DA6B9172C9 Accuracy: -m0
  Conclusion: CDDA 100%
  Signature: 2F7916CC5F3FE9F6F9D16866F4AFF3365AC169DE

Содержимое индексной карты&#58;

REM GENRE Swing
REM DATE 2007
REM DISCID 6F09A609
REM COMMENT "ExactAudioCopy v1.0b3"
PERFORMER "The Star Sisters"
TITLE "Tonight! 20:00 hrs. Remix 2007"
FILE "The Star Sisters - Tonight! 20-00 hrs. Remix 2007.flac" WAVE
  TRACK 01 AUDIO
    TITLE "Star Sisters Remix 2007"
    PERFORMER "The Star Sisters"
    INDEX 01 00:00:00
  TRACK 02 AUDIO
    TITLE "A Tribute To Marilyn Monroe"
    PERFORMER "The Star Sisters"
    INDEX 00 03:42:37
    INDEX 01 03:44:37
  TRACK 03 AUDIO
    TITLE "Alexander's Ragtime Band"
    PERFORMER "The Star Sisters"
    INDEX 00 08:06:14
    INDEX 01 08:08:14
  TRACK 04 AUDIO
    TITLE "Cry Me A River"
    PERFORMER "The Star Sisters"
    INDEX 00 11:13:58
    INDEX 01 11:15:58
  TRACK 05 AUDIO
    TITLE "Hooray For Hollywood"
    PERFORMER "The Star Sisters"
    INDEX 00 15:07:40
    INDEX 01 15:09:40
  TRACK 06 AUDIO
    TITLE "Lullabiy Of Broadway"
    PERFORMER "The Star Sisters"
    INDEX 00 18:21:46
    INDEX 01 18:23:46
  TRACK 07 AUDIO
    TITLE "Showbusiness"
    PERFORMER "The Star Sisters"
    INDEX 00 21:08:20
    INDEX 01 21:10:20
  TRACK 08 AUDIO
    TITLE "Proudly Presents The Starsisters Part1"
    PERFORMER "The Star Sisters"
    INDEX 01 24:12:73
  TRACK 09 AUDIO
    TITLE "Proudly Presents The Starsisters Part2"
    PERFORMER "The Star Sisters"
    INDEX 00 28:12:08
    INDEX 01 28:14:08
Спасибо brookman
[Профиль] [ЛС]

Создавать темы 13-Авг-2015 10:41 (спустя 7 месяцев 19 дней)

Топик был перенесен из форума Зарубежная в форум Technopop, Eurodance, Disco
sergej644
 
Показать сообщения:    

Текущее время: Сегодня 18:18

Часовой пояс: GMT



Вы не можете начинать темы
Вы не можете отвечать на сообщения
Вы не можете редактировать свои сообщения
Вы не можете удалять свои сообщения
Вы не можете голосовать в опросах
Вы не можете прикреплять файлы к сообщениям
Вы не можете скачивать файлы