S.P.L. Звезды судьбы 2 / Saat po long 2 (2015) WEBRip 1080p | Трейлер

 
Автор Сообщение

BOSS ®

Пол:

Стаж: 2 года 1 месяц

Сообщений: 3735

Откуда: ODESSA



Награды: 20 (Подробнее)

Top Seeder 4 (Количество: 1) Top Releaser 2 (Количество: 1) Mega Releaser 1 (Количество: 1)
Торрент-статистика

Создавать темы 11-Июн-2015 11:27

[Цитировать]

Год выпуска: 2014
Производство: Китай
Жанр: боевик, драма, криминал
Перевод: Дублированный
Режиссер: Поу-Сои Чинг
Продюсеры: Пако Вонг, Уилсон Ип, Yi-Qi Chen
Актеры: Тони Джа, Саммо Кам-Бо Хунг, Энди Он, Джеки Ву, Саймон Ям, Луис Ку, Кен Ло, Эндрю Нг, Френсис Нг, Кики Енг
Описание фильма:
Крутой гонконгский полицейский по имени Кит загоняет в угол крупного гангстера, но тот поворачивает все в свою сторону — главный свидетель Кита исчез. Более того, Кита отправляют в тайскую тюрьму, снабдив фальшивым списком преступлений. Тюремный охранник Чай следит за тем, чтобы Кит не сбежал — дочь Чая страдает от редкой формы лейкемии, и только Кит может стать для нее подходящим донором. В конце концов Чай узнает, кто такой Кит на самом деле и помогает ему сбежать в обмен на согласие стать донором для его дочери. Вместе Кит и Чай бросят вызов гангстеру и его приспешникам.
Дата мировой премьеры: 18 июня 2015
Дата российской премьеры: 18 июня 2015

Продолжительность: 00:01:18
Качество видео: WEBRip
Видеокодек: MPEG-4 AVC/H.264
Битрейт видео: 2112 Кбит/сек
Размер кадра: 1920x1080
Аудиокодек: AAC
Битрейт аудио: 126 Кбит/сек

MediaInfo:

Общее
Полное имя : S.P.L. Звезды судьбы 2 Русский Трейлер (2015).mp4
Формат : MPEG-4
Профиль формата : Base Media
Идентификатор кодека : isom
Размер файла : 21,1 Мбайт
Продолжительность : 1 м. 18 с.
Общий поток : 2242 Кбит/сек
Программа кодирования : Lavf56.19.100
Видео
Идентификатор : 1
Формат : AVC
Формат/Информация : Advanced Video Codec
Профиль формата : High@L4
Параметр CABAC формата : Да
Параметр ReFrames формата : 3 кадра
Идентификатор кодека : avc1
Идентификатор кодека/Информация : Advanced Video Coding
Продолжительность : 1 м. 18 с.
Битрейт : 2112 Кбит/сек
Ширина : 1920 пикселей
Высота : 1080 пикселей
Соотношение сторон : 16:9
Режим частоты кадров : Постоянный
Частота кадров : 24,000 кадра/сек
Цветовое пространство : YUV
Субдискретизация насыщенности : 4:2:0
Битовая глубина : 8 бит
Тип развёртки : Прогрессивная
Бит/(Пиксели*Кадры) : 0.042
Размер потока : 19,8 Мбайт (94%)
Аудио
Идентификатор : 2
Формат : AAC
Формат/Информация : Advanced Audio Codec
Профиль формата : LC
Идентификатор кодека : 40
Продолжительность : 1 м. 18 с.
Вид битрейта : Постоянный
Битрейт : 126 Кбит/сек
Каналы : 2 канала
Расположение каналов : Front: L R
Частота : 44,1 КГц
Метод сжатия : С потерями
Размер потока : 1,18 Мбайт (6%)
Скриншоты - -

Скриншоты

[Профиль] [ЛС]
Кто просматривает тему:

Показать сообщения:    

Текущее время: Сегодня 12:45

Часовой пояс: GMT



Вы не можете начинать темы
Вы не можете отвечать на сообщения
Вы не можете редактировать свои сообщения
Вы не можете удалять свои сообщения
Вы не можете голосовать в опросах
Вы не можете прикреплять файлы к сообщениям
Вы не можете скачивать файлы