SOS (Анатолий Солин) [1973, мультфильм для взрослых, рисованный, DVDRip]

 
Автор Сообщение

TorrentFilm ®

Пол:

Стаж: 2 года

Сообщений: 7741



Награды: Нет

Торрент-статистика

Создавать темы 02-Янв-2016 00:11

[Цитировать]

SOS
Страна: СССР
Производство: ТО Экран
Жанр: мультфильм для взрослых, рисованный
Продолжительность: 00:05:59
Год выпуска: 1973
Русские субтитры: нет
Режиссёр: Анатолий Солин
Описание: Мультфильм для взрослых о пагубном влиянии алкоголя на организм человека.
Кинопоиск
Качество: DVDRip
Формат: AVI
Видео: 720x544 (1.32:1), 25 fps, XviD MPEG-4 ~2200 kbps avg, 0.225 bit/pixel
Аудио: 48.0 kHz, MPEG Layer 3, 1 ch, ~128.00 kbps avg
Субтитры: Отсутствуют

MediaInfo

GeneralComplete name : E:\1\SOS 1973.aviFormat : AVIFormat/Info : Audio Video InterleaveFile size : 100 MiBDuration : 5mn 59sOverall bit rate : 2 338 KbpsWriting application : VirtualDubMod 1.5.10.3 | www.virtualdub-fr.org || (build 2550/release)Writing library : VirtualDubMod build 2550/release
VideoID : 0Format : MPEG-4 VisualFormat profile : Advanced Simple@L5Format settings, BVOP : 2Format settings, QPel : NoFormat settings, GMC : No warppointsFormat settings, Matrix : Default (H.263)Codec ID : XVIDCodec ID/Hint : XviDDuration : 5mn 59sBit rate : 2 200 KbpsWidth : 720 pixelsHeight : 544 pixelsDisplay aspect ratio : 4:3Frame rate : 25.000 fpsColor space : YUVChroma subsampling : 4:2:0Bit depth : 8 bitsScan type : ProgressiveCompression mode : LossyBits/(Pixel*Frame) : 0.225Stream size : 94.2 MiB (94%)Writing library : XviD 1.2.1 (UTC 2008-12-04)
AudioID : 1Format : MPEG AudioFormat version : Version 1Format profile : Layer 3Codec ID : 55Codec ID/Hint : MP3Duration : 5mn 59sBit rate mode : ConstantBit rate : 128 KbpsChannel count : 1 channelSampling rate : 48.0 KHzCompression mode : LossyStream size : 5.48 MiB (5%)Alignment : Aligned on interleavesInterleave, duration : 40 ms (1.00 video frame)Interleave, preload duration : 504 msWriting library : LAME3.99rEncoding settings : -m m -V 4 -q 2 -lowpass 20.5 -b 128

Сравнение

Сравнение с этой раздачей TVrip - http://torrentfilm.net/forum/viewtopic.php?t=4035869
http://screenshotcomparison.com/comparison/82369/picture:0

Скриншоты

[Профиль] [ЛС]
Кто просматривает тему:

Показать сообщения:    

Текущее время: Сегодня 16:43

Часовой пояс: GMT



Вы не можете начинать темы
Вы не можете отвечать на сообщения
Вы не можете редактировать свои сообщения
Вы не можете удалять свои сообщения
Вы не можете голосовать в опросах
Вы не можете прикреплять файлы к сообщениям
Вы не можете скачивать файлы