(Hard Rock) Snakecharmer (ex-Whitesnake) - Snakecharmer (Japanese Edition) - 2013 [FLAC, image+.cue, lossless]

 
Автор Сообщение

sergej644 ®

Пол:

Стаж: 4 года 11 месяцев

Сообщений: 6046

Откуда: Soviet Union



Награды: Нет

Торрент-статистика

Создавать темы 22-Июл-2015 10:22

[Цитировать]

-Snakecharmer (ex-Whitesnake) / Snakecharmer (Japanese Edition)-- Год издания: 2013
Страна: Uk
Жанр: Hard Rock
Продолжительность: 00:59:23-Лейбл издания: Avalon
Страна-выпуска диска: JAPAN
Номер по каталогу: MICP-11079
Формат: FLAC
Битрейт аудио: lossless
Тип рипа: image+.cue
Наличие сканов в содержимом раздачи: да
-

Трэклист

01.My Angel (05:07)
02.Accident Prone (04:26)
03.To The Rescue (05:19)
04.Falling Leaves (05:55)
05.A Little Rock & Roll (05:52)
06.Turn Of The Screw (05:17)
07.Smoking Gun (05:41)
08.Stand Up (05:04)
09.Guilty As Charged (05:23)
10.Nothing To Lose (04:03)
11.Cover Me In You (03:43)
12.A Breath Away (bonus track for Japan) (03:39)
-

Лог создания рипа

Exact Audio Copy V1.0 beta 3 from 29. August 2011
EAC extraction logfile from 7. March 2013, 5:57
Snakecharmer / Snakecharmer
Used drive  : SlimtypeDVD A  DS8A5SH   Adapter: 0  ID: 1
Read mode               : Secure
Utilize accurate stream : Yes
Defeat audio cache      : Yes
Make use of C2 pointers : No
Read offset correction                      : 6
Overread into Lead-In and Lead-Out          : No
Fill up missing offset samples with silence : Yes
Delete leading and trailing silent blocks   : No
Null samples used in CRC calculations       : Yes
Used interface                              : Native Win32 interface for Win NT & 2000
Used output format              : User Defined Encoder
Selected bitrate                : 320 kBit/s
Quality                         : High
Add ID3 tag                     : No
Command line compressor         : C:\Program Files (x86)\Exact Audio Copy\Flac\flac.exe
Additional command line options : -V -8 -T "Date=%year%" -T "Genre=%genre%" %source%
TOC of the extracted CD
     Track |   Start  |  Length  | Start sector | End sector
    ---------------------------------------------------------
        1  |  0:00.00 |  5:06.19 |         0    |    22968
        2  |  5:06.19 |  4:25.58 |     22969    |    42901
        3  |  9:32.02 |  5:18.02 |     42902    |    66753
        4  | 14:50.04 |  5:54.64 |     66754    |    93367
        5  | 20:44.68 |  5:51.05 |     93368    |   119697
        6  | 26:35.73 |  5:16.33 |    119698    |   143430
        7  | 31:52.31 |  5:40.17 |    143431    |   168947
        8  | 37:32.48 |  5:03.09 |    168948    |   191681
        9  | 42:35.57 |  5:22.03 |    191682    |   215834
       10  | 47:57.60 |  4:02.65 |    215835    |   234049
       11  | 52:00.50 |  3:42.03 |    234050    |   250702
       12  | 55:42.53 |  3:38.45 |    250703    |   267097
Range status and errors
Selected range
     Filename D:\My Music\Snakecharmer - 2013 Snakecharmer (Japanese Edition)\Snakecharmer - Snakecharmer.wav
     Peak level 98.8 %
     Extraction speed 4.5 X
     Range quality 100.0 %
     Test CRC BF128C53
     Copy CRC BF128C53
     Copy OK
No errors occurred
AccurateRip summary
Track  1  not present in database
Track  2  not present in database
Track  3  not present in database
Track  4  not present in database
Track  5  not present in database
Track  6  not present in database
Track  7  not present in database
Track  8  not present in database
Track  9  not present in database
Track 10  not present in database
Track 11  not present in database
Track 12  not present in database
None of the tracks are present in the AccurateRip database
End of status report

Индексная карта (non-compilant .cue)

REM GENRE "Hard Rock"
REM DATE 2013
REM DISCID B20DE90C
REM COMMENT "ExactAudioCopy v1.0b3"
PERFORMER "Snakecharmer"
TITLE "Snakecharmer"
FILE "Snakecharmer - Snakecharmer.flac" WAVE
  TRACK 01 AUDIO
    TITLE "My Angel"
    PERFORMER "Snakecharmer"
    ISRC GBL2D1200081
    INDEX 01 00:00:00
  TRACK 02 AUDIO
    TITLE "Accident Prone"
    PERFORMER "Snakecharmer"
    ISRC GBL2D1200082
    INDEX 01 05:06:19
  TRACK 03 AUDIO
    TITLE "To The Rescue"
    PERFORMER "Snakecharmer"
    ISRC GBL2D1200083
    INDEX 01 09:32:02
  TRACK 04 AUDIO
    TITLE "Falling Leaves"
    PERFORMER "Snakecharmer"
    ISRC GBL2D1200084
    INDEX 01 14:50:04
  TRACK 05 AUDIO
    TITLE "A Little Rock & Roll"
    PERFORMER "Snakecharmer"
    ISRC GBL2D1200085
    INDEX 01 20:44:68
  TRACK 06 AUDIO
    TITLE "Turn Of The Screw"
    PERFORMER "Snakecharmer"
    ISRC GBL2D1200086
    INDEX 01 26:35:73
  TRACK 07 AUDIO
    TITLE "Smoking Gun"
    PERFORMER "Snakecharmer"
    ISRC GBL2D1200087
    INDEX 01 31:52:31
  TRACK 08 AUDIO
    TITLE "Stand Up"
    PERFORMER "Snakecharmer"
    ISRC GBL2D1200088
    INDEX 01 37:32:48
  TRACK 09 AUDIO
    TITLE "Guilty As Charged"
    PERFORMER "Snakecharmer"
    ISRC GBL2D1200089
    INDEX 01 42:35:57
  TRACK 10 AUDIO
    TITLE "Nothing To Lose"
    PERFORMER "Snakecharmer"
    ISRC GBL2D1200090
    INDEX 01 47:57:60
  TRACK 11 AUDIO
    TITLE "Cover Me In You"
    PERFORMER "Snakecharmer"
    ISRC GBL2D1200091
    INDEX 01 52:00:50
  TRACK 12 AUDIO
    TITLE "A Breath Away (bonus track for Japan)"
    PERFORMER "Snakecharmer"
    ISRC GBL2D1200092
    INDEX 01 55:42:53

Скриншот спектра частот

Об исполнителе (группе)

Британская группа SNAKECHARMER, в состав которой входят участники WHITESNAKE Micky Moody и Neil Murray, а также Laurie Wisefield (WISHBONE ASH, TINA TURNER), Harry James (THUNDER, MAGNUM), Adam Wakeman (OZZY OSBOURNE) и Chris Ousey (HEARTLAND). Одноименный дебютный альбом вышел 22 января 2013 года.
--Не забываем говорить
[Профиль] [ЛС]
Показать сообщения:    

Текущее время: Сегодня 09:06

Часовой пояс: GMT



Вы не можете начинать темы
Вы не можете отвечать на сообщения
Вы не можете редактировать свои сообщения
Вы не можете удалять свои сообщения
Вы не можете голосовать в опросах
Вы не можете прикреплять файлы к сообщениям
Вы не можете скачивать файлы