(Pop-rock & Soft Rock) Smokie - Remastered Studio Discography (1975-1982), FLAC (image+.cue) lossless

 
Автор Сообщение

sergej644 ®

Пол:

Стаж: 4 года 11 месяцев

Сообщений: 6037

Откуда: Soviet Union



Награды: Нет

Торрент-статистика

Создавать темы 08-Ноя-2014 20:21

[Цитировать]


Smokie – Remastered Studio Discogaphy (1975-1982)
Жанр: Pop-rock & Soft Rock
Страна-производитель диска:EU
Год издания диска: 2007
Издатель (лейбл): 7T’s
Номер по каталогу: См. каждый диск
Страна:England
Аудио кодек: FLAC (*.flac)
Тип рипа: image+.cue
Битрейт аудио: lossless
Источник (релизер): snakesharmer
Наличие сканов в содержимом раздачи: да

Smokey – Pass It Around – 1975 (7T’s GLAM CD 36, EU)



Треклист:
01. Pass It Around [0:03:07.10]
02. Daydreamin' [0:02:17.07]
03. Oh Well Oh Well [0:03:17.35]
04. My Woman [0:03:22.03]
05. It Makes Me Money [0:02:57.02]
06. Headspin [0:03:31.50]
07. Goin' Tomorrow [0:03:43.32]
08. I Do Declare [0:03:45.32]
09. Don't Turn Out Your Light [0:04:00.74]
10. Will You Love Me [0:03:43.64]
11. A Day At The Mother In Laws [0:02:51.42]
12. The Coldest Night [0:04:15.09]
13. Shy Guy [0:03:25.05]
14. Couldn't Live (Bonus) [0:02:24.37]

Back, Matrix

EAC

Exact Audio Copy V1.0 beta 3 from 29. August 2011
EAC extraction logfile from 29. October 2014, 20:18
Smokie / Pass It Around
Used drive  : PLEXTOR DVDR   PX-L890SA   Adapter: 2  ID: 1
Read mode               : Secure
Utilize accurate stream : Yes
Defeat audio cache      : Yes
Make use of C2 pointers : No
Read offset correction                      : 6
Overread into Lead-In and Lead-Out          : No
Fill up missing offset samples with silence : Yes
Delete leading and trailing silent blocks   : No
Null samples used in CRC calculations       : Yes
Used interface                              : Native Win32 interface for Win NT & 2000
Used output format              : User Defined Encoder
Selected bitrate                : 768 kBit/s
Quality                         : High
Add ID3 tag                     : No
Command line compressor         : G:\Program Files\Exact Audio Copy\FLAC\FLAC.EXE
Additional command line options : -V -8 -T "Date=%year%" -T "Genre=%genre%" %source%
TOC of the extracted CD
     Track |   Start  |  Length  | Start sector | End sector
    ---------------------------------------------------------
        1  |  0:00.00 |  3:07.10 |         0    |    14034
        2  |  3:07.10 |  2:17.07 |     14035    |    24316
        3  |  5:24.17 |  3:17.35 |     24317    |    39126
        4  |  8:41.52 |  3:22.03 |     39127    |    54279
        5  | 12:03.55 |  2:57.02 |     54280    |    67556
        6  | 15:00.57 |  3:31.50 |     67557    |    83431
        7  | 18:32.32 |  3:43.32 |     83432    |   100188
        8  | 22:15.64 |  3:45.32 |    100189    |   117095
        9  | 26:01.21 |  4:00.74 |    117096    |   135169
       10  | 30:02.20 |  3:43.64 |    135170    |   151958
       11  | 33:46.09 |  2:51.42 |    151959    |   164825
       12  | 36:37.51 |  4:15.09 |    164826    |   183959
       13  | 40:52.60 |  3:25.05 |    183960    |   199339
       14  | 44:17.65 |  2:24.37 |    199340    |   210176
Range status and errors
Selected range
     Filename H:\MUSIC\Smokie\1975. Smokie - Pass It Around (7T's GLAM CD 36, EU)\Smokie - Pass It Around.wav
     Peak level 97.7 %
     Extraction speed 5.5 X
     Range quality 100.0 %
     Test CRC 3893CAA8
     Copy CRC 3893CAA8
     Copy OK
No errors occurred
AccurateRip summary
Track  1  accurately ripped (confidence 4)  [8DEC56CF]  (AR v2)
Track  2  accurately ripped (confidence 4)  [1D21124F]  (AR v2)
Track  3  accurately ripped (confidence 4)  [C20E0484]  (AR v2)
Track  4  accurately ripped (confidence 4)  [5F09EDC3]  (AR v2)
Track  5  accurately ripped (confidence 4)  [465ECA06]  (AR v2)
Track  6  accurately ripped (confidence 4)  [492D8634]  (AR v2)
Track  7  accurately ripped (confidence 4)  [8E2F3622]  (AR v2)
Track  8  accurately ripped (confidence 4)  [B9562576]  (AR v2)
Track  9  accurately ripped (confidence 4)  [458C5FA5]  (AR v2)
Track 10  accurately ripped (confidence 4)  [1C70CA0C]  (AR v2)
Track 11  accurately ripped (confidence 4)  [04E43C71]  (AR v2)
Track 12  accurately ripped (confidence 4)  [E63B81ED]  (AR v2)
Track 13  accurately ripped (confidence 4)  [2F1F5035]  (AR v2)
Track 14  accurately ripped (confidence 4)  [C9E9500C]  (AR v2)
All tracks accurately ripped
End of status report
==== Log checksum FFB0BDD31421AAA3124D261E4950231E3FC0FC5DB289AFA69718756FCD535AFB ====

Smokey – Changing All The Time – 1975 (7T’s GLAM CD 37, EU)



Треклист:
01. Don't Play Your Rock 'N' Roll To Me [0:03:18.59]
02. If You Think You Know How To Love Me [0:03:26.49]
03. It's Natural [0:02:39.00]
04. Give It To Me [0:04:06.00]
05. We're Flyin' High [0:03:54.09]
06. Changing All The Time [0:03:23.10]
07. Julia [0:03:03.12]
08. Take Me In [0:03:54.11]
09. Umbrella Day [0:03:45.27]
10. Back To Bradford [0:02:43.56]
11. Tis Me (Bonus Track) [0:02:56.47]
12. Talking Her Round (Bonus Track) [0:02:44.06]

Back, Matrix

EAC

Exact Audio Copy V1.0 beta 3 from 29. August 2011
EAC extraction logfile from 29. October 2014, 20:50
Smokie / Changing All The Time
Used drive  : PLEXTOR DVDR   PX-L890SA   Adapter: 2  ID: 1
Read mode               : Secure
Utilize accurate stream : Yes
Defeat audio cache      : Yes
Make use of C2 pointers : No
Read offset correction                      : 6
Overread into Lead-In and Lead-Out          : No
Fill up missing offset samples with silence : Yes
Delete leading and trailing silent blocks   : No
Null samples used in CRC calculations       : Yes
Used interface                              : Native Win32 interface for Win NT & 2000
Used output format              : User Defined Encoder
Selected bitrate                : 768 kBit/s
Quality                         : High
Add ID3 tag                     : No
Command line compressor         : G:\Program Files\Exact Audio Copy\FLAC\FLAC.EXE
Additional command line options : -V -8 -T "Date=%year%" -T "Genre=%genre%" %source%
TOC of the extracted CD
     Track |   Start  |  Length  | Start sector | End sector
    ---------------------------------------------------------
        1  |  0:00.00 |  3:18.59 |         0    |    14908
        2  |  3:18.59 |  3:26.49 |     14909    |    30407
        3  |  6:45.33 |  2:39.00 |     30408    |    42332
        4  |  9:24.33 |  4:06.00 |     42333    |    60782
        5  | 13:30.33 |  3:54.09 |     60783    |    78341
        6  | 17:24.42 |  3:23.10 |     78342    |    93576
        7  | 20:47.52 |  3:03.12 |     93577    |   107313
        8  | 23:50.64 |  3:54.11 |    107314    |   124874
        9  | 27:45.00 |  3:45.27 |    124875    |   141776
       10  | 31:30.27 |  2:43.56 |    141777    |   154057
       11  | 34:14.08 |  2:56.47 |    154058    |   167304
       12  | 37:10.55 |  2:44.06 |    167305    |   179610
Range status and errors
Selected range
     Filename H:\MUSIC\Smokie\1975. Smokie - Changing All The Time (7T's GLAM CD 37, EU)\Smokie - Changing All The Time.wav
     Peak level 97.7 %
     Extraction speed 5.3 X
     Range quality 100.0 %
     Test CRC C54C736C
     Copy CRC C54C736C
     Copy OK
No errors occurred
AccurateRip summary
Track  1  accurately ripped (confidence 2)  [0B3A8ABA]  (AR v2)
Track  2  accurately ripped (confidence 2)  [1E4AFE61]  (AR v2)
Track  3  accurately ripped (confidence 2)  [193E39C7]  (AR v2)
Track  4  accurately ripped (confidence 2)  [0EC3505E]  (AR v2)
Track  5  accurately ripped (confidence 2)  [E90E8C32]  (AR v2)
Track  6  accurately ripped (confidence 2)  [6DCCD3F7]  (AR v2)
Track  7  accurately ripped (confidence 2)  [E7DCBCA3]  (AR v2)
Track  8  accurately ripped (confidence 2)  [42E5AEF9]  (AR v2)
Track  9  accurately ripped (confidence 2)  [6D7B2853]  (AR v2)
Track 10  accurately ripped (confidence 2)  [E93355AA]  (AR v2)
Track 11  accurately ripped (confidence 2)  [18AE626A]  (AR v2)
Track 12  accurately ripped (confidence 2)  [0F520E40]  (AR v2)
All tracks accurately ripped
End of status report
==== Log checksum 6D203CC9812B15F1F4E580FD11BDD5BB51ADAF81B2F9BB55F799E8EED12B77E2 ====

Smokie – Midnight Cafe – 1976 (7T’s GLAM CD 38, EU)



Треклист:
01. Something's Been Making Me Blue [0:03:00.64]
02. Wild Wild Angels [0:03:56.58]
03. Poor Lady (Midnight Baby) [0:04:41.70]
04. When My Back Was Against The Wall [0:03:36.30]
05. Make Ya Boogie [0:05:12.48]
06. Stranger [0:04:40.25]
07. What Can I Do [0:03:37.54]
08. Little Lucy [0:03:46.15]
09. Going Home [0:07:31.65]
10. Train Song (Bonus Track) [0:04:44.49]
11. The Loser (Bonus Track) [0:03:02.41]
12. I'll Meet You At Midnight (Bonus Track) [0:03:16.60]
13. Miss You (Bonus Track) [0:03:36.36]
14. Living Next Door To Alice (Bonus Track) [0:03:28.31]
15. Run To You (Bonus Track) [0:03:46.33]

Back, Matrix

EAC

Exact Audio Copy V1.0 beta 3 from 29. August 2011
EAC extraction logfile from 30. October 2014, 18:13
Smokie / Midnight Cafe (Remastered 2007)
Used drive  : PLEXTOR DVDR   PX-L890SA   Adapter: 2  ID: 1
Read mode               : Secure
Utilize accurate stream : Yes
Defeat audio cache      : Yes
Make use of C2 pointers : No
Read offset correction                      : 6
Overread into Lead-In and Lead-Out          : No
Fill up missing offset samples with silence : Yes
Delete leading and trailing silent blocks   : No
Null samples used in CRC calculations       : Yes
Used interface                              : Native Win32 interface for Win NT & 2000
Used output format              : User Defined Encoder
Selected bitrate                : 768 kBit/s
Quality                         : High
Add ID3 tag                     : No
Command line compressor         : G:\Program Files\Exact Audio Copy\FLAC\FLAC.EXE
Additional command line options : -V -8 -T "Date=%year%" -T "Genre=%genre%" %source%
TOC of the extracted CD
     Track |   Start  |  Length  | Start sector | End sector
    ---------------------------------------------------------
        1  |  0:00.00 |  3:00.64 |         0    |    13563
        2  |  3:00.64 |  3:56.58 |     13564    |    31321
        3  |  6:57.47 |  4:41.70 |     31322    |    52466
        4  | 11:39.42 |  3:36.30 |     52467    |    68696
        5  | 15:15.72 |  5:12.48 |     68697    |    92144
        6  | 20:28.45 |  4:40.25 |     92145    |   113169
        7  | 25:08.70 |  3:37.54 |    113170    |   129498
        8  | 28:46.49 |  3:46.15 |    129499    |   146463
        9  | 32:32.64 |  7:31.65 |    146464    |   180353
       10  | 40:04.54 |  4:44.49 |    180354    |   201702
       11  | 44:49.28 |  3:02.41 |    201703    |   215393
       12  | 47:51.69 |  3:16.60 |    215394    |   230153
       13  | 51:08.54 |  3:36.36 |    230154    |   246389
       14  | 54:45.15 |  3:28.31 |    246390    |   262020
       15  | 58:13.46 |  3:46.33 |    262021    |   279003
Range status and errors
Selected range
     Filename H:\MUSIC\Smokie\1976. Smokie - Midnight Cafe (7T's GLAM CD 38, EU)\Smokie - Midnight Cafe.wav
     Peak level 97.7 %
     Extraction speed 5.9 X
     Range quality 99.9 %
     Test CRC 62126485
     Copy CRC 62126485
     Copy OK
No errors occurred
AccurateRip summary
Track  1  accurately ripped (confidence 5)  [65C43393]  (AR v2)
Track  2  accurately ripped (confidence 5)  [F344A22D]  (AR v2)
Track  3  accurately ripped (confidence 5)  [444BD02B]  (AR v2)
Track  4  accurately ripped (confidence 5)  [EF84CE5C]  (AR v2)
Track  5  accurately ripped (confidence 5)  [08EB5905]  (AR v2)
Track  6  accurately ripped (confidence 5)  [8FE623FE]  (AR v2)
Track  7  accurately ripped (confidence 5)  [57836016]  (AR v2)
Track  8  accurately ripped (confidence 5)  [E88BE25E]  (AR v2)
Track  9  accurately ripped (confidence 5)  [B20A6F32]  (AR v2)
Track 10  accurately ripped (confidence 4)  [F13CCFDA]  (AR v2)
Track 11  accurately ripped (confidence 5)  [C7A2FDD2]  (AR v2)
Track 12  accurately ripped (confidence 5)  [450F1EFF]  (AR v2)
Track 13  accurately ripped (confidence 5)  [0E1E4199]  (AR v2)
Track 14  accurately ripped (confidence 5)  [B06B6F48]  (AR v2)
Track 15  accurately ripped (confidence 5)  [C4DE75ED]  (AR v2)
All tracks accurately ripped
End of status report
==== Log checksum 70D2BF42BEC6478E2223A075CF33725836FE3249BC35AE60A238F4AFF2207EAE ====

Smokie – Bright Lights & Back Alleys – 1977 (7T’s GLAM CD 39, EU)



Треклист:
01. It's Your Life [0:03:34.57]
02. I Can't Stay Here Tonight [0:04:08.19]
03. Sunshine Avenue [0:03:11.25]
04. Think Of Me [0:04:42.73]
05. In The Heat Of The Night [0:04:47.24]
06. Needles And Pins [0:02:45.06]
07. No One Could Ever Love You More [0:02:31.52]
08. The Dancer [0:03:51.69]
09. Baby It's You [0:03:50.68]
10. Walk Right Back [0:05:31.67]
11. Now You Think You Know [0:03:28.02]
12. Lay Back In The Arms Of Someone [0:04:05.45]
13. Here Lies A Man [0:03:28.49]

Back, Matrix

EAC

Exact Audio Copy V1.0 beta 3 from 29. August 2011
EAC extraction logfile from 30. October 2014, 21:39
Smokie / Bright Lights and Back Alleys
Used drive  : PLEXTOR DVDR   PX-L890SA   Adapter: 2  ID: 1
Read mode               : Secure
Utilize accurate stream : Yes
Defeat audio cache      : Yes
Make use of C2 pointers : No
Read offset correction                      : 6
Overread into Lead-In and Lead-Out          : No
Fill up missing offset samples with silence : Yes
Delete leading and trailing silent blocks   : No
Null samples used in CRC calculations       : Yes
Used interface                              : Native Win32 interface for Win NT & 2000
Used output format              : User Defined Encoder
Selected bitrate                : 768 kBit/s
Quality                         : High
Add ID3 tag                     : No
Command line compressor         : G:\Program Files\Exact Audio Copy\FLAC\FLAC.EXE
Additional command line options : -V -8 -T "Date=%year%" -T "Genre=%genre%" %source%
TOC of the extracted CD
     Track |   Start  |  Length  | Start sector | End sector
    ---------------------------------------------------------
        1  |  0:00.00 |  3:34.57 |         0    |    16106
        2  |  3:34.57 |  4:08.19 |     16107    |    34725
        3  |  7:43.01 |  3:11.25 |     34726    |    49075
        4  | 10:54.26 |  4:42.73 |     49076    |    70298
        5  | 15:37.24 |  4:47.24 |     70299    |    91847
        6  | 20:24.48 |  2:45.06 |     91848    |   104228
        7  | 23:09.54 |  2:31.52 |    104229    |   115605
        8  | 25:41.31 |  3:51.69 |    115606    |   132999
        9  | 29:33.25 |  3:50.68 |    133000    |   150317
       10  | 33:24.18 |  5:31.67 |    150318    |   175209
       11  | 38:56.10 |  3:28.02 |    175210    |   190811
       12  | 42:24.12 |  4:05.45 |    190812    |   209231
       13  | 46:29.57 |  3:28.49 |    209232    |   224880
Range status and errors
Selected range
     Filename H:\MUSIC\Smokie\1977. Smokie - Bright Lights & Back Alleys (7T's GLAM CD 39, EU)\Smokie - Bright Lights and Back Alleys.wav
     Peak level 97.7 %
     Extraction speed 6.1 X
     Range quality 100.0 %
     Test CRC 27DBF47A
     Copy CRC 27DBF47A
     Copy OK
No errors occurred
AccurateRip summary
Track  1  accurately ripped (confidence 4)  [C6A470E5]  (AR v2)
Track  2  accurately ripped (confidence 4)  [D17D07E0]  (AR v2)
Track  3  accurately ripped (confidence 4)  [C6A09983]  (AR v2)
Track  4  accurately ripped (confidence 4)  [BB2FFF3D]  (AR v2)
Track  5  accurately ripped (confidence 4)  [CF3F3F9E]  (AR v2)
Track  6  accurately ripped (confidence 4)  [97141A66]  (AR v2)
Track  7  accurately ripped (confidence 4)  [1C5E35CA]  (AR v2)
Track  8  accurately ripped (confidence 4)  [C7E45FF2]  (AR v2)
Track  9  accurately ripped (confidence 4)  [422CA494]  (AR v2)
Track 10  accurately ripped (confidence 4)  [73FB8896]  (AR v2)
Track 11  accurately ripped (confidence 4)  [25D5DA47]  (AR v2)
Track 12  accurately ripped (confidence 4)  [45652587]  (AR v2)
Track 13  accurately ripped (confidence 4)  [B22D862D]  (AR v2)
All tracks accurately ripped
End of status report
==== Log checksum 70E3604C0236CEAA50518528C671EC6A27E56348B793920F0D2D233E4F1EAC6C ====

Smokie – The Montreux Album – 1978 (7T’s GLAM CD 40, EU)



Треклист:
01. The Girl Can't Help It [0:03:48.72]
02. Power Of Love [0:01:57.73]
03. No More Letters [0:03:30.06]
04. Mexican Girl [0:03:59.36]
05. You Took Me By Surprise [0:03:38.03]
06. Oh Carol [0:03:40.32]
07. Liverpool Docks [0:02:58.29]
08. Light Up My Life [0:04:25.47]
09. Petesey's Song [0:02:53.16]
10. For A Few Dollars More [0:03:35.41]
11. Stumbilin' In (with Suzi Quatro) (Bonus Track) [0:03:57.58]
12. A Stranger With You (with Suzi Quatro) (Bonus Track) [0:03:53.24]

Back, Matrix

EAC

Exact Audio Copy V1.0 beta 3 from 29. August 2011
EAC extraction logfile from 30. October 2014, 19:15
Smokie / The Montreux Album (Remastered 2007)
Used drive  : PLEXTOR DVDR   PX-L890SA   Adapter: 2  ID: 1
Read mode               : Secure
Utilize accurate stream : Yes
Defeat audio cache      : Yes
Make use of C2 pointers : No
Read offset correction                      : 6
Overread into Lead-In and Lead-Out          : No
Fill up missing offset samples with silence : Yes
Delete leading and trailing silent blocks   : No
Null samples used in CRC calculations       : Yes
Used interface                              : Native Win32 interface for Win NT & 2000
Used output format              : User Defined Encoder
Selected bitrate                : 768 kBit/s
Quality                         : High
Add ID3 tag                     : No
Command line compressor         : G:\Program Files\Exact Audio Copy\FLAC\FLAC.EXE
Additional command line options : -V -8 -T "Date=%year%" -T "Genre=%genre%" %source%
TOC of the extracted CD
     Track |   Start  |  Length  | Start sector | End sector
    ---------------------------------------------------------
        1  |  0:00.00 |  3:48.72 |         0    |    17171
        2  |  3:48.72 |  1:57.73 |     17172    |    26019
        3  |  5:46.70 |  3:30.06 |     26020    |    41775
        4  |  9:17.01 |  3:59.36 |     41776    |    59736
        5  | 13:16.37 |  3:38.03 |     59737    |    76089
        6  | 16:54.40 |  3:40.32 |     76090    |    92621
        7  | 20:34.72 |  2:58.29 |     92622    |   106000
        8  | 23:33.26 |  4:25.47 |    106001    |   125922
        9  | 27:58.73 |  2:53.16 |    125923    |   138913
       10  | 30:52.14 |  3:35.41 |    138914    |   155079
       11  | 34:27.55 |  3:57.58 |    155080    |   172912
       12  | 38:25.38 |  3:53.24 |    172913    |   190411
Range status and errors
Selected range
     Filename H:\MUSIC\Smokie\1978. Smokie - The Montreux Album (7T's GLAM CD 40, EU)\Smokie - The Montreux Album.wav
     Peak level 97.7 %
     Extraction speed 5.3 X
     Range quality 99.9 %
     Test CRC 64674416
     Copy CRC 64674416
     Copy OK
No errors occurred
AccurateRip summary
Track  1  accurately ripped (confidence 4)  [038641BA]  (AR v2)
Track  2  accurately ripped (confidence 4)  [D693B4D8]  (AR v2)
Track  3  accurately ripped (confidence 4)  [D837B687]  (AR v2)
Track  4  accurately ripped (confidence 4)  [6CC7EDF2]  (AR v2)
Track  5  accurately ripped (confidence 4)  [DC0674FC]  (AR v2)
Track  6  accurately ripped (confidence 4)  [512D1784]  (AR v2)
Track  7  accurately ripped (confidence 4)  [F144DB9A]  (AR v2)
Track  8  accurately ripped (confidence 4)  [E54B5A2E]  (AR v2)
Track  9  accurately ripped (confidence 4)  [0C372733]  (AR v2)
Track 10  accurately ripped (confidence 4)  [A39CAB26]  (AR v2)
Track 11  accurately ripped (confidence 4)  [09C89BFC]  (AR v2)
Track 12  accurately ripped (confidence 4)  [2EAC330C]  (AR v2)
All tracks accurately ripped
End of status report
==== Log checksum 49151E1DC3CE870B4100B16E6D3A18E09157B89823910AA35ADE974B9178EA48 ====

Smokie – The Other Side Of The Road – 1979 (7T’s GLAM CD 41, EU)



Треклист:
01. The Other Side Of The Road [0:03:53.28]
02. Do To Me [0:03:21.35]
03. Belinda [0:03:00.65]
04. Big Fat Momma [0:02:50.38]
05. Don't Take Your Love Away This Time [0:03:14.17]
06. London Is Burning [0:05:11.46]
07. Babe It's Up To You [0:03:43.53]
08. You Don't Care [0:03:19.59]
09. All Alone [0:03:57.13]
10. I Can't Stop Loving You [0:03:37.56]
11. Too Many Pennies In Hell [0:01:17.15]
12. Samantha Elizabeth [0:04:01.34]
13. San Francisco Bay [0:03:17.22]
14. Cryin' (Bonus Track) [0:02:35.33]
15. Did She Have To Go Away (Bonus Track) [0:03:26.21]
16. You're You (Bonus Track) [0:03:45.21]
17. Maybe I Just Don`t Know (Bonus Track) [0:03:03.16]

Back, Matrix

EAC

Exact Audio Copy V1.0 beta 3 from 29. August 2011
EAC extraction logfile from 30. October 2014, 20:03
Smokie / The Other Side Of The Road
Used drive  : PLEXTOR DVDR   PX-L890SA   Adapter: 2  ID: 1
Read mode               : Secure
Utilize accurate stream : Yes
Defeat audio cache      : Yes
Make use of C2 pointers : No
Read offset correction                      : 6
Overread into Lead-In and Lead-Out          : No
Fill up missing offset samples with silence : Yes
Delete leading and trailing silent blocks   : No
Null samples used in CRC calculations       : Yes
Used interface                              : Native Win32 interface for Win NT & 2000
Used output format              : User Defined Encoder
Selected bitrate                : 768 kBit/s
Quality                         : High
Add ID3 tag                     : No
Command line compressor         : G:\Program Files\Exact Audio Copy\FLAC\FLAC.EXE
Additional command line options : -V -8 -T "Date=%year%" -T "Genre=%genre%" %source%
TOC of the extracted CD
     Track |   Start  |  Length  | Start sector | End sector
    ---------------------------------------------------------
        1  |  0:00.00 |  3:53.28 |         0    |    17502
        2  |  3:53.28 |  3:21.35 |     17503    |    32612
        3  |  7:14.63 |  3:00.65 |     32613    |    46177
        4  | 10:15.53 |  2:50.38 |     46178    |    58965
        5  | 13:06.16 |  3:14.17 |     58966    |    73532
        6  | 16:20.33 |  5:11.46 |     73533    |    96903
        7  | 21:32.04 |  3:43.53 |     96904    |   113681
        8  | 25:15.57 |  3:19.59 |    113682    |   128665
        9  | 28:35.41 |  3:57.13 |    128666    |   146453
       10  | 32:32.54 |  3:37.56 |    146454    |   162784
       11  | 36:10.35 |  1:17.15 |    162785    |   168574
       12  | 37:27.50 |  4:01.34 |    168575    |   186683
       13  | 41:29.09 |  3:17.22 |    186684    |   201480
       14  | 44:46.31 |  2:35.33 |    201481    |   213138
       15  | 47:21.64 |  3:26.21 |    213139    |   228609
       16  | 50:48.10 |  3:45.21 |    228610    |   245505
       17  | 54:33.31 |  3:03.16 |    245506    |   259246
Range status and errors
Selected range
     Filename H:\MUSIC\Smokie\1979. Smokie - The Other Side Of The Road (7T's GLAM CD 41, EU)\Smokie - The Other Side Of The Road.wav
     Peak level 97.7 %
     Extraction speed 5.9 X
     Range quality 100.0 %
     Test CRC EBA9D2BA
     Copy CRC EBA9D2BA
     Copy OK
No errors occurred
AccurateRip summary
Track  1  accurately ripped (confidence 4)  [A72BB58E]  (AR v2)
Track  2  accurately ripped (confidence 4)  [BEF1937E]  (AR v2)
Track  3  accurately ripped (confidence 5)  [12E9D1AC]  (AR v2)
Track  4  accurately ripped (confidence 5)  [171CC3C9]  (AR v2)
Track  5  accurately ripped (confidence 5)  [71F85701]  (AR v2)
Track  6  accurately ripped (confidence 4)  [B7171CA4]  (AR v2)
Track  7  accurately ripped (confidence 5)  [C71EA0B4]  (AR v2)
Track  8  accurately ripped (confidence 4)  [04532A58]  (AR v2)
Track  9  accurately ripped (confidence 4)  [BCCF48F1]  (AR v2)
Track 10  accurately ripped (confidence 5)  [33283DB1]  (AR v2)
Track 11  accurately ripped (confidence 5)  [40D6C1E7]  (AR v2)
Track 12  accurately ripped (confidence 4)  [175A74DC]  (AR v2)
Track 13  accurately ripped (confidence 4)  [8FD360C6]  (AR v2)
Track 14  accurately ripped (confidence 5)  [DE130E46]  (AR v2)
Track 15  accurately ripped (confidence 3)  [5D190553]  (AR v2)
Track 16  accurately ripped (confidence 4)  [81B476B3]  (AR v2)
Track 17  accurately ripped (confidence 4)  [B30AEE44]  (AR v2)
All tracks accurately ripped
End of status report
==== Log checksum 3F6632D5CC8A863A92C9AFF92596104E10C5EE881B03A63EEEA7EBFD0EA21465 ====

Smokie – Solid Ground – 1981 (7T’s GLAM CD 42, EU)



Треклист:
01. Jet Lagged [0:02:59.67]
02. I'm In Love With You [0:03:27.65]
03. Everthing A Man Could Need [0:05:14.49]
04. My Woman Don't Like Rock N Roll [0:02:19.65]
05. Take Good Care Of My Baby [0:03:23.21]
06. Rock N Roll Woman [0:04:14.72]
07. Your Love Is So Good For Me [0:04:06.22]
08. Long Time Coming [0:04:17.11]
09. Melody Goes On [0:02:27.51]
10. Songs [0:02:24.48]
11. I Wanna Kiss Your Lips (Bonus Track) [0:02:23.61]
12. Run To Me (Bonus Track) [0:04:11.15]
13. Look What You're Doin (Bonus Track) [0:03:39.01]
14. Little Town Flirt (Bonus Track) [0:03:24.30]
15. Not Fade Away (Bonus Track) [0:02:36.16]

Back, Matrix

EAC

Exact Audio Copy V1.0 beta 3 from 29. August 2011
EAC extraction logfile from 30. October 2014, 20:48
Smokie / Solid Ground
Used drive  : PLEXTOR DVDR   PX-L890SA   Adapter: 2  ID: 1
Read mode               : Secure
Utilize accurate stream : Yes
Defeat audio cache      : Yes
Make use of C2 pointers : No
Read offset correction                      : 6
Overread into Lead-In and Lead-Out          : No
Fill up missing offset samples with silence : Yes
Delete leading and trailing silent blocks   : No
Null samples used in CRC calculations       : Yes
Used interface                              : Native Win32 interface for Win NT & 2000
Used output format              : User Defined Encoder
Selected bitrate                : 768 kBit/s
Quality                         : High
Add ID3 tag                     : No
Command line compressor         : G:\Program Files\Exact Audio Copy\FLAC\FLAC.EXE
Additional command line options : -V -8 -T "Date=%year%" -T "Genre=%genre%" %source%
TOC of the extracted CD
     Track |   Start  |  Length  | Start sector | End sector
    ---------------------------------------------------------
        1  |  0:00.00 |  2:59.67 |         0    |    13491
        2  |  2:59.67 |  3:27.65 |     13492    |    29081
        3  |  6:27.57 |  5:14.49 |     29082    |    52680
        4  | 11:42.31 |  2:19.65 |     52681    |    63170
        5  | 14:02.21 |  3:23.21 |     63171    |    78416
        6  | 17:25.42 |  4:14.72 |     78417    |    97538
        7  | 21:40.39 |  4:06.22 |     97539    |   116010
        8  | 25:46.61 |  4:17.11 |    116011    |   135296
        9  | 30:03.72 |  2:27.51 |    135297    |   146372
       10  | 32:31.48 |  2:24.48 |    146373    |   157220
       11  | 34:56.21 |  2:23.61 |    157221    |   168006
       12  | 37:20.07 |  4:11.15 |    168007    |   186846
       13  | 41:31.22 |  3:39.01 |    186847    |   203272
       14  | 45:10.23 |  3:24.30 |    203273    |   218602
       15  | 48:34.53 |  2:36.16 |    218603    |   230318
Range status and errors
Selected range
     Filename H:\MUSIC\Smokie\1981. Smokie - Solid Ground (7T's GLAM CD 42, EU)\Smokie - Solid Ground.wav
     Peak level 97.7 %
     Extraction speed 5.6 X
     Range quality 100.0 %
     Test CRC D5011938
     Copy CRC D5011938
     Copy OK
No errors occurred
AccurateRip summary
Track  1  accurately ripped (confidence 4)  [C860EB08]  (AR v2)
Track  2  accurately ripped (confidence 4)  [97534E5C]  (AR v2)
Track  3  accurately ripped (confidence 4)  [2C1AAD2F]  (AR v2)
Track  4  accurately ripped (confidence 4)  [E9623D4E]  (AR v2)
Track  5  accurately ripped (confidence 4)  [5B0531DF]  (AR v2)
Track  6  accurately ripped (confidence 4)  [4C4AE643]  (AR v2)
Track  7  accurately ripped (confidence 4)  [B27692B9]  (AR v2)
Track  8  accurately ripped (confidence 4)  [D0831D49]  (AR v2)
Track  9  accurately ripped (confidence 4)  [47CF200E]  (AR v2)
Track 10  accurately ripped (confidence 4)  [C9718FEE]  (AR v2)
Track 11  accurately ripped (confidence 4)  [9AC9462D]  (AR v2)
Track 12  accurately ripped (confidence 4)  [B00504D4]  (AR v2)
Track 13  accurately ripped (confidence 4)  [1F5E6C8C]  (AR v2)
Track 14  accurately ripped (confidence 4)  [BC15E05D]  (AR v2)
Track 15  accurately ripped (confidence 4)  [19075DAC]  (AR v2)
All tracks accurately ripped
End of status report
==== Log checksum 2E8F7ACF365096215FAFE82C6D7095BEE391206918B8B5719F80F6CA81328A07 ====

Smokie – Strangers In Paradise – 1982 (7T’s GLAM CD 43, EU)



Треклист:
01. Introduction [0:00:18.26]
02. Love Remains A Stranger [0:03:57.63]
03. Falling For You [0:03:50.53]
04. Yesterday's Dreams [0:03:11.59]
05. Come On Home [0:03:55.12]
06. Can You Feel My Heartbeat [0:03:34.19]
07. Two Strangers Falling [0:03:41.40]
08. You'll Be Lonely Tonight [0:03:08.57]
09. Mirror, Mirror [0:04:06.49]
10. Now It's Too Late [0:03:34.12]
11. Long Way From Home [0:04:07.09]
12. Strangers In Paradise [0:02:38.32]

Back, Matrix

EAC

Exact Audio Copy V1.0 beta 3 from 29. August 2011
EAC extraction logfile from 30. October 2014, 19:32
SMOKIE / Strangers In Paradise ( GLAM CD 43 )
Used drive  : PLEXTOR DVDR   PX-L890SA   Adapter: 2  ID: 1
Read mode               : Secure
Utilize accurate stream : Yes
Defeat audio cache      : Yes
Make use of C2 pointers : No
Read offset correction                      : 6
Overread into Lead-In and Lead-Out          : No
Fill up missing offset samples with silence : Yes
Delete leading and trailing silent blocks   : No
Null samples used in CRC calculations       : Yes
Used interface                              : Native Win32 interface for Win NT & 2000
Used output format              : User Defined Encoder
Selected bitrate                : 768 kBit/s
Quality                         : High
Add ID3 tag                     : No
Command line compressor         : G:\Program Files\Exact Audio Copy\FLAC\FLAC.EXE
Additional command line options : -V -8 -T "Date=%year%" -T "Genre=%genre%" %source%
TOC of the extracted CD
     Track |   Start  |  Length  | Start sector | End sector
    ---------------------------------------------------------
        1  |  0:00.00 |  0:18.26 |         0    |     1375
        2  |  0:18.26 |  3:57.63 |      1376    |    19213
        3  |  4:16.14 |  3:50.53 |     19214    |    36516
        4  |  8:06.67 |  3:11.59 |     36517    |    50900
        5  | 11:18.51 |  3:55.12 |     50901    |    68537
        6  | 15:13.63 |  3:34.19 |     68538    |    84606
        7  | 18:48.07 |  3:41.40 |     84607    |   101221
        8  | 22:29.47 |  3:08.57 |    101222    |   115378
        9  | 25:38.29 |  4:06.49 |    115379    |   133877
       10  | 29:45.03 |  3:34.12 |    133878    |   149939
       11  | 33:19.15 |  4:07.09 |    149940    |   168473
       12  | 37:26.24 |  2:38.32 |    168474    |   180355
Range status and errors
Selected range
     Filename H:\MUSIC\Smokie\1982. Smokie - Strangers In Paradise (7T's GLAM CD 43, EU)\Smokie - Strangers In Paradise.wav
     Peak level 97.7 %
     Extraction speed 5.3 X
     Range quality 100.0 %
     Test CRC A0A69A50
     Copy CRC A0A69A50
     Copy OK
No errors occurred
AccurateRip summary
Track  1  accurately ripped (confidence 3)  [3E580092]  (AR v2)
Track  2  accurately ripped (confidence 3)  [2E98D73E]  (AR v2)
Track  3  accurately ripped (confidence 3)  [C1A5CD24]  (AR v2)
Track  4  accurately ripped (confidence 3)  [73BD2D2C]  (AR v2)
Track  5  accurately ripped (confidence 3)  [FF7354BF]  (AR v2)
Track  6  accurately ripped (confidence 3)  [FB6D087C]  (AR v2)
Track  7  accurately ripped (confidence 3)  [A44C3610]  (AR v2)
Track  8  accurately ripped (confidence 3)  [8AFC4C0C]  (AR v2)
Track  9  accurately ripped (confidence 3)  [9EF9BCD7]  (AR v2)
Track 10  accurately ripped (confidence 3)  [D3D3E9FA]  (AR v2)
Track 11  accurately ripped (confidence 3)  [3D2D70CD]  (AR v2)
Track 12  accurately ripped (confidence 3)  [60025C81]  (AR v2)
All tracks accurately ripped
End of status report
==== Log checksum 95096087E044A18EC92036CF19506C302381A35733C4AD824BF72614880D136B ====
[Профиль] [ЛС]
Кто просматривает тему:

Форум Тема Автор Размер
Rock (Pop-Rock & Soft Rock) Chris Norman - Crossover - 2015 [FLAC, image+.cue, lossless] sergej644 374 MB
Показать сообщения:    

Текущее время: Сегодня 18:00

Часовой пояс: GMT



Вы не можете начинать темы
Вы не можете отвечать на сообщения
Вы не можете редактировать свои сообщения
Вы не можете удалять свои сообщения
Вы не можете голосовать в опросах
Вы не можете прикреплять файлы к сообщениям
Вы не можете скачивать файлы