(Rock, Glam Rock) Smokie - Greatest Hits (Deluxe Edition) (2CD) - 2015 [FLAC, image+*cue, lossless]

 
Автор Сообщение

sergej644 ®

Пол:

Стаж: 4 года 11 месяцев

Сообщений: 6045

Откуда: Soviet Union



Награды: Нет

Торрент-статистика

Создавать темы 20-Июн-2015 15:24

[Цитировать]

-Smokie / Greatest Hits (Deluxe Edition) (2CD)-- Год издания: 2015
Страна: UK
Жанр: Rock, Glam Rock, Pop-Rock
Продолжительность: 02:46:39-Лейбл издания: Sonic Music
Тип альбома: Compilation
Страна-выпуска диска: Germany
Формат: FLAC
Битрейт аудио: Lossless
Тип рипа: image+cue
Наличие сканов в содержимом раздачи: да
--

CD 1 | 01:23:32

01.If You Think You Know How To Love Me (Jay Frog & Amfree Mix) (05:13)
02.Lay Back In The Arms Of Someone (04:05)
03.For A Few Dollars More (03:33)
04.Something's Been Making Me Blue (03:00)
05.San Francisco Bay (03:14)
06.Sally's Song (The Legacy Goes On) (03:50)
07.Don't Play That Game With Me (04:00)
08.Can't Cry Hard Enough (04:02)
09.Run To Me (04:10)
10.What Can I Do (03:37)
11.Changing All The Time (03:21)
12.Don't Play Your Rock'n'Roll To Me (03:18)
13.Wild Wild Angels (03:56)
14.Pass It Around (03:06)
15.Light Of Love (02:41)
16.I'll Meet You At Midnight (Live) (03:32)
17.Looking Daggers (03:44)
18.The Book (03:37)
19.Steppin' On Seashells (04:28)
20.Closer To The Candle (04:32)
21.Jealous Heart (Blame It On My) (04:09)
22.At The End Of The Rainbow (04:35)

CD 2 | 01:23:08

01.Babe It's Up To You (03:42)
02.It's Your Life (03:33)
03.Oh Carol (03:39)
04.Baby It's You (03:50)
05.Living Next Door To Alice (03:27)
06.Rock 'n' Roll Rodeo (04:30)
07.In The Middle Of A Lonely Dream (04:02)
08.Where Sorry's Not Enough (04:28)
09.Do To Me (03:18)
10.If You Think You Know How To Love Me (03:25)
11.Boulevard Of Broken Dreams (04:29)
12.You're So Different Tonight (03:33)
13.She Rides Wild Horses (03:27)
14.Mexican Girl (03:57)
15.Needles And Pins (02:43)
16.Lindy Lou (02:16)
17.Petesey's Song (02:50)
18.Tis Me (02:51)
19.You Don't Care (03:17)
20.A Cry In The Night (03:56)
21.Amazing (03:52)
22.Desperate Measures (Acoustic Version) (04:11)
23.Forty Years On (04:03)
--

Лог создания рипа

CD 1

Exact Audio Copy V1.0 beta 3 from 29. August 2011
EAC extraction logfile from 10. June 2015, 2:23
Smokie / Gold 1975-2015 CD1
Used drive  : PLEXTOR BD-R   PX-B940SA   Adapter: 5  ID: 0
Read mode               : Secure
Utilize accurate stream : Yes
Defeat audio cache      : Yes
Make use of C2 pointers : No
Read offset correction                      : 667
Overread into Lead-In and Lead-Out          : No
Fill up missing offset samples with silence : Yes
Delete leading and trailing silent blocks   : No
Null samples used in CRC calculations       : Yes
Used interface                              : Installed external ASPI interface
Used output format              : User Defined Encoder
Selected bitrate                : 128 kBit/s
Quality                         : High
Add ID3 tag                     : Yes
Command line compressor         : G:\Program Files (x86)\Exact Audio Copy\Flac\flac.exe
Additional command line options : -V -8 -T "Date=%year%" -T "Genre=%genre%" %source%
TOC of the extracted CD
     Track |   Start  |  Length  | Start sector | End sector
    ---------------------------------------------------------
        1  |  0:00.00 |  5:13.57 |         0    |    23531
        2  |  5:13.57 |  4:05.05 |     23532    |    41911
        3  |  9:18.62 |  3:32.71 |     41912    |    57882
        4  | 12:51.58 |  3:00.18 |     57883    |    71400
        5  | 15:52.01 |  3:14.52 |     71401    |    86002
        6  | 19:06.53 |  3:50.47 |     86003    |   103299
        7  | 22:57.25 |  4:00.56 |    103300    |   121355
        8  | 26:58.06 |  4:02.57 |    121356    |   139562
        9  | 31:00.63 |  4:10.13 |    139563    |   158325
       10  | 35:11.01 |  3:37.27 |    158326    |   174627
       11  | 38:48.28 |  3:21.40 |    174628    |   189742
       12  | 42:09.68 |  3:17.57 |    189743    |   204574
       13  | 45:27.50 |  3:56.11 |    204575    |   222285
       14  | 49:23.61 |  3:05.43 |    222286    |   236203
       15  | 52:29.29 |  2:40.32 |    236204    |   248235
       16  | 55:09.61 |  3:32.52 |    248236    |   264187
       17  | 58:42.38 |  3:44.54 |    264188    |   281041
       18  | 62:27.17 |  3:37.70 |    281042    |   297386
       19  | 66:05.12 |  4:28.20 |    297387    |   317506
       20  | 70:33.32 |  4:32.07 |    317507    |   337913
       21  | 75:05.39 |  4:08.69 |    337914    |   356582
       22  | 79:14.33 |  4:36.69 |    356583    |   377351
Range status and errors
Selected range
     Filename D:\MUSIC\Smokie - Gold 1975-2015 CD1.wav
     Peak level 99.5 %
     Extraction speed 5.4 X
     Range quality 100.0 %
     Test CRC 6D039190
     Copy CRC 6D039190
     Copy OK
No errors occurred
AccurateRip summary
Track  1  accurately ripped (confidence 1)  [FB8E6EB9]  (AR v2)
Track  2  accurately ripped (confidence 1)  [200EE3EE]  (AR v2)
Track  3  accurately ripped (confidence 1)  [0370CD03]  (AR v2)
Track  4  accurately ripped (confidence 1)  [6B459680]  (AR v2)
Track  5  accurately ripped (confidence 1)  [7DF0441B]  (AR v2)
Track  6  accurately ripped (confidence 1)  [6208480B]  (AR v2)
Track  7  accurately ripped (confidence 1)  [FD2091FE]  (AR v2)
Track  8  accurately ripped (confidence 1)  [5CB763E2]  (AR v2)
Track  9  accurately ripped (confidence 1)  [97A463BA]  (AR v2)
Track 10  accurately ripped (confidence 1)  [684F7C3F]  (AR v2)
Track 11  accurately ripped (confidence 1)  [4D9516AE]  (AR v2)
Track 12  accurately ripped (confidence 1)  [0A4E61EF]  (AR v2)
Track 13  accurately ripped (confidence 1)  [E5518178]  (AR v2)
Track 14  accurately ripped (confidence 1)  [29E8EEC5]  (AR v2)
Track 15  accurately ripped (confidence 1)  [0E6B61C4]  (AR v2)
Track 16  accurately ripped (confidence 1)  [37A8D4E8]  (AR v2)
Track 17  accurately ripped (confidence 1)  [E6C5FE0D]  (AR v2)
Track 18  accurately ripped (confidence 1)  [537DA2AC]  (AR v2)
Track 19  accurately ripped (confidence 1)  [E173A077]  (AR v2)
Track 20  accurately ripped (confidence 1)  [D999480A]  (AR v2)
Track 21  accurately ripped (confidence 1)  [FDEFB6E0]  (AR v2)
Track 22  accurately ripped (confidence 1)  [C15340B1]  (AR v2)
All tracks accurately ripped
End of status report

CD 2

Exact Audio Copy V1.0 beta 3 from 29. August 2011
EAC extraction logfile from 14. June 2015, 22:09
Smokie / Gold 1975-2015 CD2
Used drive  : PLEXTOR BD-R   PX-B940SA   Adapter: 5  ID: 0
Read mode               : Secure
Utilize accurate stream : Yes
Defeat audio cache      : Yes
Make use of C2 pointers : No
Read offset correction                      : 667
Overread into Lead-In and Lead-Out          : No
Fill up missing offset samples with silence : Yes
Delete leading and trailing silent blocks   : No
Null samples used in CRC calculations       : Yes
Used interface                              : Installed external ASPI interface
Used output format              : User Defined Encoder
Selected bitrate                : 128 kBit/s
Quality                         : High
Add ID3 tag                     : Yes
Command line compressor         : G:\Program Files (x86)\Exact Audio Copy\Flac\flac.exe
Additional command line options : -V -8 -T "Date=%year%" -T "Genre=%genre%" %source%
TOC of the extracted CD
     Track |   Start  |  Length  | Start sector | End sector
    ---------------------------------------------------------
        1  |  0:00.00 |  3:42.51 |         0    |    16700
        2  |  3:42.51 |  3:33.24 |     16701    |    32699
        3  |  7:16.00 |  3:39.23 |     32700    |    49147
        4  | 10:55.23 |  3:50.00 |     49148    |    66397
        5  | 14:45.23 |  3:27.26 |     66398    |    81948
        6  | 18:12.49 |  4:30.59 |     81949    |   102257
        7  | 22:43.33 |  4:01.36 |    102258    |   120368
        8  | 26:44.69 |  4:28.08 |    120369    |   140476
        9  | 31:13.02 |  3:17.58 |    140477    |   155309
       10  | 34:30.60 |  3:24.56 |    155310    |   170665
       11  | 37:55.41 |  4:28.29 |    170666    |   190794
       12  | 42:23.70 |  3:33.08 |    190795    |   206777
       13  | 45:57.03 |  3:26.61 |    206778    |   222288
       14  | 49:23.64 |  3:57.23 |    222289    |   240086
       15  | 53:21.12 |  2:43.27 |    240087    |   252338
       16  | 56:04.39 |  2:15.25 |    252339    |   262488
       17  | 58:19.64 |  2:49.65 |    262489    |   275228
       18  | 61:09.54 |  2:50.43 |    275229    |   288021
       19  | 64:00.22 |  3:17.16 |    288022    |   302812
       20  | 67:17.38 |  3:56.30 |    302813    |   320542
       21  | 71:13.68 |  3:52.71 |    320543    |   338013
       22  | 75:06.64 |  4:11.00 |    338014    |   356838
       23  | 79:17.64 |  4:03.44 |    356839    |   375107
Range status and errors
Selected range
     Filename D:\MUSIC\Smokie - Gold 1975-2015 CD2.wav
     Peak level 99.4 %
     Extraction speed 5.4 X
     Range quality 100.0 %
     Test CRC 82909E3B
     Copy CRC 82909E3B
     Copy OK
No errors occurred
AccurateRip summary
Track  1  accurately ripped (confidence 1)  [BB606FB0]  (AR v2)
Track  2  accurately ripped (confidence 1)  [4B0A2C12]  (AR v2)
Track  3  accurately ripped (confidence 1)  [9212D255]  (AR v2)
Track  4  accurately ripped (confidence 1)  [6439EB24]  (AR v2)
Track  5  accurately ripped (confidence 1)  [9657903C]  (AR v2)
Track  6  accurately ripped (confidence 1)  [9715DE95]  (AR v2)
Track  7  accurately ripped (confidence 1)  [8130E129]  (AR v2)
Track  8  accurately ripped (confidence 1)  [4B35A37B]  (AR v2)
Track  9  accurately ripped (confidence 1)  [4BDA9AB0]  (AR v2)
Track 10  accurately ripped (confidence 1)  [21BC7954]  (AR v2)
Track 11  accurately ripped (confidence 1)  [98B8CE86]  (AR v2)
Track 12  accurately ripped (confidence 1)  [34F0C38B]  (AR v2)
Track 13  accurately ripped (confidence 1)  [7BE90140]  (AR v2)
Track 14  accurately ripped (confidence 1)  [7A416D15]  (AR v2)
Track 15  accurately ripped (confidence 1)  [56B3DF59]  (AR v2)
Track 16  accurately ripped (confidence 1)  [626F4F19]  (AR v2)
Track 17  accurately ripped (confidence 1)  [84D6E9BE]  (AR v2)
Track 18  accurately ripped (confidence 1)  [68C19639]  (AR v2)
Track 19  accurately ripped (confidence 1)  [98A41198]  (AR v2)
Track 20  accurately ripped (confidence 1)  [C26CA685]  (AR v2)
Track 21  accurately ripped (confidence 1)  [31303AB2]  (AR v2)
Track 22  accurately ripped (confidence 1)  [64A815B6]  (AR v2)
Track 23  accurately ripped (confidence 1)  [452B1D58]  (AR v2)
All tracks accurately ripped
End of status report

Индексная карта (non-compilant .cue)

CD 1

REM GENRE Rock
REM DATE 2015
REM DISCID 3E13A716
REM COMMENT "ExactAudioCopy v1.0b3"
PERFORMER "Smokie"
TITLE "Gold 1975-2015 CD1"
FILE "Smokie - Gold 1975-2015 CD1.wav" WAVE
  TRACK 01 AUDIO
    TITLE "If you think you know how to love me"
    PERFORMER "Smokie"
    INDEX 01 00:00:00
  TRACK 02 AUDIO
    TITLE "Lay back in the arms of someone"
    PERFORMER "Smokie"
    INDEX 00 05:13:48
    INDEX 01 05:13:57
  TRACK 03 AUDIO
    TITLE "For a few dollars more"
    PERFORMER "Smokie"
    INDEX 00 09:18:21
    INDEX 01 09:18:62
  TRACK 04 AUDIO
    TITLE "Something's been making me blue"
    PERFORMER "Smokie"
    INDEX 01 12:51:58
  TRACK 05 AUDIO
    TITLE "San Francisco bay"
    PERFORMER "Smokie"
    INDEX 00 15:51:29
    INDEX 01 15:52:01
  TRACK 06 AUDIO
    TITLE "Sally's song"
    PERFORMER "Smokie"
    INDEX 00 19:06:09
    INDEX 01 19:06:53
  TRACK 07 AUDIO
    TITLE "Don't play that game with me"
    PERFORMER "Smokie"
    INDEX 00 22:56:69
    INDEX 01 22:57:25
  TRACK 08 AUDIO
    TITLE "Can't cry hard enough"
    PERFORMER "Smokie"
    INDEX 00 26:57:38
    INDEX 01 26:58:06
  TRACK 09 AUDIO
    TITLE "Run to me"
    PERFORMER "Smokie"
    INDEX 00 31:00:32
    INDEX 01 31:00:63
  TRACK 10 AUDIO
    TITLE "What can I do"
    PERFORMER "Smokie"
    INDEX 00 35:10:57
    INDEX 01 35:11:01
  TRACK 11 AUDIO
    TITLE "Changing all the time"
    PERFORMER "Smokie"
    INDEX 00 38:47:45
    INDEX 01 38:48:28
  TRACK 12 AUDIO
    TITLE "Don't play your rock'nroll to me"
    PERFORMER "Smokie"
    INDEX 00 42:09:44
    INDEX 01 42:09:68
  TRACK 13 AUDIO
    TITLE "Wild wild angels"
    PERFORMER "Smokie"
    INDEX 00 45:27:46
    INDEX 01 45:27:50
  TRACK 14 AUDIO
    TITLE "Pass it around"
    PERFORMER "Smokie"
    INDEX 00 49:23:13
    INDEX 01 49:23:61
  TRACK 15 AUDIO
    TITLE "Light of love"
    PERFORMER "Smokie"
    INDEX 01 52:29:29
  TRACK 16 AUDIO
    TITLE "I'll meet you at midnight"
    PERFORMER "Smokie"
    INDEX 01 55:09:61
  TRACK 17 AUDIO
    TITLE "Looking daggers"
    PERFORMER "Smokie"
    INDEX 00 58:41:38
    INDEX 01 58:42:38
  TRACK 18 AUDIO
    TITLE "The book"
    PERFORMER "Smokie"
    INDEX 00 62:26:35
    INDEX 01 62:27:17
  TRACK 19 AUDIO
    TITLE "Steppin' on seashells"
    PERFORMER "Smokie"
    INDEX 00 66:04:42
    INDEX 01 66:05:12
  TRACK 20 AUDIO
    TITLE "Closer to the candle"
    PERFORMER "Smokie"
    INDEX 00 70:33:27
    INDEX 01 70:33:32
  TRACK 21 AUDIO
    TITLE "Jealous heart"
    PERFORMER "Smokie"
    INDEX 00 75:04:72
    INDEX 01 75:05:39
  TRACK 22 AUDIO
    TITLE "At the end of the rainbow"
    PERFORMER "Smokie"
    INDEX 00 79:14:26
    INDEX 01 79:14:33

CD 2

REM GENRE Rock
REM DATE 2015
REM DISCID 6D138917
REM COMMENT "ExactAudioCopy v1.0b3"
PERFORMER "Smokie"
TITLE "Gold 1975-2015 CD2"
FILE "Smokie - Gold 1975-2015 CD2.wav" WAVE
  TRACK 01 AUDIO
    TITLE "Babe it's up to you"
    PERFORMER "Smokie"
    INDEX 01 00:00:00
  TRACK 02 AUDIO
    TITLE "It's your life"
    PERFORMER "Smokie"
    INDEX 01 03:42:51
  TRACK 03 AUDIO
    TITLE "Oh Carol"
    PERFORMER "Smokie"
    INDEX 00 07:15:30
    INDEX 01 07:16:00
  TRACK 04 AUDIO
    TITLE "Baby it's you"
    PERFORMER "Smokie"
    INDEX 00 10:55:09
    INDEX 01 10:55:23
  TRACK 05 AUDIO
    TITLE "Living next door to Alice"
    PERFORMER "Smokie"
    INDEX 00 14:44:70
    INDEX 01 14:45:23
  TRACK 06 AUDIO
    TITLE "Rock'n'roll rodeo"
    PERFORMER "Smokie"
    INDEX 00 18:12:34
    INDEX 01 18:12:49
  TRACK 07 AUDIO
    TITLE "In the middle of a lonley dream"
    PERFORMER "Smokie"
    INDEX 00 22:42:06
    INDEX 01 22:43:33
  TRACK 08 AUDIO
    TITLE "Where sorry's not enough"
    PERFORMER "Smokie"
    INDEX 01 26:44:69
  TRACK 09 AUDIO
    TITLE "Do to me"
    PERFORMER "Smokie"
    INDEX 01 31:13:02
  TRACK 10 AUDIO
    TITLE "If you thing you know how to love me"
    PERFORMER "Smokie"
    INDEX 01 34:30:60
  TRACK 11 AUDIO
    TITLE "Boulevard of broken dreams"
    PERFORMER "Smokie"
    INDEX 00 37:55:39
    INDEX 01 37:55:41
  TRACK 12 AUDIO
    TITLE "You're so different tonight"
    PERFORMER "Smokie"
    INDEX 01 42:23:70
  TRACK 13 AUDIO
    TITLE "She rides wild horses"
    PERFORMER "Smokie"
    INDEX 00 45:56:58
    INDEX 01 45:57:03
  TRACK 14 AUDIO
    TITLE "Mexican girl"
    PERFORMER "Smokie"
    INDEX 01 49:23:64
  TRACK 15 AUDIO
    TITLE "Needles and pins"
    PERFORMER "Smokie"
    INDEX 01 53:21:12
  TRACK 16 AUDIO
    TITLE "Lindy Lou"
    PERFORMER "Smokie"
    INDEX 00 56:04:36
    INDEX 01 56:04:39
  TRACK 17 AUDIO
    TITLE "Petesey's song"
    PERFORMER "Smokie"
    INDEX 01 58:19:64
  TRACK 18 AUDIO
    TITLE "Tis me"
    PERFORMER "Smokie"
    INDEX 01 61:09:54
  TRACK 19 AUDIO
    TITLE "You don't care"
    PERFORMER "Smokie"
    INDEX 00 64:00:08
    INDEX 01 64:00:22
  TRACK 20 AUDIO
    TITLE "A cry in the night"
    PERFORMER "Smokie"
    INDEX 00 67:17:29
    INDEX 01 67:17:38
  TRACK 21 AUDIO
    TITLE "Amazing"
    PERFORMER "Smokie"
    INDEX 00 71:13:51
    INDEX 01 71:13:68
  TRACK 22 AUDIO
    TITLE "Desperate Measures"
    PERFORMER "Smokie"
    INDEX 00 75:06:20
    INDEX 01 75:06:64
  TRACK 23 AUDIO
    TITLE "Forty years on"
    PERFORMER "Smokie"
    INDEX 00 79:17:23
    INDEX 01 79:17:64

Лог Audiochecker

CD 1

AUDIOCHECKER v2.0 beta (build 457) - by Dester - opdester@freemail.hu
~~~~~~~~~~~~~~~~~~~~~~~~~~~~~~~~~~
Started at: суббота, 20. 06. 2015. - 17:27.55
1 file found
1 -===- D:\Torrent files\Smоkiе - Gоld 1975-2015 [40th Anniversary Deluxe Edition 2CD] (2015) FLAC\CD 1\Smokie - Gold 1975-2015 CD1.flac
  Extracted successfully
  Conclusion: this track is CDDA with probability 100%
  Tempfile successfully deleted.
Finished at: суббота, 20. 06. 2015. - 17:31.59 (operation time: 0:04.04)

CD 2

AUDIOCHECKER v2.0 beta (build 457) - by Dester - opdester@freemail.hu
~~~~~~~~~~~~~~~~~~~~~~~~~~~~~~~~~~
Started at: суббота, 20. 06. 2015. - 17:32.14
1 file found
1 -===- D:\Torrent files\Smоkiе - Gоld 1975-2015 [40th Anniversary Deluxe Edition 2CD] (2015) FLAC\CD 2\Smokie - Gold 1975-2015 CD2.flac
  Extracted successfully
  Conclusion: this track is CDDA with probability 100%
  Tempfile successfully deleted.
Finished at: суббота, 20. 06. 2015. - 17:37.13 (operation time: 0:04.58)
--Не забываем говорить
[Профиль] [ЛС]
Показать сообщения:    

Текущее время: Сегодня 06:08

Часовой пояс: GMT



Вы не можете начинать темы
Вы не можете отвечать на сообщения
Вы не можете редактировать свои сообщения
Вы не можете удалять свои сообщения
Вы не можете голосовать в опросах
Вы не можете прикреплять файлы к сообщениям
Вы не можете скачивать файлы